osu file format v14

[General]
AudioFilename: audio.mp3
AudioLeadIn: 0
PreviewTime: 42396
Countdown: 0
SampleSet: Soft
StackLeniency: 0.7
Mode: 0
LetterboxInBreaks: 0
WidescreenStoryboard: 1

[Editor]
DistanceSpacing: 1
BeatDivisor: 4
GridSize: 32
TimelineZoom: 1.1

[Metadata]
Title:Darling
TitleUnicode:Darling
Artist:Nishino Kana
ArtistUnicode:西野カナ
Creator:Petal
Version:Normal
Source:
Tags:japanese short cut female love romance cute matha smau5 with love
BeatmapID:2200104
BeatmapSetID:1052774

[Difficulty]
HPDrainRate:4.5
CircleSize:3.5
OverallDifficulty:4
ApproachRate:5
SliderMultiplier:0.999999999999999
SliderTickRate:1

[Events]
//Background and Video events
0,0,"BG.jpg",0,0
//Break Periods
//Storyboard Layer 0 (Background)
//Storyboard Layer 1 (Fail)
//Storyboard Layer 2 (Pass)
//Storyboard Layer 3 (Foreground)
//Storyboard Layer 4 (Overlay)
//Storyboard Sound Samples

[TimingPoints]
1334,375,4,2,1,20,1,0
1334,-100,4,2,1,20,0,0
7334,-100,4,2,1,25,0,0
19334,-100,4,2,1,45,0,0
30209,-100,4,2,1,45,0,0
30959,-100,4,2,1,45,0,0
31240,-100,4,2,1,5,0,0
31334,-100,4,2,1,50,0,0
42209,-100,4,2,1,50,0,0
42959,-100,4,2,1,30,0,0
43334,-100,4,2,1,70,0,1
55146,-100,4,2,1,70,0,0
55334,-100,4,2,1,70,0,1
65834,-100,4,2,1,70,0,0
66209,-100,4,2,1,70,0,0
66959,-100,4,2,1,70,0,0
67334,-100,4,2,1,60,0,0
90209,-100,4,2,1,60,0,0
90584,-100,4,2,1,30,0,0
90771,-100,4,2,1,50,0,0
91334,-100,4,2,1,15,0,0
94240,-100,4,2,1,5,0,0

[Colours]
Combo1 : 147,133,243
Combo2 : 123,193,247
Combo3 : 213,107,164
Combo4 : 165,198,216
Combo5 : 204,193,210
Combo6 : 232,207,151

[HitObjects]
44,327,1334,6,0,L|165:336,1,99.9999999999999,2|2,0:0|0:0,0:0:0:0:
227,280,2084,2,0,P|237:304|232:349,2,50,2|2|2,0:0|0:0|0:0,0:0:0:0:
144,223,2834,2,0,L|150:108,1,99.9999999999999,2|2,0:0|0:0,0:0:0:0:
159,23,3584,2,0,P|119:35|96:36,2,50,2|2|2,0:0|0:0|0:0,0:0:0:0:
257,4,4334,6,0,L|365:16,1,99.9999999999999,2|2,0:0|0:0,0:0:0:0:
434,77,5084,2,0,P|449:45|448:21,2,50,2|2|2,0:0|0:0|0:0,0:0:0:0:
367,151,5834,2,0,L|378:261,1,99.9999999999999,2|2,0:0|0:0,0:0:0:0:
412,344,6584,2,0,P|385:336|353:334,1,50,2|2,0:0|0:0,0:0:0:0:
313,329,6959,2,0,P|289:344|267:367,1,50,2|2,0:0|0:0,0:0:0:0:
228,381,7334,6,0,L|116:370,1,99.9999999999999,2|2,0:0|0:0,0:0:0:0:
39,325,8084,1,2,0:0:0:0:
51,225,8459,1,2,0:0:0:0:
69,126,8834,2,0,P|120:121|164:162,1,99.9999999999999,2|2,0:0|0:0,0:0:0:0:
182,245,9584,2,0,L|291:227,1,99.9999999999999,2|2,0:0|0:0,0:0:0:0:
359,290,10334,6,0,L|348:348,2,50,2|2|2,0:0|0:0|0:0,0:0:0:0:
441,233,11084,2,0,L|433:167,1,50,2|2,0:0|0:0,0:0:0:0:
404,143,11459,2,0,L|396:77,1,50,2|2,0:0|0:0,0:0:0:0:
413,45,11834,2,0,P|371:59|313:17,1,99.9999999999999,2|2,0:0|0:0,0:0:0:0:
259,114,12584,2,0,P|263:144|263:169,2,50,2|2|2,0:0|0:0|0:0,0:0:0:0:
189,41,13334,6,0,B|112:34|122:96|43:86,1,150,2|2,0:0|0:0,0:0:0:0:
5,65,14084,2,0,L|20:184,1,99.9999999999999,2|2,0:0|0:0,0:0:0:0:
35,262,14834,2,0,P|71:252|93:231,1,50,2|2,0:0|0:0,0:0:0:0:
113,207,15209,2,0,L|175:214,1,50,2|2,0:0|0:0,0:0:0:0:
202,243,15584,2,0,L|200:178,2,50,2|2|2,0:0|0:0|0:0,0:0:0:0:
185,341,16334,5,2,0:0:0:0:
284,348,16709,2,0,P|315:342|339:342,1,50,2|2,0:0|0:0,0:0:0:0:
382,332,17084,2,0,L|375:385,2,50,2|2|2,0:0|0:0|0:0,0:0:0:0:
454,263,17834,1,2,0:0:0:0:
371,206,18209,1,2,0:0:0:0:
440,133,18584,2,0,L|422:71,1,50,2|2,0:0|0:0,0:0:0:0:
384,59,18959,2,0,L|335:72,1,50,2|2,0:0|0:0,0:0:0:0:
297,103,19334,6,0,P|264:66|208:69,1,99.9999999999999,4|8,0:3|0:0,0:0:0:0:
128,113,20084,2,0,L|65:102,2,50,2|4|8,0:0|0:3|0:0,0:0:0:0:
156,153,20646,1,2,0:0:0:0:
156,153,20834,2,0,L|138:266,1,99.9999999999999,4|8,0:3|0:0,0:0:0:0:
165,348,21584,2,0,P|193:338|223:335,1,50,2|4,0:0|0:3,0:0:0:0:
260,351,21959,1,8,0:0:0:0:
349,305,22334,6,0,P|377:315|407:318,2,50,4|2|8,0:3|0:0|0:0,0:0:0:0:
284,227,23084,2,0,L|291:163,1,50,2|4,0:0|0:3,0:0:0:0:
294,127,23459,1,8,0:0:0:0:
348,42,23834,2,0,P|310:19|248:41,1,99.9999999999999,4|8,0:3|0:0,0:0:0:0:
157,31,24584,2,0,P|122:42|102:39,2,50,2|4|8,0:0|0:3|0:0,0:0:0:0:
198,121,25334,6,0,L|189:235,1,99.9999999999999,4|8,0:3|0:0,0:0:0:0:
97,257,26084,2,0,L|103:202,1,50,2|4,0:0|0:3,0:0:0:0:
106,157,26459,1,8,0:0:0:0:
198,121,26834,2,0,L|317:130,1,99.9999999999999,4|8,0:3|0:0,0:0:0:0:
389,169,27584,2,0,P|398:144|400:110,1,50,4|4,0:3|0:3,0:0:0:0:
382,73,27959,1,8,0:0:0:0:
297,128,28334,6,0,L|303:248,1,99.9999999999999,4|8,0:3|0:0,0:0:0:0:
364,306,29084,2,0,P|395:293|419:289,2,50,4|4|8,0:3|0:3|0:0,0:0:0:0:
333,345,29646,1,4,0:3:0:0:
333,345,29834,1,4,0:3:0:0:
237,314,30209,1,4,0:3:0:0:
97,369,30771,1,4,0:3:0:0:
97,369,30959,1,8,0:0:0:0:
52,279,31334,6,0,L|60:169,1,99.9999999999999,4|8,0:3|0:0,0:0:0:0:
67,129,31896,1,2,0:0:0:0:
67,129,32084,2,0,L|129:133,1,50,2|4,0:0|0:3,0:0:0:0:
167,133,32459,1,8,0:0:0:0:
259,95,32834,2,0,P|271:142|249:192,1,99.9999999999999,4|8,0:3|0:0,0:0:0:0:
225,230,33396,2,0,L|293:223,1,50,8|0,0:0|0:0,0:0:0:0:
321,242,33771,1,4,0:3:0:0:
321,242,33959,1,8,0:0:0:0:
413,203,34334,6,0,L|426:92,1,99.9999999999999,4|8,0:3|0:0,0:0:0:0:
397,61,34896,1,2,0:0:0:0:
397,61,35084,2,0,L|336:71,1,50,2|4,0:0|0:3,0:0:0:0:
302,47,35459,1,8,0:0:0:0:
207,13,35834,2,0,P|195:63|219:110,1,99.9999999999999,4|8,0:3|0:0,0:0:0:0:
254,135,36396,1,8,0:0:0:0:
254,135,36584,2,0,L|248:195,1,50,2|4,0:0|0:3,0:0:0:0:
241,234,36959,1,8,0:0:0:0:
272,329,37334,6,0,P|232:340|176:312,1,99.9999999999999,4|8,0:3|0:0,0:0:0:0:
147,279,37896,1,8,0:0:0:0:
147,279,38084,2,0,L|87:285,2,50,2|4|8,0:0|0:3|0:0,0:0:0:0:
241,234,38834,2,0,L|342:253,1,99.9999999999999,4|8,0:3|0:0,0:0:0:0:
387,241,39396,1,8,0:0:0:0:
387,241,39584,2,0,L|401:179,1,50,2|4,0:0|0:3,0:0:0:0:
410,143,39959,1,8,0:0:0:0:
413,43,40334,6,0,B|363:40|368:71|310:70,1,99.9999999999999,4|8,0:3|0:0,0:0:0:0:
278,40,40896,1,8,0:0:0:0:
209,113,41271,2,0,L|217:165,2,50,4|8|4,0:3|0:0|0:3,0:0:0:0:
174,76,41834,1,4,0:3:0:0:
88,24,42209,1,4,0:3:0:0:
55,251,43334,6,0,L|159:241,1,99.9999999999999,6|8,0:0|0:0,0:0:0:0:
198,217,43896,1,8,0:0:0:0:
198,217,44084,2,0,L|189:274,1,50,2|4,0:0|3:0,0:0:0:0:
181,315,44459,1,8,0:0:0:0:
267,364,44834,2,0,P|308:358|340:303,1,99.9999999999999,4|8,3:0|0:0,0:0:0:0:
333,262,45396,1,2,0:0:0:0:
397,185,45771,2,0,L|461:201,2,50,4|8|0,3:0|0:0|0:0,0:0:0:0:
370,142,46334,6,0,L|268:160,1,99.9999999999999,4|8,3:0|0:0,0:0:0:0:
223,147,46896,1,8,0:0:0:0:
223,147,47084,2,0,L|151:159,2,50,2|4|8,0:0|3:0|0:0,0:0:0:0:
206,245,47834,2,0,P|186:285|204:338,1,99.9999999999999,4|8,3:0|0:0,0:0:0:0:
295,371,48584,2,0,L|404:362,1,99.9999999999999,2|8,0:3|0:0,0:0:0:0:
444,357,49146,1,2,0:0:0:0:
444,357,49334,5,4,3:0:0:0:
392,271,49709,1,8,0:0:0:0:
392,271,49896,1,8,0:0:0:0:
392,271,50084,2,0,P|400:231|381:162,1,99.9999999999999,2|8,0:0|0:0,0:0:0:0:
423,80,50834,2,0,L|488:88,2,50,4|2|8,3:0|0:0|0:0,0:0:0:0:
384,48,51396,1,8,0:0:0:0:
384,48,51584,2,0,L|272:65,1,99.9999999999999,2|8,0:3|0:0,0:0:0:0:
206,124,52334,6,0,P|156:87|115:97,1,99.9999999999999,4|8,3:0|0:0,0:0:0:0:
83,125,52896,1,8,0:0:0:0:
83,125,53084,2,0,L|90:187,1,50,2|4,0:0|3:0,0:0:0:0:
92,224,53459,1,8,0:0:0:0:
97,323,53834,2,0,P|72:314|36:314,2,50,4|2|8,3:0|0:0|0:0,0:0:0:0:
137,352,54396,2,0,L|244:340,1,99.9999999999999,2|4,0:0|3:0,0:0:0:0:
286,334,54959,1,8,0:0:0:0:
382,361,55334,6,0,P|388:316|349:260,1,99.9999999999999,6|8,3:0|0:0,0:0:0:0:
320,243,55896,1,8,0:0:0:0:
320,243,56084,2,0,L|329:174,1,50,2|4,0:0|3:0,0:0:0:0:
337,144,56459,1,8,0:0:0:0:
260,79,56834,2,0,L|157:90,1,99.9999999999999,4|8,3:0|0:0,0:0:0:0:
119,70,57396,1,8,0:0:0:0:
33,122,57771,2,0,P|15:88|14:59,2,50,4|8|0,3:0|0:0|0:0,0:0:0:0:
64,161,58334,6,0,L|58:276,1,99.9999999999999,4|8,3:0|0:0,0:0:0:0:
40,309,58896,1,8,0:0:0:0:
122,365,59271,1,4,3:0:0:0:
122,365,59459,2,0,L|185:358,1,50,8|4,0:0|3:0,0:0:0:0:
216,336,59834,2,0,L|327:352,1,99.9999999999999,4|8,3:0|0:0,0:0:0:0:
403,303,60584,2,0,P|417:337|417:361,2,50,2|4|8,0:3|3:0|0:0,0:0:0:0:
366,269,61146,1,2,0:0:0:0:
366,269,61334,5,4,3:0:0:0:
277,222,61709,1,8,0:0:0:0:
277,222,61896,1,8,0:0:0:0:
277,222,62084,2,0,L|160:227,1,99.9999999999999,2|8,0:0|0:0,0:0:0:0:
84,187,62834,2,0,P|70:215|66:254,2,50,4|2|8,3:0|0:0|0:0,0:0:0:0:
117,150,63396,1,8,0:0:0:0:
117,150,63584,2,0,L|110:84,1,50,2|4,0:3|3:0,0:0:0:0:
100,51,63959,1,8,0:0:0:0:
189,5,64334,6,0,L|304:17,1,99.9999999999999,4|8,3:0|0:0,0:0:0:0:
331,40,64896,1,8,0:0:0:0:
331,40,65084,2,0,L|392:26,2,50,2|4|8,0:0|3:0|0:0,0:0:0:0:
262,112,65834,1,4,3:0:0:0:
313,197,66209,6,0,P|336:252|285:327,1,150,6|4,0:0|3:0,0:0:0:0:
246,345,66959,1,8,0:0:0:0:
163,288,67334,6,0,L|48:282,1,99.9999999999999,6|8,0:0|0:0,0:0:0:0:
21,311,67896,1,8,0:0:0:0:
21,311,68084,2,0,L|26:376,2,50,2|4|8,0:0|3:0|0:0,0:0:0:0:
25,210,68834,2,0,L|14:95,1,99.9999999999999,4|8,3:0|0:0,0:0:0:0:
36,65,69396,1,8,0:0:0:0:
121,116,69771,1,4,3:0:0:0:
121,116,69959,1,8,0:0:0:0:
201,56,70334,6,0,P|245:45|300:77,1,99.9999999999999,4|8,3:0|0:0,0:0:0:0:
324,106,70896,1,8,0:0:0:0:
324,106,71084,2,0,L|397:101,1,50,2|4,0:0|3:0,0:0:0:0:
415,74,71459,1,8,0:0:0:0:
480,149,71834,2,0,L|476:205,1,50,4|2,3:0|0:0,0:0:0:0:
444,237,72209,2,0,L|447:286,1,50,8|2,0:0|0:0,0:0:0:0:
462,334,72584,2,0,L|517:338,2,50,8|4|8,0:0|3:0|0:0,0:0:0:0:
377,373,73334,6,0,L|264:360,1,99.9999999999999,4|8,3:0|0:0,0:0:0:0:
237,331,73896,1,8,0:0:0:0:
145,370,74271,1,4,3:0:0:0:
145,370,74459,1,8,0:0:0:0:
69,304,74834,2,0,P|53:243|65:201,1,99.9999999999999,4|8,3:0|0:0,0:0:0:0:
98,175,75396,1,8,0:0:0:0:
98,175,75584,2,0,L|91:117,1,50,2|4,0:3|3:0,0:0:0:0:
85,75,75959,1,8,0:0:0:0:
180,104,76334,6,0,L|194:210,1,99.9999999999999,4|8,3:0|0:0,0:0:0:0:
227,239,76896,1,8,0:0:0:0:
227,239,77084,2,0,L|281:232,2,50,2|4|8,0:0|3:0|0:0,0:0:0:0:
206,337,77834,2,0,L|273:329,1,50,4|0,3:0|0:0,0:0:0:0:
298,356,78209,1,8,0:0:0:0:
378,297,78584,2,0,P|391:257|389:238,1,50,6|8,3:0|0:0,0:0:0:0:
414,205,78959,2,0,P|391:169|375:158,1,50,8|8,0:0|0:0,0:0:0:0:
349,130,79334,6,0,L|242:137,1,99.9999999999999,4|8,0:0|0:0,0:0:0:0:
202,119,79896,1,8,0:0:0:0:
131,189,80271,1,4,3:0:0:0:
131,189,80459,1,8,0:0:0:0:
44,139,80834,2,0,P|29:86|46:38,1,99.9999999999999,4|8,3:0|0:0,0:0:0:0:
85,20,81396,1,8,0:0:0:0:
85,20,81584,2,0,L|156:32,1,50,2|4,0:3|3:0,0:0:0:0:
183,38,81959,1,8,0:0:0:0:
274,2,82334,6,0,P|285:50|264:95,1,99.9999999999999,4|8,3:0|0:0,0:0:0:0:
227,129,82896,1,8,0:0:0:0:
227,129,83084,2,0,L|234:183,1,50,4|4,3:0|3:0,0:0:0:0:
265,217,83459,2,0,L|258:271,1,50,8|2,0:0|0:0,0:0:0:0:
230,308,83834,5,4,3:0:0:0:
152,244,84209,1,8,0:0:0:0:
87,320,84584,1,4,3:0:0:0:
19,246,84959,2,0,L|22:183,1,50,8|0,0:0|3:0,0:0:0:0:
50,155,85334,6,0,P|84:170|151:158,1,99.9999999999999,4|8,3:0|0:0,0:0:0:0:
179,125,85896,1,8,0:0:0:0:
243,201,86271,2,0,L|238:259,2,50,4|8|2,3:0|0:0|0:0,0:0:0:0:
283,170,86834,2,0,L|288:65,1,99.9999999999999,4|8,3:0|0:0,0:0:0:0:
309,25,87396,1,8,0:0:0:0:
391,81,87771,1,4,3:0:0:0:
391,81,87959,1,8,0:0:0:0:
481,37,88334,6,0,P|497:85|475:144,1,99.9999999999999,4|8,3:0|0:0,0:0:0:0:
439,153,88896,1,8,0:0:0:0:
439,153,89084,2,0,L|442:214,1,50,2|4,0:0|3:0,0:0:0:0:
468,244,89459,2,0,L|465:305,1,50,8|2,0:0|0:0,0:0:0:0:
437,335,89834,1,8,0:0:0:0:
353,280,90209,2,0,B|289:254|284:334|193:299,1,150,12|4,0:0|3:0,0:0:0:0:
166,281,90959,1,8,0:0:0:0:
84,339,91334,6,0,P|65:302|74:243,1,99.9999999999999,2|2,0:0|0:0,0:0:0:0:
110,153,92084,2,0,L|41:135,2,50,2|2|2,0:0|0:0|0:0,0:0:0:0:
153,177,92646,1,2,0:0:0:0:
153,177,92834,2,0,L|274:161,1,99.9999999999999,2|2,0:0|0:0,0:0:0:0:
332,104,93584,2,0,L|341:43,2,50,2|2|2,0:0|0:0|0:0,0:0:0:0:
364,141,94146,1,2,0:0:0:0:
256,192,94240,12,0,98271,0:0:0:0:
