osu file format v14

[General]
AudioFilename: audio.mp3
AudioLeadIn: 0
PreviewTime: 42396
Countdown: 0
SampleSet: Soft
StackLeniency: 0.4
Mode: 0
LetterboxInBreaks: 0
WidescreenStoryboard: 1

[Editor]
DistanceSpacing: 0.5
BeatDivisor: 4
GridSize: 32
TimelineZoom: 1.1

[Metadata]
Title:Darling
TitleUnicode:Darling
Artist:Nishino Kana
ArtistUnicode:西野カナ
Creator:Petal
Version:Love
Source:
Tags:japanese short cut female love romance cute matha smau5 with love
BeatmapID:2200103
BeatmapSetID:1052774

[Difficulty]
HPDrainRate:6
CircleSize:4.2
OverallDifficulty:8
ApproachRate:9
SliderMultiplier:1.9
SliderTickRate:1

[Events]
//Background and Video events
0,0,"BG.jpg",0,0
//Break Periods
//Storyboard Layer 0 (Background)
//Storyboard Layer 1 (Fail)
//Storyboard Layer 2 (Pass)
//Storyboard Layer 3 (Foreground)
//Storyboard Layer 4 (Overlay)
//Storyboard Sound Samples

[TimingPoints]
1334,375,4,2,1,20,1,0
1334,-250,4,2,1,20,0,0
7334,-222.222222222222,4,2,1,25,0,0
19334,-166.666666666667,4,2,1,45,0,0
30209,-333.333333333334,4,2,1,45,0,0
30959,-166.666666666667,4,2,1,45,0,0
31240,-166.666666666667,4,2,1,5,0,0
31334,-133.333333333333,4,2,1,50,0,0
42209,-250,4,2,1,50,0,0
42959,-250,4,2,1,30,0,0
43334,-125,4,2,1,70,0,1
55146,-125,4,2,1,70,0,0
55334,-125,4,2,1,70,0,1
65834,-100,4,2,1,70,0,0
66209,-250,4,2,1,70,0,0
66959,-125,4,2,1,70,0,0
67334,-133.333333333333,4,2,1,60,0,0
90209,-250,4,2,1,60,0,0
90584,-250,4,2,1,30,0,0
90771,-250,4,2,1,50,0,0
91334,-285.714285714286,4,2,1,15,0,0
94240,-285.714285714286,4,2,1,5,0,0

[Colours]
Combo1 : 147,133,243
Combo2 : 123,193,247
Combo3 : 213,107,164
Combo4 : 165,198,216
Combo5 : 204,193,210
Combo6 : 232,207,151

[HitObjects]
48,134,1334,5,2,0:0:0:0:
48,134,1709,2,0,L|93:139,1,38,2|2,0:0|0:0,0:0:0:0:
168,57,2084,2,0,L|130:61,2,38,2|2|2,0:0|0:0|0:0,0:0:0:0:
244,140,2646,1,2,0:0:0:0:
319,33,2834,1,2,0:0:0:0:
319,33,3209,6,0,L|323:72,1,38,2|2,0:0|0:0,0:0:0:0:
402,144,3584,2,0,L|405:106,2,38,2|2|2,0:0|0:0|0:0,0:0:0:0:
323,218,4146,1,2,0:0:0:0:
430,300,4334,1,2,0:0:0:0:
430,300,4709,6,0,L|384:305,1,38,2|2,0:0|0:0,0:0:0:0:
293,371,5084,2,0,L|339:376,2,38,2|2|2,0:0|0:0|0:0,0:0:0:0:
212,294,5646,1,2,0:0:0:0:
120,383,5834,1,2,0:0:0:0:
120,383,6209,6,0,L|117:338,1,38,2|2,0:0|0:0,0:0:0:0:
35,256,6584,2,0,L|32:293,1,38,2|2,0:0|0:0,0:0:0:0:
134,330,6959,2,0,L|131:292,1,38,2|2,0:0|0:0,0:0:0:0:
122,162,7334,5,2,0:0:0:0:
122,162,7709,2,0,P|148:170|167:172,1,42.7499986953736,2|2,0:0|0:0,0:0:0:0:
230,230,8084,2,0,P|255:219|270:208,1,42.7499986953736,2|2,0:0|0:0,0:0:0:0:
195,65,8459,2,0,P|169:75|154:86,1,42.7499986953736,2|2,0:0|0:0,0:0:0:0:
322,90,8834,5,2,0:0:0:0:
322,90,9209,2,0,P|340:101|360:109,1,42.7499986953736,2|2,0:0|0:0,0:0:0:0:
478,139,9584,2,0,P|459:149|442:162,1,42.7499986953736,2|2,0:0|0:0,0:0:0:0:
361,248,9959,2,0,P|361:226|358:205,1,42.7499986953736,2|2,0:0|0:0,0:0:0:0:
326,72,10334,6,0,P|344:83|364:91,1,42.7499986953736,2|2,0:0|0:0,0:0:0:0:
508,55,10709,1,2,0:0:0:0:
508,55,11084,2,0,L|502:103,2,42.7499986953736,2|2|2,0:0|0:0|0:0,0:0:0:0:
422,16,11646,1,2,0:0:0:0:
442,162,11834,6,0,L|454:262,1,85.4999973907472,2|2,0:0|0:0,0:0:0:0:
391,384,12584,2,0,L|384:341,1,42.7499986953736,2|2,0:0|0:0,0:0:0:0:
468,327,12959,2,0,L|474:369,1,42.7499986953736,2|2,0:0|0:0,0:0:0:0:
285,247,13334,6,0,P|320:238|369:275,1,85.4999973907472,2|2,0:0|0:0,0:0:0:0:
310,328,13896,1,2,0:0:0:0:
203,214,14084,2,0,L|213:119,1,85.4999973907472,2|2,0:0|0:0,0:0:0:0:
221,41,14646,1,2,0:0:0:0:
345,131,14834,6,0,P|311:148|288:148,1,42.7499986953736,2|2,0:0|0:0,0:0:0:0:
308,8,15209,2,0,P|329:10|348:19,1,42.7499986953736,2|2,0:0|0:0,0:0:0:0:
353,142,15584,2,0,P|319:159|296:159,2,42.7499986953736,2|2|2,0:0|0:0|0:0,0:0:0:0:
416,76,16146,1,2,0:0:0:0:
501,221,16334,6,0,P|459:200|416:209,1,85.4999973907472,2|2,0:0|0:0,0:0:0:0:
378,287,16896,1,2,0:0:0:0:
314,159,17084,2,0,L|322:101,2,42.7499986953736,2|2|2,0:0|0:0|0:0,0:0:0:0:
300,241,17646,1,2,0:0:0:0:
143,198,17834,6,0,L|231:187,1,85.4999973907472,2|2,0:0|0:0,0:0:0:0:
227,187,18584,1,2,0:0:0:0:
193,294,18771,1,2,0:0:0:0:
143,198,18959,1,2,0:0:0:0:
108,305,19146,1,2,0:0:0:0:
8,156,19334,6,0,L|80:166,1,56.9999982604981,4|0,0:3|0:0,0:0:0:0:
227,187,19709,1,8,0:0:0:0:
227,187,20084,1,2,0:0:0:0:
173,120,20271,1,4,0:3:0:0:
304,31,20459,1,8,0:0:0:0:
262,106,20646,1,2,0:0:0:0:
316,177,20834,6,0,B|371:172|364:218|429:207,1,113.999996520996,4|8,0:3|0:0,0:0:0:0:
486,148,21396,1,2,0:0:0:0:
512,295,21584,1,2,0:0:0:0:
422,207,21771,1,4,0:3:0:0:
458,362,21959,2,0,B|425:357|425:357|403:364|403:364|351:356,1,85.4999973907472,8|0,0:0|0:0,0:0:0:0:
352,356,22334,5,4,0:3:0:0:
287,276,22521,1,2,0:0:0:0:
216,384,22709,2,0,P|213:347|221:324,1,56.9999982604981,8|0,0:0|0:0,0:0:0:0:
171,199,23084,2,0,P|174:236|166:259,2,56.9999982604981,2|4|8,0:0|0:3|0:0,0:0:0:0:
83,220,23646,1,2,0:0:0:0:
220,122,23834,6,0,B|274:123|267:164|334:157,1,113.999996520996,4|8,0:3|0:0,0:0:0:0:
402,110,24396,1,2,0:0:0:0:
325,68,24584,2,0,P|322:42|337:4,1,56.9999982604981,2|4,0:0|0:3,0:0:0:0:
405,201,24959,2,0,P|408:227|393:265,1,56.9999982604981,8|0,0:0|0:0,0:0:0:0:
210,280,25334,6,0,P|218:239|284:258,1,113.999996520996,4|8,0:3|0:0,0:0:0:0:
285,337,25896,1,2,0:0:0:0:
135,337,26084,2,0,P|122:303|128:266,1,56.9999982604981,2|4,0:0|0:3,0:0:0:0:
227,145,26459,2,0,P|226:173|214:199,1,56.9999982604981,8|0,0:0|0:0,0:0:0:0:
8,131,26834,6,0,B|118:124,1,85.4999973907472,4|0,0:3|0:0,0:0:0:0:
113,134,27209,2,0,L|108:69,1,56.9999982604981,8|0,0:0|0:0,0:0:0:0:
184,2,27584,1,4,0:3:0:0:
227,145,27771,1,4,0:3:0:0:
320,45,27959,2,0,P|279:46|250:58,1,56.9999982604981,8|0,0:0|0:0,0:0:0:0:
301,219,28334,6,0,B|358:206|357:252|428:228,2,113.999996520996,4|8|4,0:3|0:0|0:3,0:0:0:0:
247,300,29271,1,4,0:3:0:0:
354,367,29459,2,0,P|360:333|348:301,1,56.9999982604981,8|4,0:0|0:3,0:0:0:0:
142,282,29834,5,4,0:3:0:0:
142,282,30209,2,0,L|151:345,1,56.9999982604981,4|0,0:3|0:0,0:0:0:0:
154,361,30771,1,4,0:3:0:0:
87,218,30959,6,0,P|118:196|172:206,1,85.4999973907472,8|0,0:0|0:0,0:0:0:0:
234,255,31334,6,0,L|362:239,1,106.875004076958,4|0,0:3|0:0,0:0:0:0:
366,238,31709,1,8,0:0:0:0:
337,330,31896,1,2,0:0:0:0:
452,265,32084,2,0,P|454:222|435:186,1,71.2500027179719,2|4,0:0|0:3,0:0:0:0:
350,148,32459,1,8,0:0:0:0:
366,238,32646,1,2,0:0:0:0:
331,54,32834,6,0,B|380:51|372:97|451:88,1,106.875004076958,4|0,0:3|0:0,0:0:0:0:
456,72,33209,1,8,0:0:0:0:
262,109,33396,2,0,P|245:72|251:34,1,71.2500027179719,8|0,0:0|0:0,0:0:0:0:
350,148,33771,1,4,0:3:0:0:
241,231,33959,2,0,L|156:222,1,71.2500027179719,8|0,0:0|0:0,0:0:0:0:
23,268,34334,6,0,B|92:258|75:326|173:315,1,142.500005435944,4|8,0:3|0:0,0:0:0:0:
241,231,34896,1,2,0:0:0:0:
165,384,35084,2,0,P|149:341|161:299,1,71.2500027179719,2|4,0:0|0:3,0:0:0:0:
241,231,35459,1,8,0:0:0:0:
303,298,35646,1,2,0:0:0:0:
430,152,35834,6,0,P|385:146|333:195,1,106.875004076958,4|0,0:3|0:0,0:0:0:0:
330,207,36209,1,8,0:0:0:0:
396,282,36396,1,8,0:0:0:0:
303,298,36584,5,2,0:0:0:0:
330,207,36771,1,4,0:3:0:0:
396,282,36959,1,8,0:0:0:0:
303,298,37146,1,2,0:0:0:0:
240,165,37334,6,0,B|187:158|188:206|122:190,1,106.875004076958,4|0,0:3|0:0,0:0:0:0:
115,173,37709,1,8,0:0:0:0:
212,269,37896,1,8,0:0:0:0:
39,214,38084,2,0,P|28:174|37:141,1,71.2500027179719,2|4,0:0|0:3,0:0:0:0:
161,28,38459,1,8,0:0:0:0:
161,28,38834,6,0,L|274:37,1,106.875004076958,4|0,0:3|0:0,0:0:0:0:
293,38,39209,1,8,0:0:0:0:
222,137,39396,1,8,0:0:0:0:
398,104,39584,2,0,L|390:196,1,71.2500027179719,2|4,0:0|0:3,0:0:0:0:
378,320,39959,1,8,0:0:0:0:
378,320,40334,6,0,B|336:322|336:322|312:338|312:338|261:339,1,106.875004076958,4|0,0:3|0:0,0:0:0:0:
246,341,40709,1,8,0:0:0:0:
281,186,40896,2,0,P|294:225|281:268,1,71.2500027179719,8|0,0:0|0:0,0:0:0:0:
246,341,41271,1,4,0:3:0:0:
140,194,41459,2,0,P|167:163|211:153,1,71.2500027179719,8|4,0:0|0:3,0:0:0:0:
366,157,41834,5,4,0:3:0:0:
366,157,42209,2,0,B|381:0,1,152,4|0,0:3|0:0,0:0:0:0:
380,5,43334,6,0,B|316:-2|322:49|245:33,1,114,6|0,0:0|0:0,0:0:0:0:
248,20,43709,1,8,0:0:0:0:
190,188,43896,1,8,0:0:0:0:
144,117,44084,2,0,P|181:100|226:113,1,76,2|4,0:0|3:0,0:0:0:0:
239,258,44459,2,0,P|205:274|168:269,1,76,8|2,0:0|0:0,0:0:0:0:
277,175,44834,6,0,L|399:188,1,114,4|0,3:0|0:0,0:0:0:0:
419,192,45209,1,8,0:0:0:0:
377,338,45396,2,0,P|364:288|384:254,1,76,2|2,0:0|0:3,0:0:0:0:
456,298,45771,1,4,3:0:0:0:
293,378,45959,2,0,L|201:367,1,76,8|0,0:0|0:0,0:0:0:0:
81,247,46334,6,0,P|113:227|132:313,1,152,4|8,3:0|0:0,0:0:0:0:
5,292,46896,2,0,P|-6:248|13:195,1,76,8|2,0:0|0:0,0:0:0:0:
60,158,47271,1,4,3:0:0:0:
128,22,47459,2,0,P|133:59|122:95,1,76,8|2,0:0|0:0,0:0:0:0:
162,219,47834,6,0,B|226:208|224:273|312:255,2,152,4|8|2,3:0|0:0|0:3,0:0:0:0:
145,308,48771,1,4,3:0:0:0:
284,95,48959,2,0,P|293:139|281:183,1,76,8|2,0:0|0:0,0:0:0:0:
237,1,49334,6,0,L|365:18,1,114,4|0,3:0|0:0,0:0:0:0:
379,3,49709,1,8,0:0:0:0:
434,164,49896,1,8,0:0:0:0:
284,95,50084,2,0,L|369:106,1,76,2|4,0:0|3:0,0:0:0:0:
512,122,50459,1,8,0:0:0:0:
353,209,50646,1,2,0:0:0:0:
465,318,50834,5,4,3:0:0:0:
434,164,51021,1,2,0:0:0:0:
367,303,51209,1,8,0:0:0:0:
504,228,51396,1,8,0:0:0:0:
353,209,51584,2,0,L|277:199,1,76,2|4,0:3|3:0,0:0:0:0:
169,339,51959,2,0,L|244:348,1,76,8|2,0:0|0:0,0:0:0:0:
226,126,52334,6,0,P|192:165|201:241,1,114,4|0,3:0|0:0,0:0:0:0:
211,254,52709,1,8,0:0:0:0:
40,217,52896,1,8,0:0:0:0:
85,369,53084,2,0,L|95:275,1,76,2|4,0:0|3:0,0:0:0:0:
109,119,53459,1,8,0:0:0:0:
211,254,53646,1,2,0:0:0:0:
40,217,53834,5,4,3:0:0:0:
218,164,54021,2,0,P|257:172|298:211,1,76,2|8,0:0|0:0,0:0:0:0:
219,327,54396,2,0,P|206:289|219:234,1,76,2|2,0:0|0:3,0:0:0:0:
285,193,54771,1,4,3:0:0:0:
299,376,54959,1,8,0:0:0:0:
210,253,55146,1,2,0:0:0:0:
373,320,55334,6,0,L|494:310,1,114,6|0,3:0|0:0,0:0:0:0:
512,286,55709,1,8,0:0:0:0:
366,134,55896,1,8,0:0:0:0:
512,203,56084,2,0,L|425:212,1,76,2|4,0:0|3:0,0:0:0:0:
304,86,56459,2,0,L|433:73,1,114,8|0,0:0|0:0,0:0:0:0:
426,58,56834,6,0,L|312:69,1,114,4|0,3:0|0:0,0:0:0:0:
283,72,57209,1,8,0:0:0:0:
218,221,57396,2,0,P|233:174|223:139,1,76,8|2,0:0|0:3,0:0:0:0:
154,37,57771,1,4,3:0:0:0:
67,180,57959,2,0,L|156:172,1,76,8|0,0:0|0:0,0:0:0:0:
43,274,58334,6,0,L|217:256,1,152,4|8,3:0|0:0,0:0:0:0:
135,380,58896,1,8,0:0:0:0:
82,288,59084,2,0,L|165:278,1,76,2|4,0:0|3:0,0:0:0:0:
281,292,59459,2,0,P|286:252|274:212,1,76,8|4,0:0|3:0,0:0:0:0:
120,102,59834,6,0,P|152:126|228:121,1,114,4|0,3:0|0:0,0:0:0:0:
249,96,60209,1,8,0:0:0:0:
383,167,60396,1,8,0:0:0:0:
343,4,60584,2,0,P|332:45|350:91,1,76,2|4,0:3|3:0,0:0:0:0:
484,211,60959,2,0,P|495:170|477:124,1,76,8|2,0:0|0:0,0:0:0:0:
431,51,61334,5,4,3:0:0:0:
431,51,61709,1,8,0:0:0:0:
366,197,61896,1,8,0:0:0:0:
245,81,62084,2,0,P|236:44|247:8,1,76,2|4,0:0|3:0,0:0:0:0:
366,197,62459,2,0,P|374:233|363:269,1,76,8|2,0:0|0:0,0:0:0:0:
170,353,62834,5,4,3:0:0:0:
274,230,63021,1,2,0:0:0:0:
265,329,63209,1,8,0:0:0:0:
183,191,63396,1,8,0:0:0:0:
119,266,63584,2,0,L|20:254,1,76,2|4,0:3|3:0,0:0:0:0:
57,96,63959,2,0,L|132:105,1,76,8|2,0:0|0:0,0:0:0:0:
331,158,64334,6,0,B|270:146|279:207|188:180,1,114,4|0,3:0|0:0,0:0:0:0:
194,162,64709,1,8,0:0:0:0:
330,256,64896,1,8,0:0:0:0:
256,19,65084,2,0,P|235:57|241:110,1,76,2|4,0:0|3:0,0:0:0:0:
330,256,65459,1,8,0:0:0:0:
458,121,65834,6,0,P|397:69|325:84,1,142.5,4|0,3:0|0:0,0:0:0:0:
332,63,66209,6,0,P|367:53|404:62,1,76,6|0,0:0|0:0,0:0:0:0:
458,121,66771,1,4,3:0:0:0:
301,167,66959,2,0,L|276:162,1,19,8|0,0:0|0:0,0:0:0:0:
441,312,67334,6,0,B|369:300|380:370|284:342,1,142.500005435944,6|8,0:0|0:0,0:0:0:0:
141,308,67896,1,8,0:0:0:0:
205,371,68084,2,0,P|226:337|228:288,1,71.2500027179719,2|4,0:0|3:0,0:0:0:0:
78,248,68459,2,0,P|56:281|54:330,1,71.2500027179719,8|2,0:0|0:0,0:0:0:0:
274,227,68834,6,0,L|260:94,1,106.875004076958,4|0,3:0|0:0,0:0:0:0:
259,90,69209,1,8,0:0:0:0:
178,216,69396,1,8,0:0:0:0:
352,178,69584,2,0,L|343:97,1,71.2500027179719,2|4,0:3|3:0,0:0:0:0:
156,52,69959,2,0,L|163:122,1,71.2500027179719,8|2,0:0|0:0,0:0:0:0:
57,246,70334,6,0,P|88:211|199:240,1,142.500005435944,4|8,3:0|0:0,0:0:0:0:
133,287,70896,1,8,0:0:0:0:
181,359,71084,2,0,P|146:375|105:368,1,71.2500027179719,2|4,0:0|3:0,0:0:0:0:
252,255,71459,2,0,P|287:252|318:267,1,71.2500027179719,8|0,0:0|0:0,0:0:0:0:
421,379,71834,5,4,3:0:0:0:
447,291,72021,1,2,0:0:0:0:
292,179,72209,1,8,0:0:0:0:
318,267,72396,1,2,0:0:0:0:
483,176,72584,5,8,0:0:0:0:
395,202,72771,1,4,3:0:0:0:
255,335,72959,1,8,0:0:0:0:
343,361,73146,1,2,0:0:0:0:
292,179,73334,6,0,B|223:170|228:227|157:216,1,142.500005435944,4|8,3:0|0:0,0:0:0:0:
86,99,73896,1,8,0:0:0:0:
169,60,74084,2,0,P|178:103|162:146,1,71.2500027179719,2|4,0:0|3:0,0:0:0:0:
72,256,74459,2,0,P|65:221|74:187,1,71.2500027179719,8|2,0:0|0:0,0:0:0:0:
150,313,74834,6,0,P|116:356|43:353,1,106.875004076958,4|0,3:0|0:0,0:0:0:0:
40,353,75209,1,8,0:0:0:0:
159,216,75396,1,8,0:0:0:0:
242,277,75584,2,0,L|315:267,1,71.2500027179719,2|4,0:3|3:0,0:0:0:0:
242,138,75959,2,0,L|169:128,1,71.2500027179719,8|2,0:0|0:0,0:0:0:0:
390,76,76334,6,0,P|414:95|409:178,1,106.875004076958,4|0,3:0|0:0,0:0:0:0:
398,186,76709,2,0,L|325:176,1,71.2500027179719,8|8,0:0|0:0,0:0:0:0:
242,138,77084,1,2,0:0:0:0:
312,267,77271,1,4,3:0:0:0:
327,176,77459,1,8,0:0:0:0:
225,285,77646,1,2,0:0:0:0:
173,203,77834,6,0,B|106:192|107:254|16:234,1,142.500005435944,4|8,3:0|0:0,0:0:0:0:
0,150,78396,1,2,0:0:0:0:
110,266,78584,5,6,3:0:0:0:
137,59,78771,1,8,0:0:0:0:
342,89,78959,1,8,0:0:0:0:
314,293,79146,1,8,0:0:0:0:
222,146,79334,6,0,B|285:136|283:194|363:177,1,142.500005435944,4|8,0:0|0:0,0:0:0:0:
428,125,79896,1,8,0:0:0:0:
500,244,80084,2,0,P|501:288|481:324,1,71.2500027179719,2|4,0:0|3:0,0:0:0:0:
413,364,80459,2,0,P|400:330|403:295,1,71.2500027179719,8|2,0:0|0:0,0:0:0:0:
356,178,80834,5,4,3:0:0:0:
314,293,81021,1,2,0:0:0:0:
305,82,81209,1,8,0:0:0:0:
265,211,81396,1,8,0:0:0:0:
119,136,81584,2,0,L|196:146,1,71.2500027179719,2|4,0:3|3:0,0:0:0:0:
218,294,81959,2,0,L|141:304,1,71.2500027179719,8|2,0:0|0:0,0:0:0:0:
41,112,82334,6,0,P|76:158|53:228,1,106.875004076958,4|0,3:0|0:0,0:0:0:0:
49,231,82709,1,8,0:0:0:0:
189,145,82896,1,8,0:0:0:0:
44,19,83084,2,0,P|84:36|120:34,1,71.2500027179719,4|4,3:0|3:0,0:0:0:0:
276,107,83459,2,0,P|240:108|208:123,1,71.2500027179719,8|2,0:0|0:0,0:0:0:0:
158,326,83834,5,4,3:0:0:0:
245,358,84021,1,2,0:0:0:0:
303,285,84209,1,8,0:0:0:0:
249,208,84396,1,2,0:0:0:0:
316,275,84584,5,4,3:0:0:0:
265,200,84772,1,4,3:0:0:0:
178,231,84959,1,8,0:0:0:0:
179,324,85147,1,0,3:0:0:0:
329,267,85334,6,0,L|439:280,1,106.875004076958,4|0,3:0|0:0,0:0:0:0:
460,283,85709,1,8,0:0:0:0:
372,377,85896,1,8,0:0:0:0:
355,189,86084,2,0,L|432:198,1,71.2500027179719,2|4,0:0|3:0,0:0:0:0:
249,332,86459,2,0,L|178:323,1,71.2500027179719,8|2,0:0|0:0,0:0:0:0:
126,136,86834,5,4,3:0:0:0:
159,239,87021,1,2,0:0:0:0:
278,71,87209,1,8,0:0:0:0:
245,174,87396,1,8,0:0:0:0:
97,33,87584,5,2,0:3:0:0:
202,10,87771,1,4,3:0:0:0:
126,136,87959,1,8,0:0:0:0:
21,113,88146,1,2,0:0:0:0:
202,10,88334,6,0,B|271:3|264:58|339:47,1,142.500005435944,4|8,3:0|0:0,0:0:0:0:
467,20,88896,1,8,0:0:0:0:
338,116,89084,2,0,P|329:72|342:31,1,71.2500027179719,2|4,0:0|3:0,0:0:0:0:
499,103,89459,2,0,P|504:137|495:172,1,71.2500027179719,8|2,0:0|0:0,0:0:0:0:
341,310,89834,5,8,0:0:0:0:
341,310,90209,2,0,L|265:303,1,76,12|0,0:0|0:0,0:0:0:0:
241,300,90771,1,4,3:0:0:0:
420,133,90959,1,8,0:0:0:0:
340,224,91334,6,0,L|271:217,1,66.4999979705811,2|2,0:0|0:0,0:0:0:0:
260,206,91896,1,2,0:0:0:0:
175,238,92084,2,0,L|155:236,2,16.6249994926453,2|2|2,0:0|0:0|0:0,0:0:0:0:
241,300,92459,1,2,0:0:0:0:
150,335,92646,1,2,0:0:0:0:
74,271,92834,6,0,L|67:204,1,66.4999979705811,2|2,0:0|0:0,0:0:0:0:
79,190,93396,1,2,0:0:0:0:
29,174,93584,1,2,0:0:0:0:
29,122,93771,1,2,0:0:0:0:
79,106,93959,1,2,0:0:0:0:
109,148,94146,86,0,B|96:119|90:64|183:18|235:100|235:100|305:46|381:107|380:197|331:222|281:251|227:195|230:257|182:293|182:293|171:205|118:170,1,731.499977676392,2|0,0:0|0:0,0:0:0:0:
