osu file format v14

[General]
AudioFilename: audio.mp3
AudioLeadIn: 0
PreviewTime: 42396
Countdown: 0
SampleSet: Soft
StackLeniency: 0.4
Mode: 0
LetterboxInBreaks: 0
WidescreenStoryboard: 1

[Editor]
DistanceSpacing: 1
BeatDivisor: 4
GridSize: 32
TimelineZoom: 1.1

[Metadata]
Title:Darling
TitleUnicode:Darling
Artist:Nishino Kana
ArtistUnicode:西野カナ
Creator:Petal
Version:Hard
Source:
Tags:japanese short cut female love romance cute matha smau5 with love
BeatmapID:2200102
BeatmapSetID:1052774

[Difficulty]
HPDrainRate:5
CircleSize:3.8
OverallDifficulty:6
ApproachRate:7.5
SliderMultiplier:1.35
SliderTickRate:1

[Events]
//Background and Video events
0,0,"BG.jpg",0,0
//Break Periods
//Storyboard Layer 0 (Background)
//Storyboard Layer 1 (Fail)
//Storyboard Layer 2 (Pass)
//Storyboard Layer 3 (Foreground)
//Storyboard Layer 4 (Overlay)
//Storyboard Sound Samples

[TimingPoints]
1334,375,4,2,1,20,1,0
1334,-125,4,2,1,20,0,0
7334,-125,4,2,1,25,0,0
19334,-125,4,2,1,45,0,0
31240,-125,4,2,1,5,0,0
31334,-125,4,2,1,50,0,0
42959,-100,4,2,1,30,0,0
43334,-100,4,2,1,70,0,1
55146,-100,4,2,1,70,0,0
55334,-100,4,2,1,70,0,1
65834,-100,4,2,1,70,0,0
66209,-166.666666666667,4,2,1,70,0,0
67334,-111.111111111111,4,2,1,60,0,0
90209,-166.666666666666,4,2,1,60,0,0
90584,-166.666666666666,4,2,1,30,0,0
90771,-166.666666666666,4,2,1,50,0,0
91334,-166.666666666666,4,2,1,15,0,0
94240,-166.666666666666,4,2,1,5,0,0

[Colours]
Combo1 : 147,133,243
Combo2 : 123,193,247
Combo3 : 213,107,164
Combo4 : 165,198,216
Combo5 : 204,193,210
Combo6 : 232,207,151

[HitObjects]
63,304,1334,5,2,0:0:0:0:
164,340,1709,2,0,P|171:303|175:276,1,54,2|2,0:0|0:0,0:0:0:0:
219,213,2084,2,0,P|212:176|208:149,2,54,2|2|2,0:0|0:0|0:0,0:0:0:0:
257,295,2646,6,0,B|336:280|319:359|428:340,1,162,2|2,0:0|0:0,0:0:0:0:
407,159,3584,2,0,P|401:187|400:224,2,54,2|2|2,0:0|0:0|0:0,0:0:0:0:
433,111,4146,1,2,0:0:0:0:
378,48,4334,5,2,0:0:0:0:
296,119,4709,2,0,P|272:88|265:55,1,54,2|2,0:0|0:0,0:0:0:0:
185,56,5084,2,0,P|193:17|214:-8,2,54,2|2|2,0:0|0:0|0:0,0:0:0:0:
133,125,5646,6,0,L|143:288,1,162,2|2,0:0|0:0,0:0:0:0:
285,361,6584,2,0,P|247:352|218:352,1,54,2|2,0:0|0:0,0:0:0:0:
235,266,6959,2,0,P|261:268|287:275,1,54,2|2,0:0|0:0,0:0:0:0:
369,321,7334,6,0,P|414:307|425:237,1,108,2|2,0:0|0:0,0:0:0:0:
512,107,8084,2,0,P|476:112|444:114,1,54,2|2,0:0|0:0,0:0:0:0:
446,30,8459,2,0,P|472:27|499:23,1,54,2|2,0:0|0:0,0:0:0:0:
373,87,8834,6,0,B|251:98,1,108,2|2,0:0|0:0,0:0:0:0:
157,106,9584,2,0,B|264:96,1,108,2|2,0:0|0:0,0:0:0:0:
348,187,10334,6,0,P|341:215|356:258,2,54,2|2|2,0:0|0:0|0:0,0:0:0:0:
267,285,11084,2,0,P|246:264|201:256,1,54,2|2,0:0|0:0,0:0:0:0:
221,159,11459,2,0,P|246:149|264:130,1,54,2|2,0:0|0:0,0:0:0:0:
128,211,11834,6,0,P|81:218|37:285,1,108,2|2,0:0|0:0,0:0:0:0:
0,98,12584,2,0,P|32:110|66:115,1,54,2|2,0:0|0:0,0:0:0:0:
91,103,12959,1,2,0:0:0:0:
203,17,13334,6,0,B|255:19|242:61|322:51,1,108,2|2,0:0|0:0,0:0:0:0:
384,70,13896,1,2,0:0:0:0:
334,144,14084,2,0,P|300:108|306:44,1,108,2|2,0:0|0:0,0:0:0:0:
432,155,14834,6,0,P|419:190|412:221,1,54,2|2,0:0|0:0,0:0:0:0:
396,322,15209,2,0,P|372:293|348:271,1,54,2|2,0:0|0:0,0:0:0:0:
268,207,15584,2,0,P|304:200|335:191,2,54,2|2|2,0:0|0:0|0:0,0:0:0:0:
184,167,16146,1,2,0:0:0:0:
174,274,16334,6,0,L|184:158,1,108,2|2,0:0|0:0,0:0:0:0:
143,91,16896,1,2,0:0:0:0:
216,45,17084,2,0,P|251:61|266:83,2,54,2|2|2,0:0|0:0|0:0,0:0:0:0:
143,91,17646,1,2,0:0:0:0:
72,41,17834,6,0,P|39:54|7:119,1,108,2|2,0:0|0:0,0:0:0:0:
86,290,18584,2,0,P|77:257|70:230,1,54,2|2,0:0|0:0,0:0:0:0:
162,232,18959,2,0,P|158:197|156:170,1,54,2|2,0:0|0:0,0:0:0:0:
236,331,19334,5,4,0:3:0:0:
236,331,19709,2,0,B|279:333|279:333|303:322|303:322|361:324,1,108,8|2,0:0|0:0,0:0:0:0:
418,356,20271,1,4,0:3:0:0:
341,323,20459,2,0,P|331:353|335:375,1,54,8|2,0:0|0:0,0:0:0:0:
406,272,20834,5,4,0:3:0:0:
406,272,21209,2,0,L|399:159,1,108,8|2,0:0|0:0,0:0:0:0:
390,79,21771,1,4,0:3:0:0:
314,182,21959,2,0,L|318:243,1,54,8|0,0:0|0:0,0:0:0:0:
305,81,22334,2,0,L|301:27,2,54,4|2|8,0:3|0:0|0:0,0:0:0:0:
314,182,22896,1,0,0:0:0:0:
225,142,23084,2,0,L|165:146,1,54,2|4,0:0|0:3,0:0:0:0:
80,155,23459,1,8,0:0:0:0:
80,155,23834,6,0,P|61:185|87:266,1,108,4|8,0:3|0:0,0:0:0:0:
26,351,24584,2,0,P|53:345|85:341,2,54,2|4|8,0:0|0:3|0:0,0:0:0:0:
160,287,25334,2,0,P|210:295|274:304,1,108,4|8,0:3|0:0,0:0:0:0:
297,218,25896,1,2,0:0:0:0:
355,287,26084,2,0,P|358:321|342:353,1,54,2|4,0:0|0:3,0:0:0:0:
266,303,26459,1,8,0:0:0:0:
297,218,26646,1,0,0:0:0:0:
355,287,26834,6,0,P|396:281|440:216,1,108,4|8,0:3|0:0,0:0:0:0:
436,84,27584,2,0,P|467:93|503:101,2,54,4|4|8,0:3|0:3|0:0,0:0:0:0:
375,24,28146,1,0,0:0:0:0:
313,129,28334,6,0,B|256:125|266:175|193:163,1,108,4|8,0:3|0:0,0:0:0:0:
103,77,29084,2,0,L|111:18,2,54,4|4|8,0:3|0:3|0:0,0:0:0:0:
53,150,29646,1,4,0:3:0:0:
128,224,29834,5,4,0:3:0:0:
128,224,30209,1,4,0:3:0:0:
266,40,30771,5,4,0:3:0:0:
341,86,30959,2,0,P|354:51|350:19,1,54,8|0,0:0|0:0,0:0:0:0:
261,127,31334,6,0,L|273:254,1,108,4|8,0:3|0:0,0:0:0:0:
280,325,31896,1,2,0:0:0:0:
360,269,32084,2,0,L|354:207,1,54,2|4,0:0|0:3,0:0:0:0:
280,325,32459,2,0,L|285:378,1,54,8|2,0:0|0:0,0:0:0:0:
187,266,32834,6,0,L|176:158,1,108,4|8,0:3|0:0,0:0:0:0:
181,17,33396,2,0,L|188:80,1,54,8|0,0:0|0:0,0:0:0:0:
176,158,33771,1,4,0:3:0:0:
262,121,33959,1,8,0:0:0:0:
262,121,34334,6,0,B|321:120|300:162|376:159,1,108,4|8,0:3|0:0,0:0:0:0:
437,121,34896,1,2,0:0:0:0:
373,20,35084,2,0,P|361:54|364:85,1,54,2|4,0:0|0:3,0:0:0:0:
437,121,35459,1,8,0:0:0:0:
360,158,35646,1,2,0:0:0:0:
473,231,35834,6,0,L|484:341,1,108,4|8,0:3|0:0,0:0:0:0:
412,384,36396,1,8,0:0:0:0:
354,322,36584,2,0,P|382:303|414:305,1,54,2|4,0:0|0:3,0:0:0:0:
285,375,36959,2,0,P|258:371|237:354,1,54,8|2,0:0|0:0,0:0:0:0:
153,255,37334,6,0,L|161:135,1,108,4|8,0:3|0:0,0:0:0:0:
219,81,37896,1,8,0:0:0:0:
159,17,38084,2,0,P|138:41|131:82,1,54,2|4,0:0|0:3,0:0:0:0:
276,151,38459,2,0,P|297:127|304:86,1,54,8|0,0:0|0:0,0:0:0:0:
276,2,38834,6,0,B|329:2|320:36|393:27,1,108,4|8,0:3|0:0,0:0:0:0:
461,1,39396,1,8,0:0:0:0:
442,90,39584,2,0,P|434:119|433:150,1,54,2|4,0:0|0:3,0:0:0:0:
447,248,39959,1,8,0:0:0:0:
447,248,40334,6,0,B|407:251|407:251|388:264|388:264|339:269,1,108,4|8,0:3|0:0,0:0:0:0:
257,309,40896,2,0,P|245:277|289:199,1,108,8|4,0:0|0:3,0:0:0:0:
346,165,41459,2,0,L|408:161,1,54,8|4,0:0|0:3,0:3:0:0:
256,103,41834,5,4,0:3:0:0:
256,103,42209,1,4,0:3:0:0:
33,232,43334,6,0,B|101:226|81:285|170:273,1,135,6|8,0:0|0:0,0:0:0:0:
241,304,43896,2,0,P|230:338|224:376,1,67.5,8|2,0:0|0:0,0:0:0:0:
310,209,44271,1,4,3:0:0:0:
380,266,44459,2,0,P|391:300|397:338,1,67.5,8|2,0:0|0:0,0:0:0:0:
310,209,44834,6,0,P|359:222|420:149,1,135,4|8,3:0|0:0,0:0:0:0:
433,73,45396,2,0,P|393:83|356:94,1,67.5,2|2,0:0|0:3,0:0:0:0:
230,43,45771,1,4,3:0:0:0:
236,130,45959,2,0,P|246:86|255:47,1,67.5,8|0,0:0|0:0,0:0:0:0:
101,24,46334,6,0,P|110:70|127:181,1,135,4|8,3:0|0:0,0:0:0:0:
206,284,46896,2,0,P|216:240|225:201,1,67.5,8|2,0:0|0:0,0:0:0:0:
123,157,47271,1,4,3:0:0:0:
72,222,47459,2,0,P|79:254|87:287,1,67.5,8|2,0:0|0:0,0:0:0:0:
123,157,47834,6,0,B|45:149|64:204|-2:192,2,135,4|8|0,3:0|0:0|0:0,0:0:0:0:
179,227,48771,1,4,3:0:0:0:
230,78,48959,2,0,P|212:109|213:151,1,67.5,8|2,0:0|0:0,0:0:0:0:
270,271,49334,5,4,3:0:0:0:
270,271,49709,1,8,0:0:0:0:
307,190,49896,1,8,0:0:0:0:
369,259,50084,1,2,0:0:0:0:
331,347,50271,1,4,3:0:0:0:
307,190,50459,2,0,P|337:170|380:172,1,67.5,8|2,0:0|0:0,0:0:0:0:
512,153,50834,6,0,P|478:150|451:131,1,67.5,4|2,3:0|0:0,0:0:0:0:
342,67,51209,2,0,P|346:36|351:-8,2,67.5,8|8|2,0:0|0:0|0:3,0:0:0:0:
221,30,51771,1,4,3:0:0:0:
227,120,51959,2,0,P|231:89|236:45,1,67.5,8|2,0:0|0:0,0:0:0:0:
102,172,52334,6,0,B|161:163|152:224|241:214,1,135,4|8,3:0|0:0,0:0:0:0:
312,174,52896,2,0,P|325:215|318:248,1,67.5,8|2,0:0|0:0,0:0:0:0:
256,308,53271,1,4,3:0:0:0:
358,381,53459,2,0,P|355:347|367:316,1,67.5,8|2,0:0|0:0,0:0:0:0:
470,300,53834,5,4,3:0:0:0:
406,222,54021,1,2,0:0:0:0:
510,141,54209,2,0,P|515:176|501:207,2,67.5,8|2|2,0:0|0:0|0:3,0:0:0:0:
440,42,54771,1,4,3:0:0:0:
357,85,54959,2,0,P|399:75|443:68,1,67.5,8|2,0:0|0:0,0:0:0:0:
294,165,55334,6,0,B|226:149|232:212|152:193,1,135,6|8,3:0|0:0,0:0:0:0:
85,141,55896,1,8,0:0:0:0:
166,42,56084,2,0,P|178:81|169:122,1,67.5,2|4,0:0|3:0,0:0:0:0:
159,260,56459,2,0,P|156:226|167:195,1,67.5,8|2,0:0|0:0,0:0:0:0:
228,311,56834,6,0,P|195:340|104:329,1,135,4|8,3:0|0:0,0:0:0:0:
24,367,57396,2,0,P|19:324|35:287,1,67.5,8|2,0:0|0:3,0:0:0:0:
109,332,57771,1,4,3:0:0:0:
11,215,57959,2,0,P|45:189|85:184,1,67.5,8|0,0:0|0:0,0:0:0:0:
158,260,58334,6,0,L|296:270,1,135,4|8,3:0|0:0,0:0:0:0:
364,219,58896,1,8,0:0:0:0:
474,352,59271,1,4,3:0:0:0:
415,286,59459,2,0,P|392:318|389:354,1,67.5,8|4,0:0|3:0,0:0:0:0:
504,266,59834,6,0,L|492:122,1,135,4|8,3:0|0:0,0:0:0:0:
420,85,60396,1,8,0:0:0:0:
358,151,60584,2,0,L|365:235,1,67.5,2|4,0:3|3:0,0:0:0:0:
283,97,60959,2,0,L|277:29,1,67.5,8|2,0:0|0:0,0:0:0:0:
224,192,61334,5,4,3:0:0:0:
224,192,61709,1,8,0:0:0:0:
71,192,61896,1,8,0:0:0:0:
148,269,62084,1,2,0:0:0:0:
148,116,62271,1,4,3:0:0:0:
148,269,62459,2,0,L|148:345,1,67.5,8|2,0:0|0:0,0:0:0:0:
292,339,62834,6,0,L|292:262,1,67.5,4|2,3:0|0:0,0:0:0:0:
377,195,63209,2,0,P|408:211|456:214,2,67.5,8|8|2,0:0|0:0|0:3,0:0:0:0:
307,131,63771,1,4,3:0:0:0:
436,52,63959,2,0,L|434:135,1,67.5,8|2,0:0|0:0,0:0:0:0:
307,131,64334,6,0,P|290:84|352:2,1,135,4|8,3:0|0:0,0:0:0:0:
213,18,64896,2,0,P|179:41|134:42,1,67.5,8|2,0:0|0:0,0:0:0:0:
33,29,65271,1,4,3:0:0:0:
67,127,65459,2,0,P|61:80|59:48,1,67.5,8|0,0:0|0:0,0:0:0:0:
7,214,65834,5,4,3:0:0:0:
7,214,66209,2,0,B|65:207|56:258|126:251,1,121.499996292114,6|4,0:0|3:0,0:0:0:0:
173,192,66959,1,8,0:0:0:0:
178,313,67334,6,0,L|172:185,1,121.499996292114,6|8,0:0|0:0,0:0:0:0:
167,106,67896,1,8,0:0:0:0:
251,140,68084,2,0,L|324:132,2,60.7499981460572,2|4|8,0:0|3:0|0:0,0:0:0:0:
167,106,68646,1,2,0:0:0:0:
267,10,68834,6,0,B|324:8|308:58|407:47,1,121.499996292114,4|8,3:0|0:0,0:0:0:0:
461,9,69396,1,8,0:0:0:0:
434,188,69771,1,4,3:0:0:0:
455,104,69959,2,0,P|466:145|472:184,1,60.7499981460572,8|2,0:0|0:0,0:0:0:0:
390,282,70334,6,0,B|323:270|333:330|249:304,1,121.499996292114,4|8,3:0|0:0,0:0:0:0:
249,222,70896,1,8,0:0:0:0:
184,349,71084,2,0,P|178:313|192:273,1,60.7499981460572,2|4,0:0|3:0,0:0:0:0:
127,157,71459,2,0,P|133:193|119:233,1,60.7499981460572,8|0,0:0|0:0,0:0:0:0:
61,280,71834,6,0,L|-10:272,2,60.7499981460572,4|2|8,3:0|0:0|0:0,0:0:0:0:
127,216,72396,1,2,0:0:0:0:
40,157,72584,2,0,L|49:82,1,60.7499981460572,8|4,0:0|3:0,0:0:0:0:
203,91,72959,2,0,L|210:151,1,60.7499981460572,8|2,0:0|0:0,0:0:0:0:
158,19,73334,6,0,P|196:45|287:20,1,121.499996292114,4|8,3:0|0:0,0:0:0:0:
347,0,73896,1,8,0:0:0:0:
344,148,74084,2,0,P|336:111|348:82,1,60.7499981460572,2|4,0:0|3:0,0:0:0:0:
428,49,74459,2,0,P|436:86|424:115,1,60.7499981460572,8|2,0:0|0:0,0:0:0:0:
298,221,74834,6,0,P|336:196|416:219,1,121.499996292114,4|8,3:0|0:0,0:0:0:0:
461,282,75396,2,0,P|454:318|449:358,1,60.7499981460572,8|2,0:0|0:3,0:0:0:0:
286,310,75771,1,4,3:0:0:0:
298,221,75959,2,0,P|303:250|308:280,1,60.7499981460572,8|2,0:0|0:0,0:0:0:0:
280,131,76334,6,0,B|219:127|231:184|143:169,1,121.499996292114,4|8,3:0|0:0,0:0:0:0:
102,111,76896,1,8,0:0:0:0:
87,205,77084,2,0,P|80:169|75:138,1,60.7499981460572,2|4,0:0|3:0,0:0:0:0:
196,16,77459,2,0,P|190:45|185:75,1,60.7499981460572,8|2,0:0|0:0,0:0:0:0:
309,25,77834,6,0,B|370:21|358:78|446:63,1,121.499996292114,4|8,3:0|0:0,0:0:0:0:
467,157,78396,1,2,0:0:0:0:
375,205,78584,5,6,3:0:0:0:
420,65,78771,1,8,0:0:0:0:
327,111,78959,1,8,0:0:0:0:
467,157,79146,1,8,0:0:0:0:
327,111,79334,6,0,L|191:103,1,121.499996292114,4|8,0:0|0:0,0:0:0:0:
123,140,79896,1,8,0:0:0:0:
192,254,80084,2,0,P|199:217|191:183,1,60.7499981460572,2|4,0:0|3:0,0:0:0:0:
36,118,80459,2,0,P|32:148|39:177,1,60.7499981460572,8|2,0:0|0:0,0:0:0:0:
77,311,80834,6,0,B|134:306|125:360|205:349,1,121.499996292114,4|8,3:0|0:0,0:0:0:0:
266,307,81396,1,8,0:0:0:0:
411,384,81771,1,4,3:0:0:0:
396,298,81959,2,0,P|393:338|389:371,1,60.7499981460572,8|2,0:0|0:0,0:0:0:0:
458,251,82334,6,0,P|408:257|354:208,1,121.499996292114,4|8,3:0|0:0,0:0:0:0:
357,128,82896,1,8,0:0:0:0:
428,173,83084,1,4,3:0:0:0:
281,167,83271,1,4,3:0:0:0:
360,42,83459,2,0,L|435:56,1,60.7499981460572,8|2,0:0|0:0,0:0:0:0:
275,0,83834,6,0,P|264:36|267:71,1,60.7499981460572,4|2,3:0|0:0,0:0:0:0:
176,86,84209,2,0,P|185:114|186:144,1,60.7499981460572,8|2,0:0|0:0,0:0:0:0:
112,209,84584,2,0,L|46:201,2,60.7499981460572,4|4|8,3:0|3:0|0:0,0:0:0:0:
186,144,85146,1,0,3:0:0:0:
242,273,85334,6,0,B|302:275|286:320|374:307,1,121.499996292114,4|8,3:0|0:0,0:0:0:0:
417,250,85896,1,8,0:0:0:0:
444,345,86084,2,0,P|438:307|436:275,1,60.7499981460572,2|4,0:0|3:0,0:0:0:0:
347,155,86459,2,0,P|344:185|339:215,1,60.7499981460572,8|2,0:0|0:0,0:0:0:0:
442,90,86834,6,0,P|472:95|517:106,2,60.7499981460572,4|2|8,3:0|0:0|0:0,0:0:0:0:
371,43,87396,1,8,0:0:0:0:
330,129,87584,2,0,P|334:92|338:54,1,60.7499981460572,2|4,0:3|3:0,0:0:0:0:
230,5,87959,2,0,P|233:35|236:65,1,60.7499981460572,8|2,0:0|0:0,0:0:0:0:
108,171,88334,6,0,P|164:147|227:182,1,121.499996292114,4|8,3:0|0:0,0:0:0:0:
277,231,88896,2,0,P|283:277|285:302,1,60.7499981460572,8|2,0:0|0:0,0:0:0:0:
155,342,89271,1,4,3:0:0:0:
185,250,89459,2,0,P|179:296|177:321,1,60.7499981460572,8|2,0:0|0:0,0:0:0:0:
300,378,89834,5,8,0:0:0:0:
300,378,90209,6,0,L|435:365,1,121.499996292114,12|4,0:0|3:0,0:0:0:0:
476,308,90959,1,8,0:0:0:0:
411,115,91334,6,0,L|404:199,1,80.9999975280763,2|2,0:0|0:0,0:0:0:0:
345,253,91896,1,2,0:0:0:0:
298,182,92084,2,0,L|300:159,2,20.2499993820191,2|2|2,0:0|0:0|0:0,0:0:0:0:
239,241,92459,2,0,L|189:235,1,40.4999987640381,2|2,0:0|0:0,0:0:0:0:
126,162,92834,6,0,P|116:125|135:77,1,80.9999975280763,2|2,0:0|0:0,0:0:0:0:
197,34,93396,1,2,0:0:0:0:
270,83,93584,2,0,P|279:56|281:37,1,40.4999987640381,2|2,0:0|0:0,0:0:0:0:
197,34,93959,1,2,0:0:0:0:
214,153,94146,5,2,0:0:0:0:
256,192,94240,12,0,98271,0:0:0:0:
