osu file format v14

[General]
AudioFilename: rakuenmadetv.mp3
AudioLeadIn: 0
PreviewTime: -1
Countdown: 0
SampleSet: Soft
StackLeniency: 0.7
Mode: 0
LetterboxInBreaks: 0
WidescreenStoryboard: 0

[Editor]
DistanceSpacing: 1.2
BeatDivisor: 4
GridSize: 4
TimelineZoom: 1

[Metadata]
Title:Rakuen made
TitleUnicode:楽園まで
Artist:Nishimori Yusa(CV.Uchida Maaya)
ArtistUnicode:西森柚咲 (CV.内田真礼)
Creator:Crystal
Version:Insane
Source:Charlotte
Tags:シャーロット anime character
BeatmapID:776735
BeatmapSetID:352482

[Difficulty]
HPDrainRate:6
CircleSize:4
OverallDifficulty:8
ApproachRate:9
SliderMultiplier:1.8
SliderTickRate:1

[Events]
//Background and Video events
0,0,"bg(1).jpg",0,0
//Break Periods
//Storyboard Layer 0 (Background)
//Storyboard Layer 1 (Fail)
//Storyboard Layer 2 (Pass)
//Storyboard Layer 3 (Foreground)
//Storyboard Sound Samples

[TimingPoints]
528,394.736842105263,4,2,1,70,1,0
6843,-133.333333333333,4,2,1,50,0,0
19475,-100,4,2,1,70,0,0

[Colours]
Combo1 : 0,255,0
Combo2 : 255,0,0
Combo3 : 255,128,0
Combo4 : 0,255,255

[HitObjects]
76,120,528,6,0,P|152:96|224:136,1,135
220,136,922,1,0,0:0:0:0:
148,372,1120,2,0,L|140:192,1,180
320,84,1712,2,0,L|312:188,1,90
476,312,2106,6,0,P|432:328|348:284,1,135
344,268,2501,1,0,0:0:0:0:
128,348,2699,2,0,L|228:344,1,90
217,344,2995,1,0,0:0:0:0:
217,344,3093,1,0,0:0:0:0:
200,192,3291,1,0,0:0:0:0:
424,240,3488,1,0,0:0:0:0:
340,48,3685,6,0,L|342:137,1,90
217,344,4080,2,0,B|201:208|201:208|221:160,1,180
332,292,4672,2,0,P|344:348|332:392,1,90
112,244,5067,2,0,P|57:226|25:194,1,90
180,88,5462,1,0,0:0:0:0:
288,216,5659,1,0,0:0:0:0:
172,320,5856,1,0,0:0:0:0:
196,176,6054,1,0,0:0:0:0:
272,344,6251,5,0,0:0:0:0:
313,359,6349,1,0,0:0:0:0:
358,355,6448,1,0,0:0:0:0:
396,333,6547,1,0,0:0:0:0:
422,296,6645,1,0,0:0:0:0:
452,260,6745,1,0,0:0:0:0:
496,248,6843,6,0,L|492:176,1,67.5000025749208
408,152,7238,2,0,L|412:72,1,67.5000025749208
396,176,7633,1,0,0:0:0:0:
288,100,7830,2,0,L|208:104,2,67.5000025749208
248,192,8422,2,0,L|176:188,1,67.5000025749208
104,156,8817,2,0,P|52:160|12:244,1,135.000005149842
80,352,9409,5,0,0:0:0:0:
92,236,9606,1,0,0:0:0:0:
0,304,9804,1,0,0:0:0:0:
164,320,10001,6,0,L|240:316,1,67.5000025749208
332,272,10396,2,0,L|336:352,1,67.5000025749208
312,248,10791,1,0,0:0:0:0:
420,184,10988,2,0,L|492:188,2,67.5000025749208
316,116,11580,2,0,L|236:120,1,67.5000025749208
428,56,11975,2,0,L|500:60,1,67.5000025749208
404,40,12370,5,0,0:0:0:0:
408,204,12567,1,0,0:0:0:0:
316,116,12764,1,0,0:0:0:0:
408,204,12962,1,0,0:0:0:0:
296,260,13159,6,0,L|140:252,1,135.000005149842
56,296,13751,1,0,0:0:0:0:
48,304,13949,2,0,P|40:360|48:380,1,67.5000025749208
84,204,14343,2,0,P|92:148|84:128,1,67.5000025749208
20,60,14738,5,0,0:0:0:0:
176,136,14935,2,0,P|224:144|300:80,1,135.000005149842
216,60,15527,1,0,0:0:0:0:
212,224,15725,1,0,0:0:0:0:
216,60,15922,1,0,0:0:0:0:
332,144,16120,1,0,0:0:0:0:
464,84,16317,6,0,P|480:132|452:228,2,135.000005149842
364,52,17304,1,0,0:0:0:0:
332,144,17501,2,0,L|256:140,1,67.5000025749208
140,68,17896,6,0,L|216:60,1,67.5000025749208
116,60,18291,1,0,0:0:0:0:
76,144,18488,2,0,L|84:224,1,67.5000025749208
212,360,18883,5,0,0:0:0:0:
96,228,19080,1,0,0:0:0:0:
36,360,19277,1,0,0:0:0:0:
256,268,19475,6,0,B|312:260|312:260|388:288|376:368,1,180
156,288,20067,1,0,0:0:0:0:
304,176,20264,1,0,0:0:0:0:
292,344,20462,1,0,0:0:0:0:
192,180,20659,2,0,L|184:72,1,90
436,56,21054,5,0,0:0:0:0:
384,152,21251,1,0,0:0:0:0:
185,90,21449,2,0,L|293:86,1,90
96,40,21843,1,0,0:0:0:0:
96,40,22041,1,0,0:0:0:0:
60,228,22238,2,0,L|52:128,1,90
