osu file format v14

[General]
AudioFilename: audio.mp3
AudioLeadIn: 0
PreviewTime: 44639
Countdown: 1
SampleSet: Soft
StackLeniency: 0.4
Mode: 0
LetterboxInBreaks: 0
WidescreenStoryboard: 1

[Editor]
Bookmarks: 48685
DistanceSpacing: 1.1
BeatDivisor: 4
GridSize: 4
TimelineZoom: 1.3

[Metadata]
Title:Rakuen made (TV Size)
TitleUnicode:楽園まで (TV Size)
Artist:Nishimori Yusa (CV: Uchida Maaya)
ArtistUnicode:西森柚咲 (CV: 内田真礼)
Creator:Nao Tomori
Version:Hard
Source:Charlotte
Tags:シャーロット key ending how-low-hello thzz anime japanese
BeatmapID:1892365
BeatmapSetID:512928

[Difficulty]
HPDrainRate:5
CircleSize:3.8
OverallDifficulty:6
ApproachRate:7.5
SliderMultiplier:1.4
SliderTickRate:1

[Events]
//Background and Video events
0,0,"cropped-1920-1080-726287.jpg",0,0
//Break Periods
//Storyboard Layer 0 (Background)
//Storyboard Layer 1 (Fail)
//Storyboard Layer 2 (Pass)
//Storyboard Layer 3 (Foreground)
//Storyboard Sound Samples

[TimingPoints]
528,394.736842105263,4,2,1,75,1,0
824,-100,4,2,1,75,0,0
922,-100,4,2,1,75,0,0
2995,-100,4,2,1,75,0,0
3093,-100,4,2,1,75,0,0
6843,-133.333333333333,4,2,2,65,0,0
18883,-133.333333333333,4,2,1,75,0,0
19475,-100,4,2,1,75,0,0
29639,-100,4,2,1,5,0,0
29738,-100,4,2,1,75,0,0
30626,-100,4,2,1,5,0,0
30725,-100,4,2,1,75,0,0
44146,-100,4,2,1,5,0,0
44738,-90.9090909090909,4,2,1,75,0,1
66843,-100,4,2,1,75,0,0
83027,-100,4,2,1,75,0,0
83373,-83.3333333333333,4,2,1,5,0,0
83422,-83.3333333333333,4,2,1,75,0,0
84212,-133.333333333333,4,2,1,75,0,0
85001,-200,4,2,1,75,0,0
85791,-285.714285714286,4,2,1,75,0,0
86383,-133.333333333333,4,2,2,75,0,0
86777,-285.714285714286,4,2,1,75,0,0
86975,-100,4,2,1,75,0,0
88751,-100,4,2,1,75,0,0

[Colours]
Combo1 : 175,128,80
Combo2 : 175,209,209
Combo3 : 213,60,64
Combo4 : 84,131,182

[HitObjects]
87,148,528,6,0,P|148:184|196:174,1,105,6|2,0:0|0:0,0:0:0:0:
209,171,922,1,8,0:0:0:0:
294,96,1120,2,0,L|320:267,1,140,6|2,0:0|0:0,0:0:0:0:
401,298,1712,1,8,0:0:0:0:
201,368,2106,6,0,P|152:355|85:374,1,105,2|2,0:0|0:0,0:0:0:0:
72,380,2501,1,8,0:0:0:0:
4,286,2699,2,0,P|-7:217|3:159,1,105,2|8,0:0|0:0,0:0:0:0:
18,145,3093,2,0,P|23:100|12:55,2,70,2|8|2,0:0|0:0|0:0,0:0:0:0:
103,217,3685,6,0,P|152:199|193:195,1,70,2|0,0:0|0:0,0:0:0:0:
264,236,4080,1,8,0:0:0:0:
360,197,4277,1,2,0:0:0:0:
264,130,4475,1,0,0:0:0:0:
264,130,4672,2,0,L|249:36,1,70,2|8,0:0|0:0,0:0:0:0:
335,7,5067,6,0,P|383:8|434:101,1,140,2|8,0:0|0:0,0:0:0:0:
390,158,5659,2,0,P|397:211|397:229,1,70,8|4,0:0|0:3,0:0:0:0:
333,301,6054,1,4,0:0:0:0:
408,358,6251,1,8,0:0:0:0:
408,358,6350,1,8,0:0:0:0:
408,358,6449,2,0,L|475:351,3,35,10|8|8|8,0:0|0:0|0:0|0:0,0:0:0:0:
488,352,6843,6,0,P|496:284|508:225,1,105.000004005432,12|10,0:0|0:0,0:0:0:0:
413,131,7633,1,8,0:0:0:0:
305,224,8027,1,8,0:0:0:0:
193,153,8422,2,0,P|145:143|73:160,2,105.000004005432,10|8|8,0:0|0:0|0:0,0:0:0:0:
265,41,9606,1,8,0:0:0:0:
370,133,10001,6,0,P|426:143|480:121,1,105.000004005432,10|8,0:0|0:0,0:0:0:0:
429,236,10593,2,0,P|373:226|319:248,1,105.000004005432,2|2,0:0|0:0,0:0:0:0:
255,302,11185,1,8,0:0:0:0:
104,192,11580,2,0,L|95:305,1,105.000004005432,10|8,0:0|0:0,0:0:0:0:
220,380,12370,2,0,P|225:342|219:309,1,52.5000020027161,8|2,0:0|0:0,0:0:0:0:
185,249,12764,1,8,0:0:0:0:
238,178,12962,6,0,L|347:191,1,105.000004005432,2|0,0:3|0:0,0:0:0:0:
417,143,13554,2,0,P|429:105|429:69,1,52.5000020027161,8|2,0:0|0:0,0:0:0:0:
463,225,13949,1,8,0:0:0:0:
463,225,14146,2,0,P|475:266|480:273,1,52.5000020027161,2|0,0:0|0:0,0:0:0:0:
393,325,14541,2,0,P|343:318|273:328,1,105.000004005432,10|0,0:0|2:0,0:0:0:0:
208,372,15133,1,8,0:0:0:0:
43,281,15527,5,8,0:0:0:0:
126,225,15725,1,2,0:0:0:0:
48,168,15922,2,0,L|40:101,1,52.5000020027161,8|0,0:0|0:0,0:0:0:0:
107,42,16317,2,0,P|140:58|224:38,1,105.000004005432,10|8,0:0|0:0,0:0:0:0:
408,162,17106,2,0,P|375:146|291:166,1,105.000004005432,10|8,0:0|0:0,0:0:0:0:
251,223,17699,1,0,0:0:0:0:
251,223,17896,6,0,L|268:352,1,105.000004005432,10|8,0:0|0:0,0:0:0:0:
352,373,18488,2,0,P|398:364|422:364,1,52.5000020027161,0|8,0:0|0:0,0:0:0:0:
485,273,18883,5,8,0:0:0:0:
485,273,19080,1,8,0:0:0:0:
114,206,19475,5,6,0:0:0:0:
203,148,19672,1,0,0:0:0:0:
287,211,19870,1,8,0:0:0:0:
369,146,20067,2,0,P|382:86|359:10,1,140,0|2,0:0|0:0,0:0:0:0:
286,64,20659,1,8,0:0:0:0:
286,64,20856,1,0,0:0:0:0:
369,146,21054,6,0,P|432:138|532:132,1,140,2|8,0:0|0:0,0:0:0:0:
374,251,21646,2,0,P|311:243|211:237,1,140,0|2,0:0|0:0,0:0:0:0:
156,291,22238,1,8,0:0:0:0:
156,291,22435,1,0,0:0:0:0:
61,238,22633,6,0,P|41:192|57:107,1,140,2|8,0:0|0:0,0:0:0:0:
146,53,23225,2,0,P|198:78|297:58,1,140,0|2,0:0|0:0,0:0:0:0:
364,9,23817,1,8,0:0:0:0:
444,65,24014,1,0,0:0:0:0:
363,150,24212,2,0,L|361:319,1,140,2|8,0:0|0:0,0:0:0:0:
201,364,25001,5,2,0:0:0:0:
120,315,25199,1,2,0:0:0:0:
195,250,25396,1,8,0:0:0:0:
125,184,25593,2,0,L|117:105,1,70,2|2,0:3|0:0,0:0:0:0:
30,154,25988,1,0,0:0:0:0:
30,154,26185,2,0,L|37:223,1,70,8|0,0:0|0:0,0:0:0:0:
116,298,26580,6,0,P|160:306|210:293,1,70,2|2,0:0|0:0,0:0:0:0:
270,245,26975,1,8,0:0:0:0:
359,311,27172,2,0,L|448:315,1,70,2|2,0:3|0:0,0:0:0:0:
403,215,27567,1,0,0:0:0:0:
403,215,27764,2,0,L|473:212,1,70,8|0,0:0|0:0,0:0:0:0:
347,127,28159,5,2,0:0:0:0:
259,202,28356,1,2,0:0:0:0:
153,167,28554,1,8,0:0:0:0:
148,53,28751,2,0,P|188:35|255:97,1,140,2|0,0:3|0:0,0:0:0:0:
65,115,29343,2,0,L|45:19,1,70,8|0,0:0|0:0,0:0:0:0:
17,206,29738,5,2,0:0:0:0:
146,260,29935,1,2,0:0:0:0:
254,177,30133,1,8,0:0:0:0:
388,239,30330,2,0,P|406:298|403:327,1,70,2|2,0:0|0:0,0:0:0:0:
312,374,30725,1,2,0:0:0:0:
205,305,30922,6,0,L|105:308,1,70,12|0,0:0|0:0,0:0:0:0:
46,364,31317,1,2,0:0:0:0:
46,364,31416,1,8,0:0:0:0:
46,364,31514,1,8,0:0:0:0:
11,259,31712,1,8,0:3:0:0:
11,259,31909,1,4,0:3:0:0:
99,176,32106,6,0,B|164:159|177:200|251:170,1,140,6|8,0:0|0:0,0:0:0:0:
323,97,32699,2,0,P|337:142|354:167,1,70,0|2,0:0|0:0,0:0:0:0:
455,213,33093,1,2,0:0:0:0:
372,284,33291,1,8,0:0:0:0:
372,284,33488,1,0,0:0:0:0:
455,213,33685,6,0,P|464:153|447:62,1,140,2|8,0:0|0:0,0:0:0:0:
380,15,34277,2,0,P|333:30|221:22,1,140,0|2,0:0|0:0,0:0:0:0:
146,5,34870,1,8,0:0:0:0:
146,5,35067,1,0,0:0:0:0:
56,76,35264,6,0,L|54:153,1,70,2|2,0:0|0:3,0:0:0:0:
135,213,35659,1,8,0:0:0:0:
228,139,35856,2,0,P|258:168|361:184,1,140,6|2,0:0|0:0,0:0:0:0:
457,145,36449,1,8,0:0:0:0:
375,80,36646,1,8,0:0:0:0:
375,80,36745,1,8,0:0:0:0:
375,80,36843,6,0,P|367:143|362:174,1,70,6|2,0:0|0:3,0:0:0:0:
342,257,37238,1,8,0:0:0:0:
256,192,37435,2,0,P|214:221|123:223,1,140,6|2,0:0|0:0,0:0:0:0:
42,156,38027,1,8,0:0:0:0:
42,156,38126,1,8,0:0:0:0:
42,156,38225,1,8,0:0:0:0:
42,156,38324,1,8,0:0:0:0:
42,156,38422,6,0,P|20:204|48:297,1,140,6|8,0:0|0:0,0:0:0:0:
135,344,39014,2,0,L|228:322,1,70,0|2,0:0|0:0,0:0:0:0:
320,361,39409,1,2,0:0:0:0:
320,361,39606,1,8,0:0:0:0:
413,303,39804,1,0,0:0:0:0:
413,303,40001,2,0,P|420:245|411:209,1,70,2|0,0:0|0:0,0:0:0:0:
355,154,40396,1,8,0:0:0:0:
260,221,40593,5,0,0:0:0:0:
260,221,40791,1,2,0:0:0:0:
172,154,40988,1,2,0:0:0:0:
172,154,41185,1,8,0:0:0:0:
87,227,41383,1,0,0:0:0:0:
7,159,41580,6,0,P|-8:95|46:28,1,140,2|12,0:0|0:0,0:0:0:0:
131,70,42172,1,8,0:0:0:0:
131,70,42271,1,8,0:0:0:0:
131,70,42370,2,0,L|210:54,1,70,2|2,0:0|0:0,0:0:0:0:
295,111,42764,2,0,L|376:124,1,70,12|0,0:0|0:3,0:0:0:0:
451,53,43159,5,10,0:0:0:0:
481,147,43356,1,10,0:0:0:0:
404,231,43554,1,10,0:0:0:0:
434,325,43751,1,10,0:0:0:0:
286,239,43949,5,8,0:0:0:0:
269,213,44738,6,0,B|180:204|199:260|88:247,1,154.000004699707,6|8,0:0|0:0,0:0:0:0:
41,198,45330,1,2,0:0:0:0:
41,198,45429,1,8,0:0:0:0:
41,198,45527,2,0,P|27:137|33:110,1,77.0000023498536,2|2,0:0|0:0,0:0:0:0:
107,36,45922,1,8,0:0:0:0:
107,36,46120,1,0,0:0:0:0:
196,102,46317,5,2,0:0:0:0:
196,102,46514,2,0,L|282:92,1,77.0000023498536,2|8,0:0|0:0,0:0:0:0:
345,30,46909,1,2,0:0:0:0:
345,30,47008,1,8,0:0:0:0:
345,30,47106,2,0,P|369:70|407:106,1,77.0000023498536,0|2,0:0|0:0,0:0:0:0:
352,191,47501,2,0,P|331:234|328:281,1,77.0000023498536,8|2,0:0|0:0,0:0:0:0:
402,348,47896,5,2,0:0:0:0:
402,348,48093,1,2,0:0:0:0:
296,301,48291,2,0,P|236:293|199:290,1,77.0000023498536,8|2,0:0|0:0,0:0:0:0:
121,351,48685,1,2,0:0:0:0:
121,351,48883,1,2,0:0:0:0:
37,283,49080,2,0,P|24:227|25:187,1,77.0000023498536,8|2,0:0|0:0,0:0:0:0:
38,172,49376,1,10,0:0:0:0:
38,172,49475,6,0,P|42:121|36:86,1,77.0000023498536,2|0,0:0|0:0,0:0:0:0:
140,45,49870,2,0,P|182:73|215:86,1,77.0000023498536,8|0,0:0|0:0,0:0:0:0:
236,85,50166,1,2,0:0:0:0:
235,85,50264,2,0,L|330:78,1,77.0000023498536,2|2,0:0|0:0,0:0:0:0:
404,145,50659,1,8,0:0:0:0:
324,220,50856,1,2,0:0:0:0:
324,220,50955,1,8,0:0:0:0:
324,220,51054,6,0,P|367:255|476:238,1,154.000004699707,6|8,0:0|0:0,0:0:0:0:
509,149,51646,1,2,0:0:0:0:
509,149,51745,1,8,0:0:0:0:
509,149,51843,2,0,L|499:67,1,77.0000023498536,2|2,0:0|0:0,0:0:0:0:
410,26,52238,2,0,P|351:15|305:30,1,77.0000023498536,8|0,0:0|0:0,0:0:0:0:
259,96,52633,6,0,P|199:126|89:102,1,154.000004699707,2|8,0:0|0:0,0:0:0:0:
36,51,53225,1,2,0:0:0:0:
36,51,53324,1,8,0:0:0:0:
36,51,53422,2,0,P|26:103|13:146,1,77.0000023498536,0|2,0:0|0:0,0:0:0:0:
87,225,53817,1,8,0:0:0:0:
87,225,54014,1,2,0:0:0:0:
11,312,54212,5,2,0:0:0:0:
11,312,54409,2,0,L|5:397,1,77.0000023498536,2|8,0:0|0:0,0:0:0:0:
113,341,54804,1,2,0:0:0:0:
113,341,54902,1,8,0:0:0:0:
113,341,55001,2,0,P|176:352|209:343,1,77.0000023498536,2|2,0:0|0:0,0:0:0:0:
274,282,55396,1,8,0:0:0:0:
274,282,55593,1,2,0:0:0:0:
364,350,55791,6,0,L|468:356,1,77.0000023498536,2|2,0:0|0:0,0:0:0:0:
294,257,56185,2,0,L|190:263,1,77.0000023498536,8|2,0:0|0:0,0:0:0:0:
190,287,56481,1,8,0:0:0:0:
190,287,56580,1,2,0:0:0:0:
83,230,56777,1,2,0:0:0:0:
168,144,56975,2,0,L|172:65,1,77.0000023498536,8|2,0:0|0:0,0:0:0:0:
102,0,57370,6,0,P|140:21|263:7,1,154.000004699707,6|8,0:0|0:0,0:0:0:0:
345,77,57962,1,2,0:0:0:0:
345,77,58060,1,8,0:0:0:0:
345,77,58159,2,0,P|415:62|434:64,1,77.0000023498536,2|2,0:0|0:0,0:0:0:0:
268,159,58554,2,0,P|219:152|184:137,1,77.0000023498536,8|0,0:0|0:0,0:0:0:0:
392,156,58949,6,0,P|408:236|390:329,1,154.000004699707,2|8,0:0|0:0,0:0:0:0:
304,368,59541,1,2,0:0:0:0:
304,368,59639,1,8,0:0:0:0:
304,368,59738,2,0,P|260:353|215:342,1,77.0000023498536,0|2,0:0|0:0,0:0:0:0:
116,366,60133,1,8,0:0:0:0:
29,294,60330,1,2,0:0:0:0:
29,294,60429,1,8,0:0:0:0:
29,294,60527,6,0,P|84:280|139:284,1,77.0000023498536,2|2,0:0|0:0,0:0:0:0:
206,230,60922,2,0,P|221:178|217:128,1,77.0000023498536,8|2,0:0|0:0,0:0:0:0:
213,124,61218,1,2,0:0:0:0:
213,124,61317,1,2,0:0:0:0:
118,56,61514,1,8,0:0:0:0:
118,56,61613,1,8,0:0:0:0:
118,56,61712,2,0,L|114:14,3,38.5000011749268,8|8|8|8,0:0|0:0|0:0|0:0,0:0:0:0:
36,43,62106,6,0,P|20:82|48:211,1,154.000004699707,6|8,0:0|0:3,0:0:0:0:
144,198,62699,1,4,0:3:0:0:
144,198,62797,1,4,0:3:0:0:
144,198,62896,2,0,B|217:189|220:241|313:220,1,154.000004699707,6|8,0:0|0:3,0:0:0:0:
385,158,63488,1,4,0:3:0:0:
385,158,63587,1,4,0:3:0:0:
385,158,63685,6,0,P|397:219|425:326,1,154.000004699707,6|8,0:0|0:0,0:0:0:0:
332,369,64277,2,0,P|273:348|166:319,1,154.000004699707,2|2,0:0|0:0,0:0:0:0:
71,327,64870,1,8,0:0:0:0:
122,222,65067,1,2,0:0:0:0:
122,222,65166,1,2,0:0:0:0:
122,222,65264,6,0,P|131:168|136:137,1,77.0000023498536,2|0,0:0|0:0,0:0:0:0:
231,57,65659,2,0,P|237:95|244:132,1,77.0000023498536,12|0,0:0|0:0,0:0:0:0:
327,214,66054,1,8,0:0:0:0:
327,214,66152,1,2,0:0:0:0:
327,214,66251,1,4,1:2:0:0:
422,143,66449,2,0,L|487:127,3,38.5000011749268,8|8|8|8,0:0|0:0|0:0|0:0,0:0:0:0:
446,54,66843,6,0,P|396:34|299:56,2,140,6|12|6,0:0|0:1|0:1,0:0:0:0:
286,146,67830,1,2,0:0:0:0:
212,83,68027,2,0,L|207:11,1,70,12|0,0:1|0:0,0:0:0:0:
120,120,68422,6,0,P|98:169|113:274,1,140,6|12,0:1|0:1,0:0:0:0:
187,328,69014,1,2,0:0:0:0:
187,328,69113,1,8,0:0:0:0:
187,328,69212,2,0,P|253:317|278:316,1,70,6|0,0:1|0:0,0:0:0:0:
355,353,69606,2,0,P|406:356|453:352,1,70,12|2,0:1|0:0,0:0:0:0:
461,345,69902,1,8,0:1:0:0:
461,345,70001,6,0,P|471:281|455:187,1,140,6|12,0:1|0:1,0:0:0:0:
391,117,70593,1,2,0:2:0:0:
391,117,70692,1,8,0:1:0:0:
391,117,70791,2,0,P|382:60|382:29,1,70,6|0,0:1|0:0,0:0:0:0:
306,191,71185,1,12,0:1:0:0:
23,75,71580,6,0,P|76:62|150:130,1,140,6|12,0:1|0:1,0:0:0:0:
105,202,72172,1,2,0:2:0:0:
105,202,72271,1,8,0:1:0:0:
105,202,72370,2,0,P|99:251|100:298,1,70,6|0,0:1|0:0,0:0:0:0:
187,353,72764,2,0,P|219:312|189:240,1,105,12|0,0:0|0:0,0:0:0:0:
191,232,73159,6,0,P|248:253|342:232,2,140,6|12|6,0:0|0:1|0:1,0:0:0:0:
344,134,74146,1,2,0:1:0:0:
436,212,74343,2,0,P|488:213|525:212,1,70,12|0,0:1|0:1,0:0:0:0:
345,104,74738,6,0,B|267:103|298:150|211:145,1,140,6|12,0:1|0:1,0:0:0:0:
118,75,75330,1,2,0:1:0:0:
118,75,75429,1,8,0:1:0:0:
118,75,75527,2,0,L|100:164,1,70,6|0,0:1|0:0,0:0:0:0:
168,236,75922,2,0,L|183:332,1,70,12|0,0:1|0:1,0:0:0:0:
96,370,76317,6,0,P|182:330|235:348,1,140,6|12,0:1|0:1,0:0:0:0:
316,297,76909,1,2,0:1:0:0:
316,297,77008,1,8,0:1:0:0:
316,297,77106,2,0,P|373:320|473:289,1,140,6|12,0:1|0:1,0:0:0:0:
173,127,77896,6,0,P|127:149|41:142,1,140,6|12,0:1|0:1,0:0:0:0:
167,27,78488,1,2,0:1:0:0:
167,27,78587,1,8,0:1:0:0:
167,27,78685,1,6,0:1:0:0:
254,83,78883,5,12,0:0:0:0:
348,24,79080,1,12,0:0:0:0:
348,24,79179,1,8,0:3:0:0:
348,24,79277,1,4,0:3:0:0:
348,24,79376,1,2,0:0:0:0:
348,24,79475,6,0,P|358:88|383:185,2,140,6|12|6,0:0|0:1|0:1,0:0:0:0:
456,106,80462,1,2,0:1:0:0:
389,198,80659,2,0,P|332:210|296:208,1,70,12|0,0:1|0:0,0:0:0:0:
155,151,81054,6,0,P|206:166|203:320,1,210,6|2,0:1|0:1,0:0:0:0:
195,325,81745,1,8,0:1:0:0:
195,325,81843,1,0,0:0:0:0:
95,273,82041,1,2,0:1:0:0:
16,348,82238,2,0,P|0:296|-18:250,1,70,12|2,0:1|0:1,0:0:0:0:
40,160,82633,5,6,0:1:0:0:
40,160,82830,1,0,0:1:0:0:
135,222,83027,2,0,L|276:209,1,140,12|6,0:1|0:0,0:0:0:0:
376,262,83620,1,8,0:1:0:0:
376,262,83718,1,8,0:1:0:0:
376,262,83817,2,0,L|445:252,3,41.9999987182618,8|8|8|8,0:1|0:1|0:1|0:1,0:0:0:0:
460,277,84212,6,0,P|486:236|445:92,2,210.000008010865,6|6|6,0:0|0:0|0:0,0:0:0:0:
376,335,85988,1,2,0:0:0:0:
376,335,86185,1,8,0:1:0:0:
292,273,86383,2,0,P|238:265|172:275,1,105.000004005432,2|2,0:0|0:0,0:0:0:0:
101,328,86975,2,0,L|81:250,1,70,12|2,0:0|0:1,0:0:0:0:
144,163,87370,5,10,0:0:0:0:
144,163,87468,1,8,0:0:0:0:
144,163,87567,1,8,0:0:0:0:
144,163,87666,1,8,0:0:0:0:
144,163,87764,1,10,0:0:0:0:
225,96,87962,6,0,L|224:56,4,35,8|8|10|8|8,0:0|0:0|0:0|0:0|0:0,0:0:0:0:
316,180,88554,5,10,0:0:0:0:
316,180,88652,1,8,0:0:0:0:
316,180,88751,1,8,0:0:0:0:
316,180,88850,1,10,0:0:0:0:
