osu file format v14

[General]
AudioFilename: Aishiteru Bonzai.mp3
AudioLeadIn: 0
PreviewTime: 74708
Countdown: 0
SampleSet: Soft
StackLeniency: 0.7
Mode: 2
LetterboxInBreaks: 0
WidescreenStoryboard: 0

[Editor]
DistanceSpacing: 1.1
BeatDivisor: 4
GridSize: 8
TimelineZoom: 0.6999999

[Metadata]
Title:Aishiteru Banzai!(Prepro Piano Mix)
TitleUnicode:愛してるばんざーい!(Prepro Piano Mix)
Artist:Nishikino Maki(CV.Pile)
ArtistUnicode:西木野真姫(CV.Pile)
Creator:koliron
Version:Salad
Source:ラブライブ! School idol project
Tags:Maki Nishikino Loli_Master Yuii- LoveLive! 西木野 真姫
BeatmapID:782794
BeatmapSetID:355543

[Difficulty]
HPDrainRate:4
CircleSize:3
OverallDifficulty:6.3
ApproachRate:6.3
SliderMultiplier:1.4
SliderTickRate:1

[Events]
//Background and Video events
0,0,"BG.jpg",0,0
//Break Periods
//Storyboard Layer 0 (Background)
//Storyboard Layer 1 (Fail)
//Storyboard Layer 2 (Pass)
//Storyboard Layer 3 (Foreground)
//Storyboard Sound Samples

[TimingPoints]
708,666.666666666667,4,2,1,60,1,0
3708,-100,4,2,0,40,0,0
5874,-100,4,2,1,50,0,0
6208,-100,4,2,0,40,0,0
9874,-100,4,2,1,50,0,0
11208,-100,4,2,0,40,0,0
14041,-100,4,2,1,50,0,0
14374,-100,4,2,0,40,0,0
20708,-100,4,3,0,30,0,0
21874,-100,4,2,0,60,0,0
29708,-100,4,2,1,45,0,0
32041,-100,4,2,0,30,0,0
32708,-100,4,2,0,50,0,0
40708,-100,4,2,1,65,0,0
41041,-100,4,2,0,65,0,0
42874,-100,4,2,0,55,0,0
43374,-100,4,2,1,60,0,0
43708,-100,4,2,0,60,0,0
50541,-100,4,2,0,30,0,0
50874,-100,4,2,0,50,0,0
52541,-100,4,2,1,50,0,0
54041,-100,4,2,1,60,0,0
54208,-100,4,2,0,60,0,0
54874,-100,4,2,1,50,0,0
55708,-100,4,2,0,50,0,0
57208,-100,4,2,1,50,0,0
58374,-100,4,2,0,60,0,0
59208,-100,4,2,1,50,0,0
60874,-100,4,2,0,60,0,0
63208,-100,4,2,1,50,0,0
64208,-100,4,2,1,40,0,0
64541,-100,4,2,0,55,0,0
65541,-100,4,2,1,50,0,0
66708,-100,4,2,1,45,0,0
67374,-100,4,2,1,55,0,0
68208,-100,4,2,1,60,0,0
70041,-100,4,2,0,59,0,0
70375,-100,4,2,0,61,0,0
70708,-100,4,2,0,63,0,0
71041,-100,4,2,0,65,0,0
71375,-100,4,2,0,67,0,0
71708,-100,4,2,0,69,0,0
72041,-100,4,2,0,71,0,0
72375,-100,4,2,0,73,0,0
72708,-100,4,2,1,50,0,0
74374,-100,4,3,0,40,0,0
75374,-100,4,2,0,60,0,1
95374,-100,4,3,0,40,0,0
96541,-100,4,2,0,50,0,0
104374,-100,4,2,1,35,0,0

[Colours]
Combo1 : 177,140,255
Combo2 : 254,149,146
Combo3 : 255,255,140
Combo4 : 100,170,255
Combo5 : 155,233,255

[HitObjects]
256,192,708,6,0,P|336:192|384:144,1,140,2|0,0:0|0:0,0:0:0:0:
160,80,2041,2,0,P|96:120|88:208,1,140,2|0,0:2|0:0,0:0:0:0:
352,176,3374,6,0,P|400:176|424:160,1,70,2|2,0:2|0:0,0:0:0:0:
256,128,4041,2,0,P|208:128|184:144,1,70,0|0,0:0|0:2,0:0:0:0:
376,96,4708,2,0,L|280:96,1,70,2|0,2:0|0:0,0:0:0:0:
144,208,5374,2,0,L|224:208,1,70,2|0,0:0|2:0,0:0:0:0:
440,184,6041,6,0,P|480:168|512:176,2,70,2|2|0,0:0|0:0|0:0,0:0:0:0:
192,80,7374,2,0,P|152:96|112:88,2,70,2|0|0,0:0|0:0|0:0,0:0:0:0:
416,176,8708,6,0,P|352:160|336:176,1,70,2|0,0:0|0:0,0:0:0:0:
184,192,9374,2,0,P|168:208|104:192,1,70,0|0,0:0|0:0,0:0:0:0:
296,96,10041,1,2,0:0:0:0:
112,96,10708,1,2,0:0:0:0:
448,224,11374,6,0,L|352:224,1,70,2|0,0:0|0:0,0:0:0:0:
192,160,12041,2,0,P|240:160|256:136,1,70,2|0,0:0|0:0,0:0:0:0:
80,192,12708,2,0,L|16:152,1,70,2|2,0:0|0:0,0:0:0:0:
192,120,13374,2,0,L|234:176,1,70,0|0,0:0|0:0,0:0:0:0:
408,144,14041,6,0,P|368:120|344:88,2,70,2|0|2,0:0|0:0|0:0,0:0:0:0:
480,208,15041,1,0,0:0:0:0:
352,208,15374,2,0,L|272:208,1,70
432,288,16041,2,0,P|472:256|472:208,1,70,2|0,0:0|0:0,0:0:0:0:
208,72,16708,5,2,0:0:0:0:
112,144,17041,1,0,0:0:0:0:
160,248,17374,1,2,0:0:0:0:
264,296,17708,1,0,0:0:0:0:
456,80,18041,5,2,0:0:0:0:
352,128,18374,1,0,0:0:0:0:
456,176,18708,1,0,0:0:0:0:
344,224,19041,1,0,0:0:0:0:
152,64,19374,6,0,L|72:64,1,70,2|0,0:0|0:0,0:0:0:0:
256,160,20041,2,0,L|336:160,1,70,0|0,0:0|0:0,0:0:0:0:
88,48,20708,2,0,L|72:90,1,35,2|2,0:0|0:0,0:0:0:0:
360,96,22041,6,0,P|384:80|424:80,2,70,2|0|2,0:0|0:0|0:0,0:0:0:0:
232,120,23041,1,0,0:0:0:0:
88,176,23374,2,0,P|48:192|8:192,2,70,2|0|2,0:0|0:0|0:0,0:0:0:0:
216,152,24374,1,0,0:0:0:0:
320,256,24708,6,0,P|368:240|416:256,1,70,2|0,0:0|0:0,0:0:0:0:
224,176,25374,2,0,P|272:160|320:176,1,70,2|0,0:0|0:0,0:0:0:0:
472,64,26041,2,0,P|424:80|392:64,1,70,2|0,0:0|0:0,0:0:0:0:
256,96,26708,2,0,P|304:112|336:96,1,70,2|0,0:0|0:0,0:0:0:0:
96,192,27374,6,0,P|48:200|8:192,2,70,2|0|2,0:0|0:0|0:0,0:0:0:0:
224,160,28374,1,0,0:0:0:0:
368,208,28708,2,0,P|400:208|440:232,2,70,2|0|2,0:0|0:0|0:0,0:0:0:0:
208,128,29708,5,0,0:0:0:0:
228,156,29819,1,0,0:0:0:0:
268,172,29930,1,0,0:0:0:0:
324,140,30041,1,2,0:0:0:0:
432,144,32041,5,2,0:0:0:0:
192,128,32708,2,0,P|160:144|128:128,2,70,2|0|0,0:0|0:0|0:0,0:0:0:0:
64,64,33708,1,0,0:0:0:0:
256,64,34041,2,0,L|186:64,1,70,2|0,0:0|0:0,0:0:0:0:
352,64,34708,1,2,0:0:0:0:
96,288,35374,5,2,0:0:0:0:
240,288,35707,1,0,0:0:0:0:
128,208,36040,1,0,0:0:0:0:
272,208,36374,1,0,0:0:0:0:
432,128,36708,2,0,P|472:88|480:56,1,70,2|0,0:0|0:0,0:0:0:0:
264,232,37374,2,0,P|220:211|224:176,1,70,2|0,0:0|0:0,0:0:0:0:
472,160,38041,6,0,P|452:131|426:108,2,70,2|0|0,0:0|0:0|0:0,0:0:0:0:
336,72,39041,1,0,0:0:0:0:
240,144,39374,2,0,L|176:176,1,70,2|0,0:0|0:0,0:0:0:0:
368,192,40041,2,0,L|448:240,1,70,2|0,0:0|0:0,0:0:0:0:
184,272,40708,5,2,0:0:0:0:
80,272,41374,1,2,0:0:0:0:
416,176,42041,1,2,0:0:0:0:
208,56,42874,1,2,0:0:0:0:
424,80,43374,5,2,0:0:0:0:
392,168,43708,1,0,0:0:0:0:
320,224,44041,1,2,0:0:0:0:
224,224,44374,1,0,0:0:0:0:
32,128,44708,2,0,L|128:128,1,70,2|0,0:0|0:0,0:0:0:0:
256,192,45374,2,0,L|160:192,1,70,2|0,0:0|0:0,0:0:0:0:
336,112,46041,6,0,L|376:32,1,70,2|0,0:0|0:0,0:0:0:0:
200,112,46708,2,0,L|240:32,1,70
360,208,47374,2,0,B|400:208|400:208|432:224,2,70,2|0|2,0:0|0:0|0:0,0:0:0:0:
96,144,48708,5,2,0:0:0:0:
224,80,49041,1,0,0:0:0:0:
112,96,49374,1,0,0:0:0:0:
240,32,49708,1,0,0:0:0:0:
416,96,50041,2,0,L|336:96,1,70,2|0,0:0|0:0,0:0:0:0:
160,160,50708,2,0,P|192:136|224:128,1,70,2|0,0:0|0:0,0:0:0:0:
408,224,51374,6,0,P|296:208|216:224,1,140,2|2,0:0|0:0,0:0:0:0:
120,128,52374,1,0,0:0:0:0:
376,64,52708,2,0,L|216:64,1,140,2|0,0:0|0:0,0:0:0:0:
448,160,54041,6,0,P|416:192|384:192,1,70,2|0,0:0|0:0,0:0:0:0:
240,176,54708,2,0,P|288:160|320:160,2,70,2|2|2,0:0|0:0|0:0,0:0:0:0:
48,64,55708,5,0,0:0:0:0:
104,144,56041,1,2,0:0:0:0:
176,224,56374,1,0,0:0:0:0:
336,208,56708,2,0,P|384:208|416:224,1,70,2|0,0:0|0:0,0:0:0:0:
216,288,57374,2,0,P|264:304|296:296,1,70,0|2,0:0|0:0,0:0:0:0:
304,160,58374,5,0,0:0:0:0:
440,96,58708,1,2,0:0:0:0:
320,32,59041,1,0,0:0:0:0:
48,112,59374,6,0,P|92:60|159:66,1,140,2|2,0:0|0:0,0:0:0:0:
408,120,60708,2,0,P|393:185|329:204,1,140,2|2,0:0|0:0,0:0:0:0:
192,96,62041,6,0,P|160:112|144:160,1,70,2|0,0:0|0:0,0:0:0:0:
288,200,62708,2,0,P|309:228|340:243,1,70,2|0,0:0|0:0,0:0:0:0:
480,272,63374,1,2,0:0:0:0:
72,144,64208,1,2,0:0:0:0:
280,96,64708,6,0,P|328:64|344:32,1,70,2|0,0:0|0:0,0:0:0:0:
512,160,65374,2,0,L|448:112,1,70,0|2,0:0|0:0,0:0:0:0:
240,160,66708,1,2,0:0:0:0:
32,80,67375,6,0,L|128:80,1,70,2|0,0:0|0:0,0:0:0:0:
272,80,68041,2,0,L|232:168,1,70,0|2,0:0|0:0,0:0:0:0:
464,240,69041,1,0,0:0:0:0:
298,187,69375,2,0,P|333:193|368:192,1,70,2|0,0:0|0:0,0:0:0:0:
128,80,70041,5,2,0:0:0:0:
32,112,70375,1,0,0:0:0:0:
144,176,70708,1,2,0:0:0:0:
16,208,71041,1,0,0:0:0:0:
160,272,71375,5,2,0:0:0:0:
304,208,71708,1,0,0:0:0:0:
144,144,72041,1,2,0:0:0:0:
312,96,72375,1,0,0:0:0:0:
48,48,72708,5,2,0:0:0:0:
384,176,74375,6,0,L|416:128,1,35,2|2,0:0|0:0,0:0:0:0:
224,80,75375,6,0,P|128:96|64:128,1,140,2|2,0:0|0:0,0:0:0:0:
320,176,76708,2,0,P|432:160|480:128,1,140,2|2,0:0|0:0,0:0:0:0:
264,80,78041,6,0,L|184:80,1,70,2|0,0:0|0:0,0:0:0:0:
344,160,78708,2,0,L|274:160,1,70,2|0,0:0|0:0,0:0:0:0:
88,112,79375,2,0,L|137:161,1,70,2|0,0:0|0:0,0:0:0:0:
272,256,80041,2,0,L|222:206,1,70,2|0,0:0|0:0,0:0:0:0:
504,144,80708,6,0,P|424:96|360:112,1,140,2|2,0:0|0:0,0:0:0:0:
144,272,82041,2,0,B|105:268|64:240|152:160,1,140,2|2,0:0|0:0,0:0:0:0:
320,224,83375,6,0,L|400:240,1,70,2|0,0:0|0:0,0:0:0:0:
224,192,84041,2,0,L|144:176,1,70,2|0,0:0|0:0,0:0:0:0:
320,128,84708,2,0,L|240:112,1,70,2|0,0:0|0:0,0:0:0:0:
80,128,85375,2,0,L|160:112,1,70,2|0,0:0|0:0,0:0:0:0:
400,96,86041,6,0,B|472:136|472:136|392:144,1,140,0|2,0:0|0:0,0:0:0:0:
152,208,87375,2,0,B|80:192|80:192|144:176,1,140,0|2,0:0|0:0,0:0:0:0:
368,176,88708,6,0,L|464:176,1,70,2|0,0:0|0:0,0:0:0:0:
280,112,89375,2,0,L|360:112,1,70,2|0,0:0|0:0,0:0:0:0:
176,96,90041,2,0,L|112:160,1,70,2|0,0:0|0:0,0:0:0:0:
304,224,90708,2,0,P|344:256|392:256,1,70,2|0,0:0|0:0,0:0:0:0:
112,264,91375,6,0,P|175:289|234:255,1,140,2|2,0:0|0:0,0:0:0:0:
392,160,92708,2,0,P|326:144|265:176,1,140,2|2,0:0|0:0,0:0:0:0:
96,240,94041,2,0,B|48:192|144:144|64:96,1,140,2|2,0:2|0:0,0:0:0:0:
312,128,95374,2,0,L|336:88,1,35,2|2,0:0|0:0,0:0:0:0:
120,128,96708,6,0,B|154:160|154:208|82:272,1,140,2|2,0:0|0:0,0:0:0:0:
194,256,97708,1,0,0:0:0:0:
402,224,98041,2,0,B|418:193|402:177|303:248,1,140,2|0,0:0|0:0,0:0:0:0:
394,280,99041,1,2,0:0:0:0:
218,176,99375,6,0,B|138:160|218:96|139:81,1,140,2|0,0:0|0:0,0:0:0:0:
234,72,100374,1,2,0:0:0:0:
402,96,100708,2,0,P|462:119|448:182,1,140,2|0,0:0|0:0,0:0:0:0:
360,184,101708,1,2,0:0:0:0:
184,216,102041,6,0,P|96:176|112:152,1,140,2|0,0:0|0:0,0:0:0:0:
8,176,103041,1,2,0:0:0:0:
192,112,103375,2,0,P|127:124|86:71,1,140,2|2,0:0|0:0,0:0:0:0:
208,208,104375,5,0,0:0:0:0:
228,236,104486,1,0,0:0:0:0:
268,252,104597,1,0,0:0:0:0:
324,220,104708,1,2,0:0:0:0:
