osu file format v14

[General]
AudioFilename: audio.mp3
AudioLeadIn: 0
PreviewTime: 62930
Countdown: 0
SampleSet: Soft
StackLeniency: 0.7
Mode: 3
LetterboxInBreaks: 0
SpecialStyle: 0
WidescreenStoryboard: 0

[Editor]
Bookmarks: 7230,19830
DistanceSpacing: 1.1
BeatDivisor: 6
GridSize: 4
TimelineZoom: 1.1

[Metadata]
Title:START:DASH!! (Prepro Piano Mix)
TitleUnicode:START:DASH!! (Prepro Piano Mix)
Artist:Nishikino Maki (CV. Pile)
ArtistUnicode:Nishikino Maki (CV. Pile)
Creator:-Nitrous
Version:4K Normal
Source:Lovelive! School idol project
Tags:ラブライブ!solo live Notes of days arcwinolivirus
BeatmapID:1248266
BeatmapSetID:570771

[Difficulty]
HPDrainRate:7
CircleSize:4
OverallDifficulty:7
ApproachRate:5
SliderMultiplier:1.4
SliderTickRate:1

[Events]
//Background and Video events
0,0,"makiteru.png",0,0
//Break Periods
//Storyboard Layer 0 (Background)
//Storyboard Layer 1 (Fail)
//Storyboard Layer 2 (Pass)
//Storyboard Layer 3 (Foreground)
//Storyboard Sound Samples
Sample,1430,0,"A6S.wav",70
Sample,3030,0,"B6S.wav",70
Sample,4630,0,"A6S.wav",70
Sample,7230,0,"B5S.wav",77
Sample,7230,0,"G5S.wav",79
Sample,7830,0,"G5S.wav",85
Sample,7830,0,"B5S.wav",85
Sample,8030,0,"C3S.wav",70
Sample,8430,0,"C3S.wav",70
Sample,8830,0,"A5S.wav",88
Sample,9430,0,"A5S.wav",87
Sample,9630,0,"D3S.wav",70
Sample,10030,0,"D3S.wav",70
Sample,10430,0,"A5S.wav",85
Sample,11030,0,"A5S.wav",85
Sample,11230,0,"B2S.wav",70
Sample,11630,0,"F#5S_Gb5S_s.wav",70
Sample,11630,0,"B2S.wav",70
Sample,12030,0,"B5S.wav",84
Sample,12630,0,"B5S.wav",83
Sample,12830,0,"E3S.wav",70
Sample,13230,0,"G5S_s.wav",70
Sample,13230,0,"E3S.wav",70
Sample,13630,0,"B5S.wav",85
Sample,13630,0,"G5S.wav",81
Sample,14230,0,"G5S.wav",83
Sample,14230,0,"B5S.wav",81
Sample,14430,0,"C3S.wav",70
Sample,14830,0,"C3S.wav",70
Sample,15230,0,"A5S.wav",84
Sample,15830,0,"A5S.wav",83
Sample,16030,0,"D3S.wav",70
Sample,16430,0,"D3S.wav",70
Sample,16830,0,"A5S.wav",87
Sample,17430,0,"A5S.wav",85
Sample,17630,0,"B2S.wav",70
Sample,18030,0,"F#5S_Gb5S_s.wav",70
Sample,18030,0,"F#5S_Gb5S_s.wav",70
Sample,18030,0,"B2S.wav",70
Sample,18430,0,"B5S.wav",88
Sample,19030,0,"B5S.wav",85
Sample,19230,0,"E3S.wav",70
Sample,19630,0,"E3S.wav",70
Sample,20030,0,"B5S.wav",70
Sample,20430,0,"B5S.wav",76
Sample,20830,0,"B5S.wav",73
Sample,21230,0,"B5S.wav",74
Sample,21630,0,"B5S.wav",72
Sample,22030,0,"B5S.wav",69
Sample,22430,0,"B5S.wav",74
Sample,22830,0,"B5S.wav",74
Sample,23230,0,"B5S.wav",71
Sample,23630,0,"B5S.wav",70
Sample,24030,0,"B5S.wav",71
Sample,24430,0,"B5S.wav",69
Sample,24830,0,"B5S.wav",75
Sample,25230,0,"B5S.wav",70
Sample,25630,0,"B5S.wav",76
Sample,26030,0,"G5S.wav",74
Sample,26030,0,"B5S.wav",69
Sample,26430,0,"A5S.wav",72
Sample,26830,0,"A5S.wav",70
Sample,27230,0,"A5S.wav",76
Sample,27630,0,"A5S.wav",72
Sample,28030,0,"A5S.wav",71
Sample,28430,0,"A5S.wav",76
Sample,28830,0,"A5S.wav",75
Sample,29230,0,"A5S.wav",76
Sample,29230,0,"F#5S_Gb5S.wav",74
Sample,29630,0,"G5S.wav",73
Sample,29630,0,"B5S.wav",74
Sample,30030,0,"G5S.wav",76
Sample,30030,0,"B5S.wav",71
Sample,30430,0,"G5S.wav",74
Sample,30430,0,"B5S.wav",69
Sample,30830,0,"B5S.wav",76
Sample,30830,0,"G5S.wav",74
Sample,31230,0,"B5S.wav",70
Sample,31230,0,"G5S.wav",69
Sample,31630,0,"G5S.wav",72
Sample,31630,0,"B5S.wav",74
Sample,32030,0,"B5S.wav",74
Sample,32030,0,"G5S.wav",74
Sample,32430,0,"B5S.wav",74
Sample,32430,0,"G5S.wav",70
Sample,32830,0,"B5S.wav",70
Sample,32830,0,"G5S.wav",70
Sample,33230,0,"G5S.wav",70
Sample,33230,0,"B5S.wav",72
Sample,33630,0,"B5S.wav",70
Sample,33630,0,"G5S.wav",74
Sample,34030,0,"B5S.wav",71
Sample,34030,0,"G5S.wav",77
Sample,34430,0,"A5S_s.wav",77
Sample,34830,0,"A5S.wav",79
Sample,35230,0,"B5S.wav",74
Sample,35630,0,"C6S.wav",81
Sample,36030,0,"B5S.wav",72
Sample,36430,0,"B5S.wav",70
Sample,36430,0,"G5S.wav",74
Sample,36830,0,"B5S.wav",75
Sample,37230,0,"B5S.wav",73
Sample,37630,0,"B5S.wav",73
Sample,38030,0,"B5S.wav",70
Sample,38430,0,"B5S.wav",72
Sample,38830,0,"B5S.wav",69
Sample,39230,0,"A5S.wav",77
Sample,39630,0,"A5S.wav",77
Sample,40030,0,"A5S.wav",69
Sample,40430,0,"A5S.wav",77
Sample,40830,0,"A5S.wav",72
Sample,41230,0,"A5S.wav",69
Sample,41630,0,"A5S.wav",70
Sample,42030,0,"A5S.wav",73
Sample,42430,0,"B5S.wav",70
Sample,42830,0,"B5S.wav",73
Sample,43230,0,"B5S.wav",70
Sample,43630,0,"B5S.wav",70
Sample,44030,0,"A5S.wav",74
Sample,44430,0,"A5S.wav",71
Sample,44830,0,"A5S.wav",72
Sample,45230,0,"A5S.wav",70
Sample,45630,0,"G5S_s.wav",70
Sample,46030,0,"E5S_s.wav",69
Sample,46030,0,"G5S_s.wav",67
Sample,46230,0,"A5S_s.wav",77
Sample,46630,0,"F#5S_Gb5S_s.wav",78
Sample,46630,0,"A5S_s.wav",79
Sample,47030,0,"B5S.wav",81
Sample,48830,0,"G5S.wav",81
Sample,48830,0,"B5S.wav",83
Sample,49430,0,"G5S_s.wav",77
Sample,49430,0,"B5S_s.wav",73
Sample,49630,0,"G5S.wav",77
Sample,49630,0,"B5S.wav",78
Sample,50230,0,"A5S_s.wav",85
Sample,51630,0,"A5S.wav",77
Sample,52030,0,"A5S.wav",79
Sample,52630,0,"A5S_s.wav",74
Sample,52830,0,"A5S.wav",83
Sample,53430,0,"B5S_s.wav",81
Sample,54830,0,"B5S.wav",77
Sample,55230,0,"A5S.wav",74
Sample,55230,0,"F5S.wav",76
Sample,55230,0,"C6S.wav",44
Sample,56230,0,"A5S.wav",81
Sample,56830,0,"B5S.wav",74
Sample,57830,0,"B5S.wav",92
Sample,58430,0,"A5S.wav",82
Sample,59030,0,"A5S.wav",81
Sample,59630,0,"F#5S_Gb5S_s.wav",64
Sample,60430,0,"F#5S_Gb5S.wav",70
Sample,60430,0,"B5S.wav",89
Sample,60830,0,"D#6S_Eb6S.wav",77
Sample,60830,0,"B5S.wav",70
Sample,61230,0,"D#6S_Eb6S_s.wav",70
Sample,61230,0,"F#6S_Gb6S_s.wav",69
Sample,61430,0,"F#6S_Gb6S_s.wav",70
Sample,61430,0,"B6S_s.wav",70
Sample,62830,0,"B5S.wav",85
Sample,62830,0,"F#5S_Gb5S.wav",70
Sample,63230,0,"B5S.wav",81
Sample,63830,0,"B5S.wav",77
Sample,64030,0,"C3S.wav",70
Sample,64030,0,"C3S.wav",70
Sample,64430,0,"C3S.wav",70
Sample,64830,0,"A5S.wav",81
Sample,65430,0,"A5S.wav",83
Sample,65630,0,"D3S.wav",70
Sample,66030,0,"D3S.wav",70
Sample,66430,0,"A5S.wav",85
Sample,67030,0,"A5S.wav",79
Sample,67230,0,"B2S.wav",70
Sample,67230,0,"B2S.wav",70
Sample,67630,0,"B2S.wav",70
Sample,68030,0,"B5S.wav",85
Sample,68630,0,"B5S.wav",77
Sample,68830,0,"E3S.wav",70
Sample,69230,0,"E3S.wav",70
Sample,69630,0,"B5S.wav",82
Sample,70230,0,"B5S.wav",85
Sample,70430,0,"C3S.wav",70
Sample,70430,0,"C3S.wav",70
Sample,70830,0,"C3S.wav",70
Sample,71230,0,"A5S.wav",82
Sample,71830,0,"A5S.wav",78
Sample,72030,0,"D3S.wav",70
Sample,72430,0,"D3S.wav",70
Sample,72830,0,"A5S.wav",83
Sample,73430,0,"A5S.wav",77
Sample,73630,0,"B2S.wav",70
Sample,74030,0,"B2S.wav",70
Sample,74430,0,"E5S.wav",70
Sample,74830,0,"F#5S_Gb5S_s.wav",70
Sample,75230,0,"G5S.wav",70
Sample,75630,0,"C6S.wav",70
Sample,76030,0,"B5S.wav",81
Sample,76630,0,"B5S.wav",77
Sample,76830,0,"C3S.wav",70
Sample,77230,0,"G5S_s.wav",70
Sample,77230,0,"C3S.wav",70
Sample,77430,0,"B5S_s.wav",78
Sample,77630,0,"A5S.wav",81
Sample,78230,0,"A5S.wav",83
Sample,78430,0,"D3S.wav",70
Sample,78830,0,"D3S.wav",70
Sample,79230,0,"A5S.wav",85
Sample,79830,0,"A5S.wav",79
Sample,80030,0,"B2S.wav",70
Sample,80430,0,"B2S.wav",70
Sample,80830,0,"B5S.wav",85
Sample,81430,0,"B5S.wav",77
Sample,81630,0,"E3S.wav",70
Sample,82030,0,"E3S.wav",70
Sample,82430,0,"B5S.wav",81
Sample,83030,0,"B5S.wav",77
Sample,83230,0,"C3S.wav",70
Sample,83630,0,"C3S.wav",70
Sample,84030,0,"A5S.wav",81
Sample,84630,0,"A5S.wav",83
Sample,84830,0,"D3S.wav",70
Sample,85230,0,"D3S.wav",70
Sample,85630,0,"A5S.wav",85
Sample,86230,0,"A5S.wav",79
Sample,86430,0,"B2S.wav",70
Sample,86830,0,"B2S.wav",70
Sample,87230,0,"B5S.wav",85
Sample,87830,0,"B5S.wav",77
Sample,88030,0,"E3S.wav",70
Sample,88430,0,"E3S.wav",70
Sample,88830,0,"G5S.wav",70
Sample,88830,0,"G5S.wav",66
Sample,90430,0,"F#5S_Gb5S_s.wav",70
Sample,90430,0,"A5S_s.wav",81
Sample,92030,0,"B5S.wav",81
Sample,92030,0,"G5S.wav",80
Sample,92630,0,"G5S.wav",79
Sample,92630,0,"B5S.wav",77
Sample,92830,0,"C3S.wav",70
Sample,93230,0,"C3S.wav",70
Sample,93630,0,"A5S.wav",81
Sample,94230,0,"A5S.wav",83
Sample,94430,0,"D3S.wav",70
Sample,94830,0,"D3S.wav",70
Sample,94830,0,"F#5S_Gb5S_s.wav",70
Sample,95230,0,"A5S.wav",85
Sample,95830,0,"A5S.wav",79
Sample,96030,0,"B2S.wav",70
Sample,96430,0,"B2S.wav",70
Sample,96830,0,"B5S.wav",85
Sample,97430,0,"B5S.wav",77
Sample,97630,0,"E3S.wav",70
Sample,98030,0,"E3S.wav",70
Sample,98230,0,"B5S_s.wav",76
Sample,98430,0,"G5S.wav",80
Sample,98430,0,"B5S.wav",81
Sample,99030,0,"G5S.wav",79
Sample,99030,0,"B5S.wav",77
Sample,100030,0,"A5S.wav",81
Sample,100630,0,"A5S.wav",83
Sample,100830,0,"D3S.wav",70
Sample,101230,0,"F#5S_Gb5S_s.wav",70
Sample,101230,0,"D3S.wav",70
Sample,101630,0,"A5S.wav",85
Sample,102230,0,"A5S.wav",79
Sample,102430,0,"B2S.wav",70
Sample,102830,0,"B2S.wav",70
Sample,102830,0,"F#5S_Gb5S_s.wav",70
Sample,102830,0,"F#5S_Gb5S_s.wav",70
Sample,103030,0,"A5S_s.wav",72
Sample,103230,0,"B5S.wav",85
Sample,103830,0,"B5S.wav",77
Sample,104030,0,"E3S.wav",70
Sample,104430,0,"E3S.wav",70
Sample,104830,0,"G5S.wav",67
Sample,104830,0,"B5S.wav",67

[TimingPoints]
-770,400,4,2,0,70,1,0
63230,-100,4,2,0,70,0,1
76030,-100,4,2,0,70,0,1
90430,-100,4,2,0,70,0,0

[HitObjects]
192,192,630,5,0,0:0:0:82:G6S_s.wav
320,192,730,1,0,0:0:0:76:A6S_s.wav
448,192,830,128,0,1230:0:0:0:84:B6S.wav
320,192,1230,1,0,0:0:0:84:D7S_s.wav
192,192,1430,128,0,2030:0:0:0:78:A6S.wav
64,192,2230,1,0,0:0:0:75:F#6S_Gb6S_s.wav
192,192,2330,1,0,0:0:0:77:G6S_s.wav
320,192,2430,128,0,2830:0:0:0:83:A6S.wav
192,192,2830,1,0,0:0:0:77:C7S_s.wav
64,192,3030,128,0,3630:0:0:0:72:B6S.wav
192,192,3830,1,0,0:0:0:80:G6S_s.wav
320,192,3930,1,0,0:0:0:81:A6S_s.wav
448,192,4030,128,0,4430:0:0:0:78:B6S.wav
320,192,4430,1,0,0:0:0:85:D7S_s.wav
64,192,4630,128,0,5030:0:0:0:80:A6S.wav
192,192,5030,1,0,0:0:0:74:G6S_s.wav
320,192,5230,1,0,0:0:0:80:F#6S_Gb6S_s.wav
448,192,5430,128,0,6830:0:0:0:83:G6S.wav
64,192,5430,128,0,6830:0:0:0:70:G6S.wav
192,192,7230,1,0,0:0:0:78:D5S.wav
64,192,7230,128,0,7830:0:0:0:81:E5S.wav
192,192,7630,1,0,0:0:0:70:C3S.wav
320,192,7830,1,0,0:0:0:84:D5S.wav
448,192,7830,128,0,8230:0:0:0:81:E5S.wav
192,192,8230,1,0,0:0:0:77:D5S_s.wav
64,192,8430,1,0,0:0:0:84:G5S_s.wav
192,192,8630,1,0,0:0:0:80:B5S_s.wav
320,192,8830,1,0,0:0:0:81:D5S.wav
448,192,8830,128,0,9430:0:0:0:78:F#5S_Gb5S.wav
320,192,9230,1,0,0:0:0:70:D3S.wav
192,192,9430,1,0,0:0:0:79:D5S.wav
64,192,9430,128,0,9830:0:0:0:77:F#5S_Gb5S.wav
192,192,9830,1,0,0:0:0:63:D5S_s.wav
320,192,10030,1,0,0:0:0:86:F#5S_Gb5S_s.wav
448,192,10230,1,0,0:0:0:52:A5S_s.wav
320,192,10430,1,0,0:0:0:85:D5S.wav
192,192,10430,128,0,10830:0:0:0:82:F#5S_Gb5S.wav
448,192,10830,1,0,0:0:0:70:B2S.wav
64,192,11030,128,0,11430:0:0:0:82:D5S.wav
320,192,11030,1,0,0:0:0:79:F#5S_Gb5S.wav
192,192,11430,1,0,0:0:0:66:D5S_s.wav
320,192,11630,1,0,0:0:0:84:F#5S_Gb5S_s.wav
448,192,11830,1,0,0:0:0:79:A5S_s.wav
320,192,12030,128,0,12430:0:0:0:66:D5S.wav
192,192,12030,1,0,0:0:0:81:G5S.wav
64,192,12430,1,0,0:0:0:70:E3S.wav
192,192,12630,128,0,13030:0:0:0:68:D5S.wav
320,192,12630,1,0,0:0:0:81:G5S.wav
320,192,13030,1,0,0:0:0:55:D5S_s.wav
448,192,13230,1,0,0:0:0:82:G5S_s.wav
320,192,13430,1,0,0:0:0:78:B5S_s.wav
192,192,13630,128,0,14030:0:0:0:77:D5S.wav
64,192,13630,1,0,0:0:0:81:E5S.wav
448,192,14030,1,0,0:0:0:70:C3S.wav
320,192,14230,128,0,14630:0:0:0:84:D5S.wav
192,192,14230,1,0,0:0:0:79:E5S.wav
64,192,14630,1,0,0:0:0:80:D5S_s.wav
192,192,14830,1,0,0:0:0:78:G5S_s.wav
320,192,15030,1,0,0:0:0:77:B5S_s.wav
448,192,15230,128,0,15630:0:0:0:81:D5S.wav
192,192,15230,1,0,0:0:0:78:F#5S_Gb5S.wav
320,192,15630,1,0,0:0:0:70:D3S.wav
192,192,15830,128,0,16230:0:0:0:81:D5S.wav
64,192,15830,1,0,0:0:0:80:F#5S_Gb5S.wav
320,192,16230,1,0,0:0:0:64:D5S_s.wav
448,192,16430,1,0,0:0:0:83:F#5S_Gb5S_s.wav
320,192,16630,1,0,0:0:0:46:A5S_s.wav
192,192,16830,1,0,0:0:0:82:D5S.wav
64,192,16830,128,0,17230:0:0:0:85:F#5S_Gb5S.wav
192,192,17230,1,0,0:0:0:70:B2S.wav
320,192,17430,1,0,0:0:0:81:D5S.wav
448,192,17430,128,0,17830:0:0:0:81:F#5S_Gb5S.wav
192,192,17830,1,0,0:0:0:66:D5S_s.wav
64,192,18030,1,0,0:0:0:86:F#5S_Gb5S_s.wav
192,192,18230,1,0,0:0:0:85:A5S_s.wav
320,192,18430,1,0,0:0:0:66:D5S.wav
448,192,18430,128,0,18830:0:0:0:83:G5S.wav
320,192,18830,1,0,0:0:0:70:E3S.wav
192,192,19030,1,0,0:0:0:67:D5S.wav
64,192,19030,128,0,19430:0:0:0:84:G5S.wav
192,192,19430,1,0,0:0:0:57:D5S_s.wav
320,192,19630,1,0,0:0:0:85:G5S_s.wav
448,192,19830,1,0,0:0:0:75:B5S_s.wav
64,192,20030,1,0,0:0:0:69:D5S.wav
320,192,20030,1,0,0:0:0:69:G5S.wav
64,192,20430,1,0,0:0:0:65:D5S.wav
320,192,20430,1,0,0:0:0:72:G5S.wav
192,192,20830,1,0,0:0:0:68:D5S.wav
448,192,20830,1,0,0:0:0:75:G5S.wav
448,192,21230,1,0,0:0:0:69:D5S.wav
192,192,21230,1,0,0:0:0:74:G5S.wav
64,192,21630,1,0,0:0:0:66:D5S.wav
320,192,21630,1,0,0:0:0:77:G5S.wav
192,192,22030,1,0,0:0:0:68:D5S.wav
448,192,22030,1,0,0:0:0:73:G5S.wav
320,192,22430,1,0,0:0:0:62:D5S.wav
64,192,22430,1,0,0:0:0:70:G5S.wav
192,192,22830,1,0,0:0:0:70:D5S.wav
448,192,22830,1,0,0:0:0:70:G5S.wav
64,192,23030,1,0,0:0:0:70:D3S_s.wav
192,192,23230,1,0,0:0:0:70:D5S.wav
320,192,23230,1,0,0:0:0:71:G5S.wav
64,192,23630,1,0,0:0:0:64:D5S.wav
192,192,23630,1,0,0:0:0:70:G5S.wav
320,192,24030,1,0,0:0:0:67:D5S.wav
448,192,24030,1,0,0:0:0:71:G5S.wav
192,192,24430,1,0,0:0:0:65:D5S.wav
64,192,24430,1,0,0:0:0:75:G5S.wav
320,192,24830,1,0,0:0:0:64:D5S.wav
448,192,24830,1,0,0:0:0:73:G5S.wav
64,192,25230,1,0,0:0:0:62:D5S.wav
320,192,25230,1,0,0:0:0:70:G5S.wav
192,192,25630,1,0,0:0:0:64:D5S.wav
448,192,25630,1,0,0:0:0:69:G5S.wav
320,192,26030,1,0,0:0:0:70:D5S.wav
192,192,26230,1,0,0:0:0:70:G2S_s.wav
64,192,26430,1,0,0:0:0:68:D5S.wav
320,192,26430,1,0,0:0:0:75:F#5S_Gb5S.wav
64,192,26830,1,0,0:0:0:69:D5S.wav
320,192,26830,1,0,0:0:0:71:F#5S_Gb5S.wav
192,192,27230,1,0,0:0:0:62:D5S.wav
448,192,27230,1,0,0:0:0:69:F#5S_Gb5S.wav
192,192,27630,1,0,0:0:0:67:D5S.wav
448,192,27630,1,0,0:0:0:70:F#5S_Gb5S.wav
64,192,28030,1,0,0:0:0:66:D5S.wav
320,192,28030,1,0,0:0:0:74:F#5S_Gb5S.wav
64,192,28430,1,0,0:0:0:64:D5S.wav
320,192,28430,1,0,0:0:0:70:F#5S_Gb5S.wav
192,192,28830,1,0,0:0:0:66:D5S.wav
448,192,28830,1,0,0:0:0:77:F#5S_Gb5S.wav
320,192,29230,1,0,0:0:0:64:D5S.wav
192,192,29430,1,0,0:0:0:70:B2S_s.wav
320,192,29630,1,0,0:0:0:69:D5S.wav
448,192,29630,1,0,0:0:0:66:E5S.wav
320,192,30030,1,0,0:0:0:67:D5S.wav
448,192,30030,1,0,0:0:0:70:E5S.wav
192,192,30430,1,0,0:0:0:64:D5S.wav
64,192,30430,1,0,0:0:0:63:E5S.wav
64,192,30830,1,0,0:0:0:66:D5S.wav
192,192,30830,1,0,0:0:0:66:E5S.wav
320,192,31230,1,0,0:0:0:65:D5S.wav
448,192,31230,1,0,0:0:0:67:E5S.wav
448,192,31630,1,0,0:0:0:67:D5S.wav
320,192,31630,1,0,0:0:0:66:E5S.wav
192,192,32030,1,0,0:0:0:66:D5S.wav
64,192,32030,1,0,0:0:0:67:E5S.wav
64,192,32430,1,0,0:0:0:70:D5S.wav
192,192,32430,1,0,0:0:0:68:E5S.wav
192,192,32830,1,0,0:0:0:67:D5S.wav
448,192,32830,1,0,0:0:0:63:E5S.wav
320,192,33230,1,0,0:0:0:62:D5S.wav
64,192,33230,1,0,0:0:0:66:E5S.wav
192,192,33630,1,0,0:0:0:62:D5S.wav
448,192,33630,1,0,0:0:0:70:E5S.wav
320,192,34030,1,0,0:0:0:70:D5S.wav
64,192,34030,1,0,0:0:0:66:E5S.wav
64,192,34430,1,0,0:0:0:83:D5S_s.wav
448,192,34430,1,0,0:0:0:79:F#5S_Gb5S_s.wav
320,192,34830,128,0,35230:0:0:0:79:C5S.wav
192,192,35230,128,0,35630:0:0:0:74:D5S.wav
64,192,35630,128,0,36030:0:0:0:74:E5S.wav
320,192,36030,1,0,0:0:0:64:D5S.wav
448,192,36030,1,0,0:0:0:77:G5S.wav
192,192,36430,1,0,0:0:0:68:D5S.wav
64,192,36430,1,0,0:0:0:70:G5S.wav
320,192,36830,1,0,0:0:0:62:D5S.wav
448,192,36830,1,0,0:0:0:76:G5S.wav
192,192,37230,1,0,0:0:0:70:D5S.wav
64,192,37230,1,0,0:0:0:69:G5S.wav
320,192,37430,1,0,0:0:0:70:G2S_s.wav
448,192,37630,1,0,0:0:0:69:D5S.wav
192,192,37630,1,0,0:0:0:74:G5S.wav
64,192,38030,1,0,0:0:0:67:D5S.wav
320,192,38030,1,0,0:0:0:74:G5S.wav
192,192,38430,1,0,0:0:0:66:D5S.wav
448,192,38430,1,0,0:0:0:74:G5S.wav
320,192,38830,1,0,0:0:0:70:D5S.wav
64,192,38830,1,0,0:0:0:75:G5S.wav
192,192,39030,1,0,0:0:0:70:G2S_s.wav
448,192,39230,1,0,0:0:0:64:D5S.wav
64,192,39230,1,0,0:0:0:70:F#5S_Gb5S.wav
320,192,39630,1,0,0:0:0:69:D5S.wav
192,192,39630,1,0,0:0:0:73:F#5S_Gb5S.wav
448,192,40030,1,0,0:0:0:66:D5S.wav
64,192,40030,1,0,0:0:0:70:F#5S_Gb5S.wav
320,192,40430,1,0,0:0:0:70:D5S.wav
192,192,40430,1,0,0:0:0:77:F#5S_Gb5S.wav
64,192,40630,1,0,0:0:0:70:B2S_s.wav
192,192,40830,1,0,0:0:0:67:D5S.wav
448,192,40830,1,0,0:0:0:72:F#5S_Gb5S.wav
192,192,41230,1,0,0:0:0:64:D5S.wav
448,192,41230,1,0,0:0:0:75:F#5S_Gb5S.wav
320,192,41630,1,0,0:0:0:66:D5S.wav
64,192,41630,1,0,0:0:0:77:F#5S_Gb5S.wav
64,192,42030,1,0,0:0:0:67:D5S.wav
320,192,42030,1,0,0:0:0:71:F#5S_Gb5S.wav
192,192,42430,1,0,0:0:0:69:D5S.wav
320,192,42430,1,0,0:0:0:74:G5S.wav
320,192,42830,1,0,0:0:0:66:D5S.wav
192,192,42830,1,0,0:0:0:70:G5S.wav
64,192,43230,1,0,0:0:0:66:D5S.wav
448,192,43230,1,0,0:0:0:70:G5S.wav
448,192,43630,1,0,0:0:0:68:D5S.wav
64,192,43630,1,0,0:0:0:74:G5S.wav
192,192,43830,1,0,0:0:0:70:E3S_s.wav
320,192,44030,1,0,0:0:0:67:D5S.wav
64,192,44030,1,0,0:0:0:73:F#5S_Gb5S.wav
192,192,44430,1,0,0:0:0:64:D5S.wav
448,192,44430,1,0,0:0:0:74:F#5S_Gb5S.wav
64,192,44830,1,0,0:0:0:64:D5S.wav
320,192,44830,1,0,0:0:0:74:F#5S_Gb5S.wav
192,192,45230,1,0,0:0:0:66:D5S.wav
448,192,45230,1,0,0:0:0:71:F#5S_Gb5S.wav
320,192,45430,1,0,0:0:0:70:D3S_s.wav
448,192,45630,1,0,0:0:0:76:C5S_s.wav
192,192,45630,128,0,46030:0:0:0:74:E5S_s.wav
64,192,46030,1,0,0:0:0:70:C5S_s.wav
320,192,46230,1,0,0:0:0:75:D5S_s.wav
448,192,46230,128,0,46630:0:0:0:75:F#5S_Gb5S_s.wav
192,192,46630,1,0,0:0:0:77:D5S_s.wav
64,192,47030,128,0,47830:0:0:0:82:D5S.wav
448,192,47030,1,0,0:0:0:79:G5S.wav
320,192,47430,1,0,0:0:0:81:D5S_s.wav
192,192,47630,1,0,0:0:0:80:G5S_s.wav
320,192,47830,1,0,0:0:0:77:D6S.wav
448,192,47830,128,0,48830:0:0:0:70:G5S.wav
64,192,48830,1,0,0:0:0:77:D5S.wav
192,192,48830,128,0,49430:0:0:0:81:E5S.wav
320,192,49430,1,0,0:0:0:81:D5S_s.wav
448,192,49430,1,0,0:0:0:79:E5S_s.wav
320,192,49630,128,0,50230:0:0:0:84:D5S.wav
448,192,49630,128,0,50230:0:0:0:78:E5S.wav
192,192,50230,1,0,0:0:0:79:D5S_s.wav
64,192,50230,1,0,0:0:0:80:F#5S_Gb5S_s.wav
320,192,51630,1,0,0:0:0:81:D5S.wav
448,192,51630,128,0,52030:0:0:0:75:F#5S_Gb5S.wav
192,192,52030,1,0,0:0:0:83:D5S.wav
64,192,52030,128,0,52430:0:0:0:82:F#5S_Gb5S.wav
192,192,52630,1,0,0:0:0:75:D5S_s.wav
320,192,52630,1,0,0:0:0:79:F#5S_Gb5S_s.wav
192,192,52830,128,0,53430:0:0:0:81:D5S.wav
320,192,52830,128,0,53430:0:0:0:79:F#5S_Gb5S.wav
64,192,53430,1,0,0:0:0:77:D5S_s.wav
448,192,53430,1,0,0:0:0:77:G5S_s.wav
64,192,54830,128,0,55230:0:0:0:77:D5S.wav
448,192,54830,1,0,0:0:0:73:G5S.wav
192,192,55230,128,0,55630:0:0:0:74:C5S.wav
320,192,55630,1,0,0:0:0:69:C5S_s.wav
448,192,55830,1,0,0:0:0:85:F5S.wav
320,192,56230,1,0,0:0:0:77:C5S.wav
192,192,56230,128,0,56630:0:0:0:79:F5S.wav
64,192,56630,1,0,0:0:0:70:F3S_s.wav
320,192,56830,1,0,0:0:0:77:E5S.wav
448,192,56830,128,0,57230:0:0:0:75:G5S.wav
192,192,57230,1,0,0:0:0:77:E5S_s.wav
64,192,57430,1,0,0:0:0:70:E5S.wav
320,192,57430,1,0,0:0:0:85:G5S.wav
192,192,57830,1,0,0:0:0:77:E5S.wav
448,192,57830,1,0,0:0:0:84:G5S.wav
320,192,58230,1,0,0:0:0:70:E3S_s.wav
64,192,58430,128,0,58830:0:0:0:71:D5S.wav
192,192,58430,1,0,0:0:0:81:F#5S_Gb5S.wav
320,192,58830,1,0,0:0:0:66:D5S_s.wav
448,192,59030,128,0,59630:0:0:0:70:D5S.wav
192,192,59030,128,0,59630:0:0:0:81:F#5S_Gb5S.wav
64,192,59830,128,0,60430:0:0:0:85:D#5S_Eb5S.wav
320,192,59830,1,0,0:0:0:88:F#5S_Gb5S.wav
192,192,60430,128,0,60830:0:0:0:86:F#5S_Gb5S.wav
320,192,60830,128,0,61230:0:0:0:81:B5S.wav
192,192,61230,1,0,0:0:0:74:D#6S_Eb6S_s.wav
64,192,61430,1,0,0:0:0:82:F#6S_Gb6S_s.wav
448,192,61430,1,0,0:0:0:96:B6S_s.wav
64,192,62830,128,0,63230:0:0:0:84:D#5S_Eb5S.wav
192,192,62830,1,0,0:0:0:84:F#5S_Gb5S.wav
320,192,63230,1,0,0:0:0:75:E5S.wav
448,192,63230,128,0,63830:0:0:0:80:G5S.wav
192,192,63630,1,0,0:0:0:70:C3S.wav
320,192,63830,1,0,0:0:0:71:E5S.wav
64,192,63830,128,0,64230:0:0:0:79:G5S.wav
192,192,64230,1,0,0:0:0:73:E5S_s.wav
320,192,64430,1,0,0:0:0:77:G5S_s.wav
448,192,64630,1,0,0:0:0:78:B5S_s.wav
320,192,64830,1,0,0:0:0:66:D5S.wav
192,192,64830,128,0,65430:0:0:0:81:F#5S_Gb5S.wav
64,192,65230,1,0,0:0:0:70:D3S.wav
448,192,65430,1,0,0:0:0:66:D5S.wav
320,192,65430,128,0,65830:0:0:0:82:F#5S_Gb5S.wav
192,192,65830,1,0,0:0:0:74:D5S_s.wav
64,192,66030,1,0,0:0:0:93:F#5S_Gb5S_s.wav
192,192,66230,1,0,0:0:0:77:A5S_s.wav
320,192,66430,1,0,0:0:0:69:D5S.wav
448,192,66430,128,0,66830:0:0:0:79:F#5S_Gb5S.wav
192,192,66830,1,0,0:0:0:70:B2S.wav
64,192,67030,128,0,67430:0:0:0:64:D5S.wav
320,192,67030,1,0,0:0:0:78:F#5S_Gb5S.wav
192,192,67430,1,0,0:0:0:76:D5S_s.wav
320,192,67630,1,0,0:0:0:86:F#5S_Gb5S_s.wav
448,192,67830,1,0,0:0:0:72:A5S_s.wav
192,192,68030,128,0,68430:0:0:0:75:D5S.wav
320,192,68030,1,0,0:0:0:81:G5S.wav
64,192,68430,1,0,0:0:0:70:E3S.wav
320,192,68630,128,0,69030:0:0:0:78:D5S.wav
192,192,68630,1,0,0:0:0:81:G5S.wav
448,192,69030,1,0,0:0:0:82:D5S_s.wav
320,192,69230,1,0,0:0:0:81:G5S_s.wav
192,192,69430,1,0,0:0:0:76:B5S_s.wav
64,192,69630,128,0,70030:0:0:0:74:E5S.wav
320,192,69630,1,0,0:0:0:84:G5S.wav
192,192,70030,1,0,0:0:0:70:C3S.wav
320,192,70230,1,0,0:0:0:75:E5S.wav
448,192,70230,128,0,70630:0:0:0:78:G5S.wav
192,192,70630,1,0,0:0:0:73:E5S_s.wav
64,192,70830,1,0,0:0:0:80:G5S_s.wav
192,192,71030,1,0,0:0:0:79:B5S_s.wav
448,192,71230,128,0,71630:0:0:0:69:D5S.wav
320,192,71230,1,0,0:0:0:81:F#5S_Gb5S.wav
320,192,71630,1,0,0:0:0:70:D3S.wav
192,192,71830,1,0,0:0:0:66:D5S.wav
64,192,71830,128,0,72230:0:0:0:80:F#5S_Gb5S.wav
320,192,72230,1,0,0:0:0:74:D5S_s.wav
448,192,72430,1,0,0:0:0:89:F#5S_Gb5S_s.wav
320,192,72630,1,0,0:0:0:78:A5S_s.wav
192,192,72830,1,0,0:0:0:65:D5S.wav
64,192,72830,128,0,73230:0:0:0:83:F#5S_Gb5S.wav
192,192,73230,1,0,0:0:0:70:B2S.wav
320,192,73430,1,0,0:0:0:67:D5S.wav
448,192,73430,128,0,73830:0:0:0:79:F#5S_Gb5S.wav
192,192,73830,1,0,0:0:0:72:D5S_s.wav
64,192,74030,1,0,0:0:0:86:F#5S_Gb5S_s.wav
192,192,74230,1,0,0:0:0:73:A5S_s.wav
320,192,74430,128,0,74830:0:0:0:82:E5S.wav
448,192,74430,1,0,0:0:0:81:G5S.wav
192,192,74830,1,0,0:0:0:77:F#5S_Gb5S.wav
64,192,74830,128,0,75230:0:0:0:78:A5S.wav
448,192,75230,128,0,75630:0:0:0:81:G5S.wav
320,192,75230,1,0,0:0:0:84:B5S.wav
64,192,75630,1,0,0:0:0:84:A5S.wav
192,192,75630,128,0,76030:0:0:0:82:C6S.wav
320,192,76030,1,0,0:0:0:75:E5S.wav
448,192,76030,128,0,76630:0:0:0:80:G5S.wav
320,192,76430,1,0,0:0:0:70:C3S.wav
192,192,76630,1,0,0:0:0:71:E5S.wav
64,192,76630,128,0,77030:0:0:0:79:G5S.wav
320,192,77030,1,0,0:0:0:73:E5S_s.wav
448,192,77230,1,0,0:0:0:77:G5S_s.wav
192,192,77230,1,0,0:0:0:77:G5S_s.wav
192,192,77630,1,0,0:0:0:66:D5S.wav
64,192,77630,128,0,78230:0:0:0:81:F#5S_Gb5S.wav
320,192,78030,1,0,0:0:0:70:D3S.wav
192,192,78230,1,0,0:0:0:66:D5S.wav
448,192,78230,128,0,78630:0:0:0:82:F#5S_Gb5S.wav
320,192,78630,1,0,0:0:0:74:D5S_s.wav
192,192,78830,1,0,0:0:0:93:F#5S_Gb5S_s.wav
320,192,79030,1,0,0:0:0:77:A5S_s.wav
448,192,79230,1,0,0:0:0:69:D5S.wav
192,192,79230,128,0,79630:0:0:0:79:F#5S_Gb5S.wav
64,192,79630,1,0,0:0:0:70:B2S.wav
448,192,79830,128,0,80230:0:0:0:64:D5S.wav
320,192,79830,1,0,0:0:0:78:F#5S_Gb5S.wav
320,192,80230,1,0,0:0:0:76:D5S_s.wav
192,192,80430,1,0,0:0:0:86:F#5S_Gb5S_s.wav
64,192,80630,1,0,0:0:0:72:A5S_s.wav
320,192,80830,128,0,81230:0:0:0:75:D5S.wav
192,192,80830,1,0,0:0:0:81:G5S.wav
64,192,81230,1,0,0:0:0:70:E3S.wav
192,192,81430,128,0,81830:0:0:0:78:D5S.wav
448,192,81430,1,0,0:0:0:81:G5S.wav
64,192,81830,1,0,0:0:0:82:D5S_s.wav
192,192,82030,1,0,0:0:0:81:G5S_s.wav
320,192,82230,1,0,0:0:0:76:B5S_s.wav
448,192,82430,128,0,82830:0:0:0:75:E5S.wav
64,192,82430,1,0,0:0:0:80:G5S.wav
320,192,82830,1,0,0:0:0:70:C3S.wav
64,192,83030,128,0,83430:0:0:0:71:E5S.wav
192,192,83030,1,0,0:0:0:79:G5S.wav
192,192,83430,1,0,0:0:0:73:E5S_s.wav
320,192,83630,1,0,0:0:0:77:G5S_s.wav
64,192,83830,1,0,0:0:0:78:B5S_s.wav
448,192,84030,128,0,84430:0:0:0:66:D5S.wav
320,192,84030,1,0,0:0:0:81:F#5S_Gb5S.wav
320,192,84430,1,0,0:0:0:70:D3S.wav
192,192,84630,1,0,0:0:0:66:D5S.wav
64,192,84630,128,0,85030:0:0:0:82:F#5S_Gb5S.wav
320,192,85030,1,0,0:0:0:74:D5S_s.wav
448,192,85230,1,0,0:0:0:93:F#5S_Gb5S_s.wav
320,192,85430,1,0,0:0:0:77:A5S_s.wav
192,192,85630,1,0,0:0:0:69:D5S.wav
64,192,85630,128,0,86030:0:0:0:79:F#5S_Gb5S.wav
192,192,86030,1,0,0:0:0:70:B2S.wav
320,192,86230,1,0,0:0:0:64:D5S.wav
448,192,86230,128,0,86630:0:0:0:78:F#5S_Gb5S.wav
192,192,86630,1,0,0:0:0:76:D5S_s.wav
320,192,86830,1,0,0:0:0:86:F#5S_Gb5S_s.wav
448,192,87030,1,0,0:0:0:72:A5S_s.wav
192,192,87230,1,0,0:0:0:75:D5S.wav
64,192,87230,128,0,87630:0:0:0:81:G5S.wav
192,192,87630,1,0,0:0:0:70:E3S.wav
320,192,87830,1,0,0:0:0:78:D5S.wav
448,192,87830,128,0,88230:0:0:0:81:G5S.wav
320,192,88230,1,0,0:0:0:82:D5S_s.wav
192,192,88430,1,0,0:0:0:81:G5S_s.wav
64,192,88630,1,0,0:0:0:76:B5S_s.wav
192,192,88830,128,0,90430:0:0:0:81:C5S.wav
320,192,88830,128,0,90430:0:0:0:85:E5S.wav
64,192,90430,1,0,0:0:0:84:D5S_s.wav
448,192,90430,1,0,0:0:0:83:F#5S_Gb5S_s.wav
320,192,92030,1,0,0:0:0:67:D5S.wav
448,192,92030,128,0,92630:0:0:0:75:E5S.wav
320,192,92430,1,0,0:0:0:70:C3S.wav
192,192,92630,1,0,0:0:0:67:D5S.wav
64,192,92630,128,0,93030:0:0:0:71:E5S.wav
320,192,93030,1,0,0:0:0:73:D5S_s.wav
448,192,93230,1,0,0:0:0:77:G5S_s.wav
320,192,93430,1,0,0:0:0:78:B5S_s.wav
64,192,93630,128,0,94230:0:0:0:66:D5S.wav
192,192,93630,1,0,0:0:0:81:F#5S_Gb5S.wav
192,192,94030,1,0,0:0:0:70:D3S.wav
320,192,94230,1,0,0:0:0:66:D5S.wav
448,192,94230,128,0,94630:0:0:0:82:F#5S_Gb5S.wav
320,192,94630,1,0,0:0:0:74:D5S_s.wav
192,192,94830,1,0,0:0:0:93:F#5S_Gb5S_s.wav
64,192,95030,1,0,0:0:0:77:A5S_s.wav
320,192,95230,128,0,95630:0:0:0:69:D5S.wav
192,192,95230,1,0,0:0:0:79:F#5S_Gb5S.wav
64,192,95630,1,0,0:0:0:70:B2S.wav
448,192,95830,128,0,96230:0:0:0:64:D5S.wav
192,192,95830,1,0,0:0:0:78:F#5S_Gb5S.wav
320,192,96230,1,0,0:0:0:76:D5S_s.wav
192,192,96430,1,0,0:0:0:86:F#5S_Gb5S_s.wav
64,192,96630,1,0,0:0:0:72:A5S_s.wav
320,192,96830,1,0,0:0:0:75:D5S.wav
192,192,96830,128,0,97230:0:0:0:81:G5S.wav
448,192,97230,1,0,0:0:0:70:E3S.wav
320,192,97430,128,0,97830:0:0:0:78:D5S.wav
192,192,97430,1,0,0:0:0:81:G5S.wav
192,192,97830,1,0,0:0:0:82:D5S_s.wav
64,192,98030,1,0,0:0:0:81:G5S_s.wav
448,192,98030,1,0,0:0:0:81:G5S_s.wav
320,192,98430,128,0,98830:0:0:0:67:D5S.wav
448,192,98430,1,0,0:0:0:75:E5S.wav
64,192,98830,1,0,0:0:0:70:C3S.wav
192,192,99030,128,0,99430:0:0:0:67:D5S.wav
320,192,99030,1,0,0:0:0:71:E5S.wav
448,192,99430,1,0,0:0:0:73:D5S_s.wav
320,192,99630,1,0,0:0:0:77:G5S_s.wav
192,192,99830,1,0,0:0:0:78:B5S_s.wav
64,192,100030,128,0,100430:0:0:0:66:D5S.wav
320,192,100030,1,0,0:0:0:81:F#5S_Gb5S.wav
192,192,100430,1,0,0:0:0:70:D3S.wav
320,192,100630,128,0,101030:0:0:0:66:D5S.wav
448,192,100630,1,0,0:0:0:82:F#5S_Gb5S.wav
192,192,101030,1,0,0:0:0:74:D5S_s.wav
64,192,101230,1,0,0:0:0:93:F#5S_Gb5S_s.wav
192,192,101430,1,0,0:0:0:77:A5S_s.wav
448,192,101630,128,0,102030:0:0:0:69:D5S.wav
320,192,101630,1,0,0:0:0:79:F#5S_Gb5S.wav
320,192,102030,1,0,0:0:0:70:B2S.wav
192,192,102230,1,0,0:0:0:64:D5S.wav
64,192,102230,128,0,102630:0:0:0:78:F#5S_Gb5S.wav
320,192,102630,1,0,0:0:0:76:D5S_s.wav
448,192,102830,1,0,0:0:0:86:F#5S_Gb5S_s.wav
192,192,102830,1,0,0:0:0:86:F#5S_Gb5S_s.wav
64,192,103230,128,0,103630:0:0:0:75:D5S.wav
192,192,103230,1,0,0:0:0:81:G5S.wav
192,192,103630,1,0,0:0:0:70:E3S.wav
320,192,103830,1,0,0:0:0:78:D5S.wav
448,192,103830,128,0,104230:0:0:0:81:G5S.wav
320,192,104230,1,0,0:0:0:82:D5S_s.wav
192,192,104430,1,0,0:0:0:81:G5S_s.wav
320,192,104630,1,0,0:0:0:76:B5S_s.wav
64,192,104830,128,0,107630:0:0:0:67:D5S.wav
448,192,104830,128,0,107630:0:0:0:67:E5S.wav
192,192,107896,1,0,0:0:0:70:E6S_s.wav
320,192,107963,1,0,0:0:0:70:G6S_s.wav
448,192,108030,128,0,111230:0:0:0:70:B6S.wav
