osu file format v14

[General]
AudioFilename: audio.mp3
AudioLeadIn: 0
PreviewTime: 74700
Countdown: 0
SampleSet: Soft
StackLeniency: 0.7
Mode: 3
LetterboxInBreaks: 0
SpecialStyle: 0
WidescreenStoryboard: 1

[Editor]
DistanceSpacing: 0.9
BeatDivisor: 4
GridSize: 8
TimelineZoom: 0.8

[Metadata]
Title:Aishiteru Banzai! (Prepro Piano Mix)
TitleUnicode:愛してるばんざーい!(Prepro Piano Mix)
Artist:Nishikino Maki (CV: Pile)
ArtistUnicode:西木野真姫 (CV: Pile)
Creator:Flade
Version:Mirsaaa's 4K Beginner
Source:ラブライブ! School idol project
Tags:instrumental classical japanese anime 畑 亜貴 aki hata 山田高弘 takahiro yamada 酒井陽一 yoichi sakai μ's festival piano solo valentine love live! notes of school idol days mirsaaa
BeatmapID:3441137
BeatmapSetID:1684128

[Difficulty]
HPDrainRate:6
CircleSize:4
OverallDifficulty:6
ApproachRate:5
SliderMultiplier:1.4
SliderTickRate:1

[Events]
//Background and Video events
0,0,"bg.jpg",0,0
//Break Periods
//Storyboard Layer 0 (Background)
//Storyboard Layer 1 (Fail)
//Storyboard Layer 2 (Pass)
//Storyboard Layer 3 (Foreground)
//Storyboard Layer 4 (Overlay)
//Storyboard Sound Samples
Sample,700,0,"G#5H_Ab5H.wav",40
Sample,700,0,"B5H.wav",40
Sample,2033,0,"B5H.wav",40
Sample,2033,0,"B4H.wav",40
Sample,3366,0,"G#4H_Ab4H.wav",40
Sample,3366,0,"B5H.wav",40
Sample,3700,0,"D#5H_Eb5H.wav",40
Sample,4033,0,"G#5H_Ab5H.wav",40
Sample,4366,0,"B5H.wav",40
Sample,4700,0,"C#6H_Db6H.wav",40
Sample,4700,0,"E6H.wav",40
Sample,5033,0,"G#5H_Ab5H.wav",40
Sample,5366,0,"G#5H_Ab5H.wav",40
Sample,5366,0,"B5H.wav",40
Sample,6033,0,"E6H.wav",40
Sample,6033,0,"A4H.wav",40
Sample,6366,0,"E5H.wav",40
Sample,7366,0,"G#4H_Ab4H.wav",40
Sample,7366,0,"B5H.wav",40
Sample,7700,0,"E5H.wav",40
Sample,8700,0,"E6H.wav",40
Sample,8700,0,"F#4H_Gb4H.wav",40
Sample,9033,0,"C#5H_Db5H.wav",40
Sample,10033,0,"E6H.wav",40
Sample,10033,0,"A5H.wav",40
Sample,10700,0,"F#6H_Gb6H.wav",40
Sample,10700,0,"B5H.wav",40
Sample,11366,0,"E6H.wav",40
Sample,11366,0,"G#6H_Ab6H.wav",40
Sample,11700,0,"B5H.wav",40
Sample,12366,0,"B5H.wav",40
Sample,12700,0,"F#5H_Gb5H.wav",40
Sample,12700,0,"B4H.wav",40
Sample,13033,0,"F#5H_Gb5H.wav",40
Sample,13700,0,"F#6H_Gb6H.wav",40
Sample,14033,0,"D#6H_Eb6H.wav",40
Sample,14033,0,"G#4H_Ab4H.wav",40
Sample,14366,0,"G#5H_Ab5H.wav",40
Sample,14700,0,"F#6H_Gb6H.wav",40
Sample,15033,0,"G#5H_Ab5H.wav",40
Sample,15366,0,"C#6H_Db6H.wav",40
Sample,15366,0,"E6H.wav",40
Sample,15700,0,"G#5H_Ab5H.wav",40
Sample,16033,0,"F#5H_Gb5H.wav",40
Sample,16033,0,"B5H.wav",40
Sample,16700,0,"E6H.wav",40
Sample,16700,0,"A5H.wav",40
Sample,17033,0,"E5H.wav",40
Sample,17700,0,"E6H.wav",40
Sample,18033,0,"G#5H_Ab5H.wav",40
Sample,18033,0,"B5H.wav",40
Sample,18366,0,"E5H.wav",40
Sample,19033,0,"E6H.wav",40
Sample,19366,0,"E6H.wav",40
Sample,19366,0,"A5H.wav",40
Sample,19700,0,"C#5H_Db5H.wav",40
Sample,20366,0,"C#6H_Db6H.wav",40
Sample,20700,0,"E5H.wav",40
Sample,20700,0,"A5H.wav",40
Sample,20866,0,"C#6H_Db6H.wav",40
Sample,20866,0,"E5H.wav",40
Sample,20866,0,"A5H.wav",40
Sample,22033,0,"E6H.wav",40
Sample,22033,0,"A5H.wav",40
Sample,22033,0,"A6H.wav",40
Sample,22366,0,"B5H.wav",40
Sample,22700,0,"E6H.wav",40
Sample,22700,0,"A6H.wav",40
Sample,23033,0,"B5H.wav",40
Sample,23366,0,"E6H.wav",40
Sample,23366,0,"A6H.wav",40
Sample,23700,0,"B5H.wav",40
Sample,24033,0,"E6H.wav",40
Sample,24033,0,"A6H.wav",40
Sample,24366,0,"B5H.wav",40
Sample,24700,0,"E6H.wav",40
Sample,24700,0,"G#6H_Ab6H.wav",40
Sample,25033,0,"B5H.wav",40
Sample,25366,0,"E6H.wav",40
Sample,25366,0,"G#6H_Ab6H.wav",40
Sample,25700,0,"B5H.wav",40
Sample,26033,0,"E6H.wav",40
Sample,26033,0,"G#6H_Ab6H.wav",40
Sample,26366,0,"B5H.wav",40
Sample,26700,0,"E6H.wav",40
Sample,26700,0,"G#6H_Ab6H.wav",40
Sample,27033,0,"B5H.wav",40
Sample,27366,0,"E6H.wav",40
Sample,27366,0,"A6H.wav",40
Sample,27700,0,"B5H.wav",40
Sample,28033,0,"E6H.wav",40
Sample,28033,0,"A6H.wav",40
Sample,28366,0,"B5H.wav",40
Sample,28700,0,"E6H.wav",40
Sample,28700,0,"A6H.wav",40
Sample,29033,0,"B5H.wav",40
Sample,29366,0,"E6H.wav",40
Sample,29366,0,"A6H.wav",40
Sample,29700,0,"G#6H_Ab6H.wav",40
Sample,29811,0,"F#6H_Gb6H.wav",40
Sample,29922,0,"E6H.wav",40
Sample,30033,0,"G#6H_Ab6H.wav",40
Sample,30033,0,"B5H.wav",40
Sample,32033,0,"F#5H_Gb5H.wav",40
Sample,32033,0,"B4H.wav",40
Sample,32700,0,"E5H.wav",40
Sample,32700,0,"A4H.wav",40
Sample,33033,0,"E4H.wav",40
Sample,33700,0,"C#5H_Db5H.wav",40
Sample,34033,0,"B5H.wav",40
Sample,34033,0,"B4H.wav",40
Sample,34366,0,"F#4H_Gb4H.wav",40
Sample,34700,0,"B5H.wav",40
Sample,34700,0,"B4H.wav",40
Sample,35366,0,"G#4H_Ab4H.wav",40
Sample,35366,0,"B4H.wav",40
Sample,35700,0,"D#4H_Eb4H.wav",40
Sample,36366,0,"B4H.wav",40
Sample,36700,0,"C#5H_Db5H.wav",40
Sample,36700,0,"E5H.wav",40
Sample,37033,0,"G#4H_Ab4H.wav",40
Sample,38033,0,"E5H.wav",40
Sample,38033,0,"A4H.wav",40
Sample,38366,0,"E4H.wav",40
Sample,39033,0,"C#5H_Db5H.wav",40
Sample,39366,0,"B5H.wav",40
Sample,39366,0,"B4H.wav",40
Sample,39700,0,"F#4H_Gb4H.wav",40
Sample,40033,0,"B5H.wav",40
Sample,40033,0,"B4H.wav",40
Sample,40700,0,"G#4H_Ab4H.wav",40
Sample,40700,0,"B4H.wav",40
Sample,41366,0,"D#5H_Eb5H.wav",40
Sample,41366,0,"G#4H_Ab4H.wav",40
Sample,42033,0,"E5H.wav",40
Sample,42033,0,"G#4H_Ab4H.wav",40
Sample,42866,0,"D5H.wav",40
Sample,42866,0,"G#4H_Ab4H.wav",40
Sample,42866,0,"B4H.wav",40
Sample,43366,0,"E5H.wav",40
Sample,43366,0,"A4H.wav",40
Sample,43700,0,"E4H.wav",40
Sample,44366,0,"C#5H_Db5H.wav",40
Sample,44700,0,"F#5H_Gb5H.wav",40
Sample,44700,0,"B4H.wav",40
Sample,45033,0,"B4H.wav",40
Sample,46033,0,"G#4H_Ab4H.wav",40
Sample,46033,0,"B4H.wav",40
Sample,46366,0,"D#4H_Eb4H.wav",40
Sample,47033,0,"D#5H_Eb5H.wav",40
Sample,47366,0,"E5H.wav",40
Sample,47366,0,"G#5H_Ab5H.wav",40
Sample,47700,0,"B4H.wav",40
Sample,48700,0,"F#4H_Gb4H.wav",40
Sample,48700,0,"A4H.wav",40
Sample,49033,0,"C#4H_Db4H.wav",40
Sample,49700,0,"C#5H_Db5H.wav",40
Sample,50033,0,"F#4H_Gb4H.wav",40
Sample,50033,0,"B4H.wav",40
Sample,50700,0,"F#4H_Gb4H.wav",40
Sample,50700,0,"B4H.wav",40
Sample,51366,0,"A4H.wav",40
Sample,51366,0,"B4H.wav",40
Sample,51700,0,"B4H.wav",40
Sample,52366,0,"A5H.wav",40
Sample,52700,0,"G#5H_Ab5H.wav",40
Sample,52700,0,"B4H.wav",40
Sample,54033,0,"G#4H_Ab4H.wav",40
Sample,54033,0,"B4H.wav",40
Sample,54366,0,"E4H.wav",40
Sample,55033,0,"B5H.wav",40
Sample,55700,0,"A4H.wav",40
Sample,56366,0,"E5H.wav",40
Sample,56700,0,"F#5H_Gb5H.wav",40
Sample,56700,0,"B4H.wav",40
Sample,57033,0,"F#4H_Gb4H.wav",40
Sample,57700,0,"B5H.wav",40
Sample,58366,0,"B4H.wav",40
Sample,59033,0,"F#5H_Gb5H.wav",40
Sample,59366,0,"F#5H_Gb5H.wav",40
Sample,59366,0,"B4H.wav",40
Sample,60700,0,"D#5H_Eb5H.wav",40
Sample,60700,0,"G#5H_Ab5H.wav",40
Sample,62033,0,"C#5H_Db5H.wav",40
Sample,62033,0,"E5H.wav",40
Sample,62366,0,"G#4H_Ab4H.wav",40
Sample,63033,0,"D#5H_Eb5H.wav",40
Sample,64200,0,"D5H.wav",40
Sample,64200,0,"F#5H_Gb5H.wav",40
Sample,64200,0,"A4H.wav",40
Sample,64700,0,"E5H.wav",40
Sample,64700,0,"G#5H_Ab5H.wav",40
Sample,65033,0,"E4H.wav",40
Sample,65700,0,"C#5H_Db5H.wav",40
Sample,65700,0,"E5H.wav",40
Sample,65700,0,"G#5H_Ab5H.wav",40
Sample,66366,0,"A#3H_Bb3H.wav",40
Sample,66700,0,"E5H.wav",40
Sample,66700,0,"G#5H_Ab5H.wav",40
Sample,67033,0,"A#3H_Bb3H.wav",40
Sample,67366,0,"E5H.wav",40
Sample,67366,0,"G#5H_Ab5H.wav",40
Sample,67700,0,"E4H.wav",40
Sample,68366,0,"C#5H_Db5H.wav",40
Sample,68366,0,"E5H.wav",40
Sample,68366,0,"G#5H_Ab5H.wav",40
Sample,69033,0,"A#3H_Bb3H.wav",40
Sample,69366,0,"E5H.wav",40
Sample,69366,0,"G#5H_Ab5H.wav",40
Sample,69700,0,"A#3H_Bb3H.wav",40
Sample,70033,0,"B4H.wav",40
Sample,70366,0,"C#5H_Db5H.wav",40
Sample,70366,0,"C#4H_Db4H.wav",40
Sample,70700,0,"D#4H_Eb4H.wav",40
Sample,71033,0,"E5H.wav",40
Sample,71033,0,"E4H.wav",40
Sample,71366,0,"F#4H_Gb4H.wav",40
Sample,71366,0,"B3H.wav",40
Sample,71700,0,"D#5H_Eb5H.wav",40
Sample,71700,0,"D#4H_Eb4H.wav",40
Sample,72033,0,"E4H.wav",40
Sample,72366,0,"F#5H_Gb5H.wav",40
Sample,72366,0,"F#4H_Gb4H.wav",40
Sample,72700,0,"F#4H_Gb4H.wav",40
Sample,72700,0,"B4H.wav",40
Sample,74366,0,"F#5H_Gb5H.wav",40
Sample,74366,0,"B4H.wav",40
Sample,74533,0,"D#5H_Eb5H.wav",40
Sample,74533,0,"F#5H_Gb5H.wav",40
Sample,74533,0,"B4H.wav",40
Sample,75366,0,"G#5H_Ab5H.wav",40
Sample,75366,0,"B5H.wav",40
Sample,76033,0,"G#5H_Ab5H.wav",40
Sample,76033,0,"B5H.wav",40
Sample,76366,0,"E4H.wav",40
Sample,76700,0,"F#5H_Gb5H.wav",40
Sample,76700,0,"B5H.wav",40
Sample,77366,0,"F#5H_Gb5H.wav",40
Sample,77366,0,"B5H.wav",40
Sample,77700,0,"B3H.wav",40
Sample,78033,0,"F#5H_Gb5H.wav",40
Sample,78033,0,"B5H.wav",40
Sample,78700,0,"F#5H_Gb5H.wav",40
Sample,78700,0,"B5H.wav",40
Sample,79033,0,"G#3H_Ab3H.wav",40
Sample,79366,0,"E5H.wav",40
Sample,79366,0,"G#5H_Ab5H.wav",40
Sample,80033,0,"F#5H_Gb5H.wav",40
Sample,80033,0,"B4H.wav",40
Sample,80700,0,"E5H.wav",40
Sample,80700,0,"A4H.wav",40
Sample,81366,0,"E5H.wav",40
Sample,81366,0,"A4H.wav",40
Sample,81700,0,"A3H.wav",40
Sample,82033,0,"G#4H_Ab4H.wav",40
Sample,82033,0,"B4H.wav",40
Sample,82700,0,"G#4H_Ab4H.wav",40
Sample,82700,0,"B4H.wav",40
Sample,83033,0,"G#3H_Ab3H.wav",40
Sample,83366,0,"E5H.wav",40
Sample,83366,0,"A4H.wav",40
Sample,84033,0,"E5H.wav",40
Sample,84033,0,"A4H.wav",40
Sample,84366,0,"F#3H_Gb3H.wav",40
Sample,84700,0,"A4H.wav",40
Sample,84700,0,"B4H.wav",40
Sample,85366,0,"F#5H_Gb5H.wav",40
Sample,85366,0,"B4H.wav",40
Sample,85700,0,"B3H.wav",40
Sample,86033,0,"G#5H_Ab5H.wav",40
Sample,86033,0,"B5H.wav",40
Sample,86700,0,"G#5H_Ab5H.wav",40
Sample,86700,0,"B5H.wav",40
Sample,87033,0,"E4H.wav",40
Sample,87366,0,"F#5H_Gb5H.wav",40
Sample,87366,0,"B5H.wav",40
Sample,88033,0,"F#5H_Gb5H.wav",40
Sample,88033,0,"B5H.wav",40
Sample,88366,0,"B3H.wav",40
Sample,88700,0,"G#5H_Ab5H.wav",40
Sample,88700,0,"B5H.wav",40
Sample,89366,0,"D#5H_Eb5H.wav",40
Sample,89366,0,"G#5H_Ab5H.wav",40
Sample,90033,0,"G#5H_Ab5H.wav",40
Sample,90033,0,"B4H.wav",40
Sample,90700,0,"G#5H_Ab5H.wav",40
Sample,90700,0,"B4H.wav",40
Sample,91366,0,"E5H.wav",40
Sample,91366,0,"G#5H_Ab5H.wav",40
Sample,92033,0,"E5H.wav",40
Sample,92033,0,"G#5H_Ab5H.wav",40
Sample,92366,0,"A3H.wav",40
Sample,92700,0,"G#5H_Ab5H.wav",40
Sample,92700,0,"B4H.wav",40
Sample,93366,0,"G#5H_Ab5H.wav",40
Sample,93366,0,"B4H.wav",40
Sample,93700,0,"G#3H_Ab3H.wav",40
Sample,94033,0,"E5H.wav",40
Sample,94033,0,"A4H.wav",40
Sample,94700,0,"E5H.wav",40
Sample,94700,0,"A4H.wav",40
Sample,95033,0,"F#3H_Gb3H.wav",40
Sample,95366,0,"F#5H_Gb5H.wav",40
Sample,95366,0,"B4H.wav",40
Sample,95533,0,"E5H.wav",40
Sample,95533,0,"F#5H_Gb5H.wav",40
Sample,95533,0,"B4H.wav",40
Sample,96700,0,"E5H.wav",40
Sample,96700,0,"A5H.wav",40
Sample,97366,0,"E5H.wav",40
Sample,97366,0,"A5H.wav",40
Sample,97700,0,"B4H.wav",40
Sample,98033,0,"E5H.wav",40
Sample,98033,0,"A5H.wav",40
Sample,98700,0,"E5H.wav",40
Sample,98700,0,"A5H.wav",40
Sample,99033,0,"B4H.wav",40
Sample,99366,0,"E5H.wav",40
Sample,99366,0,"G#5H_Ab5H.wav",40
Sample,100033,0,"E5H.wav",40
Sample,100033,0,"G#5H_Ab5H.wav",40
Sample,100366,0,"B4H.wav",40
Sample,100700,0,"E5H.wav",40
Sample,100700,0,"G#5H_Ab5H.wav",40
Sample,101366,0,"E5H.wav",40
Sample,101366,0,"G#5H_Ab5H.wav",40
Sample,101700,0,"B4H.wav",40
Sample,102033,0,"E5H.wav",40
Sample,102033,0,"A4H.wav",40
Sample,102700,0,"E5H.wav",40
Sample,102700,0,"A4H.wav",40
Sample,103033,0,"B4H.wav",40
Sample,103366,0,"E5H.wav",40
Sample,103366,0,"A4H.wav",40
Sample,104033,0,"E5H.wav",40
Sample,104033,0,"A4H.wav",40
Sample,104366,0,"G#5H_Ab5H.wav",40
Sample,104477,0,"F#5H_Gb5H.wav",40
Sample,104588,0,"E5H.wav",40
Sample,104700,0,"G#5H_Ab5H.wav",40
Sample,104700,0,"B4H.wav",40

[TimingPoints]
700,666.666666666667,4,2,1,40,1,0
75366,-100.0,4,2,1,40,0,1
95533,-100.0,4,2,1,40,0,0

[HitObjects]
448,192,700,1,0,0:0:0:40:E5H.wav
192,192,2033,1,0,0:0:0:40:F#5H_Gb5H.wav
320,192,3366,1,0,0:0:0:40:D#6H_Eb6H.wav
21,192,4700,1,0,0:0:0:40:C#5H_Db5H.wav
192,192,5366,1,0,0:0:0:40:D#6H_Eb6H.wav
320,192,6033,1,0,0:0:0:40:C#6H_Db6H.wav
64,192,6700,1,0,0:0:0:40:A5H.wav
320,192,7366,1,0,0:0:0:40:E6H.wav
192,192,8033,1,0,0:0:0:40:G#5H_Ab5H.wav
64,192,8700,1,0,0:0:0:40:C#6H_Db6H.wav
448,192,9366,1,0,0:0:0:40:A5H.wav
192,192,10033,1,0,0:0:0:40:C#6H_Db6H.wav
320,192,10700,1,0,0:0:0:40:D#6H_Eb6H.wav
448,192,11366,1,0,0:0:0:40:E5H.wav
192,192,12033,1,0,0:0:0:40:B6H.wav
64,192,12700,1,0,0:0:0:40:D#6H_Eb6H.wav
320,192,13366,1,0,0:0:0:40:B5H.wav
64,192,14033,1,0,0:0:0:40:C6H.wav
192,192,14700,1,0,0:0:0:40:D#6H_Eb6H.wav
448,192,15366,1,0,0:0:0:40:C#5H_Db5H.wav
320,192,16033,1,0,0:0:0:40:D#6H_Eb6H.wav
192,192,16700,1,0,0:0:0:40:C#6H_Db6H.wav
320,192,17366,1,0,0:0:0:40:A5H.wav
64,192,18033,1,0,0:0:0:40:E6H.wav
448,192,18700,1,0,0:0:0:40:G#5H_Ab5H.wav
64,192,19366,1,0,0:0:0:40:C#6H_Db6H.wav
192,192,20033,1,0,0:0:0:40:A5H.wav
320,192,20700,1,0,0:0:0:40:C#6H_Db6H.wav
448,192,22033,1,0,0:0:0:40:E5H.wav
192,192,22700,1,0,0:0:0:40:E5H.wav
448,192,23366,1,0,0:0:0:40:E5H.wav
192,192,24033,1,0,0:0:0:40:E5H.wav
64,192,24700,1,0,0:0:0:40:E5H.wav
320,192,25366,1,0,0:0:0:40:E5H.wav
64,192,26033,1,0,0:0:0:40:E5H.wav
320,192,26700,1,0,0:0:0:40:E5H.wav
448,192,27366,1,0,0:0:0:40:E5H.wav
192,192,28033,1,0,0:0:0:40:E5H.wav
448,192,28700,1,0,0:0:0:40:E5H.wav
192,192,29366,1,0,0:0:0:40:E5H.wav
320,192,30033,1,0,0:0:0:40:E6H.wav
320,192,32033,1,0,0:0:0:40:D5H.wav
64,192,32700,1,0,0:0:0:40:C#5H_Db5H.wav
448,192,33366,1,0,0:0:0:40:A4H.wav
320,192,34033,1,0,0:0:0:40:E5H.wav
192,192,34700,1,0,0:0:0:40:D#5H_Eb5H.wav
64,192,35366,1,0,0:0:0:40:D#5H_Eb5H.wav
320,192,36033,1,0,0:0:0:40:F#4H_Gb4H.wav
64,192,36700,1,0,0:0:0:40:C#4H_Db4H.wav
448,192,37366,1,0,0:0:0:40:C#5H_Db5H.wav
192,192,38033,1,0,0:0:0:40:C#5H_Db5H.wav
320,192,38700,1,0,0:0:0:40:A4H.wav
64,192,39366,1,0,0:0:0:40:E5H.wav
448,192,40033,1,0,0:0:0:40:D#5H_Eb5H.wav
64,192,40700,1,0,0:0:0:40:D#5H_Eb5H.wav
192,192,41366,1,0,0:0:0:40:C5H.wav
320,192,42033,1,0,0:0:0:40:C#5H_Db5H.wav
405,192,43366,1,0,0:0:0:40:C#5H_Db5H.wav
192,192,44033,1,0,0:0:0:40:A4H.wav
64,192,44700,1,0,0:0:0:40:D#5H_Eb5H.wav
320,192,45366,1,0,0:0:0:40:D#5H_Eb5H.wav
64,192,46033,1,0,0:0:0:40:D#5H_Eb5H.wav
320,192,46700,1,0,0:0:0:40:B4H.wav
448,192,47366,1,0,0:0:0:40:C#4H_Db4H.wav
192,192,48033,1,0,0:0:0:40:E5H.wav
64,192,48700,1,0,0:0:0:40:C#5H_Db5H.wav
320,192,49366,1,0,0:0:0:40:A4H.wav
64,192,50033,1,0,0:0:0:40:E5H.wav
192,192,50700,1,0,0:0:0:40:D#5H_Eb5H.wav
320,192,51366,1,0,0:0:0:40:E5H.wav
192,192,52033,1,0,0:0:0:40:E5H.wav
448,192,52700,1,0,0:0:0:40:E5H.wav
448,192,54033,1,0,0:0:0:40:E5H.wav
192,192,54700,1,0,0:0:0:40:B4H.wav
192,192,56033,1,0,0:0:0:40:C#5H_Db5H.wav
320,192,56700,1,0,0:0:0:40:D#5H_Eb5H.wav
64,192,57366,1,0,0:0:0:40:B4H.wav
192,192,58700,1,0,0:0:0:40:D#5H_Eb5H.wav
490,192,59366,1,0,0:0:0:40:D#5H_Eb5H.wav
192,192,60033,1,0,0:0:0:40:A4H.wav
320,192,60700,1,0,0:0:0:40:C5H.wav
448,192,61366,1,0,0:0:0:40:D#5H_Eb5H.wav
64,192,62033,1,0,0:0:0:40:C#4H_Db4H.wav
192,192,62700,1,0,0:0:0:40:C#5H_Db5H.wav
320,192,63366,1,0,0:0:0:40:E5H.wav
362,192,64700,1,0,0:0:0:40:C#5H_Db5H.wav
192,192,65366,1,0,0:0:0:40:A#4H_Bb4H.wav
64,192,66700,1,0,0:0:0:40:C#5H_Db5H.wav
448,192,67366,1,0,0:0:0:40:C#5H_Db5H.wav
320,192,68033,1,0,0:0:0:40:B4H.wav
192,192,69366,1,0,0:0:0:40:C#5H_Db5H.wav
448,192,70033,1,0,0:0:0:40:B3H.wav
320,192,70700,1,0,0:0:0:40:D#5H_Eb5H.wav
192,192,71366,1,0,0:0:0:40:F#5H_Gb5H.wav
320,192,72033,1,0,0:0:0:40:E5H.wav
448,192,72700,1,0,0:0:0:40:D#5H_Eb5H.wav
192,192,74366,1,0,0:0:0:40:D#5H_Eb5H.wav
192,192,75366,1,0,0:0:0:40:E5H.wav
192,192,76033,1,0,0:0:0:40:E5H.wav
320,192,76700,1,0,0:0:0:40:D#5H_Eb5H.wav
320,192,77366,1,0,0:0:0:40:D#5H_Eb5H.wav
64,192,78033,1,0,0:0:0:40:D#5H_Eb5H.wav
64,192,78700,1,0,0:0:0:40:D#5H_Eb5H.wav
448,192,79366,1,0,0:0:0:40:C#4H_Db4H.wav
320,192,80033,1,0,0:0:0:40:D#5H_Eb5H.wav
192,192,80700,1,0,0:0:0:40:C#5H_Db5H.wav
192,192,81366,1,0,0:0:0:40:C#5H_Db5H.wav
448,192,82033,1,0,0:0:0:40:E5H.wav
448,192,82700,1,0,0:0:0:40:E5H.wav
64,192,83366,1,0,0:0:0:40:C#5H_Db5H.wav
64,192,84033,1,0,0:0:0:40:C#5H_Db5H.wav
490,192,84700,1,0,0:0:0:40:E5H.wav
277,192,85366,1,0,0:0:0:40:D#5H_Eb5H.wav
192,192,86033,1,0,0:0:0:40:E5H.wav
192,192,86700,1,0,0:0:0:40:E5H.wav
64,192,87366,1,0,0:0:0:40:D#5H_Eb5H.wav
64,192,88033,1,0,0:0:0:40:D#5H_Eb5H.wav
448,192,88700,1,0,0:0:0:40:D#5H_Eb5H.wav
192,192,89366,1,0,0:0:0:40:C4H.wav
320,192,90033,1,0,0:0:0:40:E5H.wav
320,192,90700,1,0,0:0:0:40:E5H.wav
192,192,91366,1,0,0:0:0:40:C#5H_Db5H.wav
192,192,92033,1,0,0:0:0:40:C#5H_Db5H.wav
448,192,92700,1,0,0:0:0:40:E5H.wav
448,192,93366,1,0,0:0:0:40:E5H.wav
64,192,94033,1,0,0:0:0:40:C#5H_Db5H.wav
64,192,94700,1,0,0:0:0:40:C#5H_Db5H.wav
277,192,95366,1,0,0:0:0:40:E5H.wav
405,192,96700,1,0,0:0:0:40:E4H.wav
320,192,97366,1,0,0:0:0:40:E4H.wav
192,192,98033,1,0,0:0:0:40:E4H.wav
64,192,98700,1,0,0:0:0:40:E4H.wav
448,192,99366,1,0,0:0:0:40:E4H.wav
192,192,100033,1,0,0:0:0:40:E4H.wav
320,192,100700,1,0,0:0:0:40:E4H.wav
64,192,101366,1,0,0:0:0:40:E4H.wav
448,192,102033,1,0,0:0:0:40:E4H.wav
320,192,102700,1,0,0:0:0:40:E4H.wav
64,192,103366,1,0,0:0:0:40:E4H.wav
192,192,104033,1,0,0:0:0:40:E4H.wav
320,192,104700,1,0,0:0:0:40:E5H.wav
