osu file format v14

[General]
AudioFilename: audio.mp3
AudioLeadIn: 0
PreviewTime: 74700
Countdown: 0
SampleSet: Soft
StackLeniency: 0.7
Mode: 3
LetterboxInBreaks: 0
SpecialStyle: 0
WidescreenStoryboard: 1

[Editor]
DistanceSpacing: 0.9
BeatDivisor: 6
GridSize: 8
TimelineZoom: 1.1

[Metadata]
Title:Aishiteru Banzai! (Prepro Piano Mix)
TitleUnicode:愛してるばんざーい!(Prepro Piano Mix)
Artist:Nishikino Maki (CV: Pile)
ArtistUnicode:西木野真姫 (CV: Pile)
Creator:Flade
Version:6K Hard
Source:ラブライブ! School idol project
Tags:instrumental classical japanese anime 畑 亜貴 aki hata 山田高弘 takahiro yamada 酒井陽一 yoichi sakai μ's festival piano solo valentine love live! notes of school idol days mirsaaa
BeatmapID:3441108
BeatmapSetID:1684128

[Difficulty]
HPDrainRate:8
CircleSize:6
OverallDifficulty:8
ApproachRate:5
SliderMultiplier:1.4
SliderTickRate:1

[Events]
//Background and Video events
0,0,"bg.jpg",0,0
//Break Periods
//Storyboard Layer 0 (Background)
//Storyboard Layer 1 (Fail)
//Storyboard Layer 2 (Pass)
//Storyboard Layer 3 (Foreground)
//Storyboard Layer 4 (Overlay)
//Storyboard Sound Samples
Sample,70366,0,"C#4H_Db4H.wav",40
Sample,71033,0,"E4H.wav",40
Sample,71700,0,"D#4H_Eb4H.wav",40
Sample,72033,0,"E4H.wav",40
Sample,72366,0,"F#4H_Gb4H.wav",40

[TimingPoints]
700,666.666666666667,4,2,1,40,1,0
75366,-100,4,2,1,40,0,1
95533,-100,4,2,1,40,0,0

[HitObjects]
128,192,700,5,0,0:0:0:40:E5H.wav
298,192,700,1,0,0:0:0:40:G#5H_Ab5H.wav
469,192,700,128,0,1866:0:0:0:40:B5H.wav
42,192,2033,1,0,0:0:0:40:F#5H_Gb5H.wav
213,192,2033,128,0,3200:0:0:0:40:B5H.wav
384,192,2033,1,0,0:0:0:40:B4H.wav
128,192,3366,128,0,3700:0:0:0:40:D#6H_Eb6H.wav
384,192,3366,1,0,0:0:0:40:G#4H_Ab4H.wav
469,192,3366,1,0,0:0:0:40:B5H.wav
298,192,3700,128,0,4033:0:0:0:40:D#5H_Eb5H.wav
384,192,4033,128,0,4366:0:0:0:40:G#5H_Ab5H.wav
213,192,4366,128,0,4700:0:0:0:40:B5H.wav
42,192,4700,1,0,0:0:0:40:C#5H_Db5H.wav
298,192,4700,1,0,0:0:0:40:C#6H_Db6H.wav
469,192,4700,128,0,5033:0:0:0:40:E6H.wav
128,192,5033,128,0,5366:0:0:0:40:G#5H_Ab5H.wav
213,192,5366,1,0,0:0:0:40:D#6H_Eb6H.wav
298,192,5366,128,0,5866:0:0:0:40:G#5H_Ab5H.wav
384,192,5366,1,0,0:0:0:40:B5H.wav
42,192,6033,1,0,0:0:0:40:C#6H_Db6H.wav
213,192,6033,1,0,0:0:0:40:E6H.wav
469,192,6033,128,0,6366:0:0:0:40:A4H.wav
128,192,6366,128,0,6700:0:0:0:40:E5H.wav
384,192,6700,128,0,7200:0:0:0:40:A5H.wav
42,192,7366,128,0,7700:0:0:0:40:E6H.wav
213,192,7366,1,0,0:0:0:40:G#4H_Ab4H.wav
469,192,7366,1,0,0:0:0:40:B5H.wav
128,192,7700,128,0,8033:0:0:0:40:E5H.wav
298,192,8033,128,0,8533:0:0:0:40:G#5H_Ab5H.wav
128,192,8700,1,0,0:0:0:40:C#6H_Db6H.wav
384,192,8700,1,0,0:0:0:40:E6H.wav
469,192,8700,128,0,9033:0:0:0:40:F#4H_Gb4H.wav
42,192,9033,128,0,9366:0:0:0:40:C#5H_Db5H.wav
384,192,9366,128,0,9866:0:0:0:40:A5H.wav
42,192,10033,128,0,10533:0:0:0:40:C#6H_Db6H.wav
213,192,10033,1,0,0:0:0:40:E6H.wav
298,192,10033,1,0,0:0:0:40:A5H.wav
213,192,10700,1,0,0:0:0:40:D#6H_Eb6H.wav
298,192,10700,128,0,11200:0:0:0:40:F#6H_Gb6H.wav
384,192,10700,1,0,0:0:0:40:B5H.wav
128,192,11366,1,0,0:0:0:40:E5H.wav
384,192,11366,1,0,0:0:0:40:E6H.wav
469,192,11366,128,0,11700:0:0:0:40:G#6H_Ab6H.wav
213,192,11700,128,0,12033:0:0:0:40:B5H.wav
42,192,12033,128,0,12366:0:0:0:40:B6H.wav
298,192,12366,128,0,12700:0:0:0:40:B5H.wav
128,192,12700,1,0,0:0:0:40:D#6H_Eb6H.wav
213,192,12700,1,0,0:0:0:40:F#5H_Gb5H.wav
469,192,12700,128,0,13033:0:0:0:40:B4H.wav
42,192,13033,128,0,13366:0:0:0:40:F#5H_Gb5H.wav
213,192,13366,128,0,13700:0:0:0:40:B5H.wav
469,192,13700,128,0,14033:0:0:0:40:F#6H_Gb6H.wav
42,192,14033,1,0,0:0:0:40:C6H.wav
298,192,14033,128,0,14366:0:0:0:40:D#6H_Eb6H.wav
384,192,14033,1,0,0:0:0:40:G#4H_Ab4H.wav
128,192,14366,128,0,14700:0:0:0:40:G#5H_Ab5H.wav
384,192,14700,1,0,0:0:0:40:D#6H_Eb6H.wav
469,192,14700,128,0,15033:0:0:0:40:F#6H_Gb6H.wav
213,192,15033,128,0,15366:0:0:0:40:G#5H_Ab5H.wav
42,192,15366,1,0,0:0:0:40:C#5H_Db5H.wav
298,192,15366,128,0,15700:0:0:0:40:C#6H_Db6H.wav
384,192,15366,1,0,0:0:0:40:E6H.wav
469,192,15700,128,0,16033:0:0:0:40:G#5H_Ab5H.wav
42,192,16033,1,0,0:0:0:40:D#6H_Eb6H.wav
128,192,16033,128,0,16533:0:0:0:40:F#5H_Gb5H.wav
298,192,16033,1,0,0:0:0:40:B5H.wav
213,192,16700,1,0,0:0:0:40:C#6H_Db6H.wav
384,192,16700,128,0,17033:0:0:0:40:E6H.wav
469,192,16700,1,0,0:0:0:40:A5H.wav
42,192,17033,128,0,17366:0:0:0:40:E5H.wav
213,192,17366,128,0,17700:0:0:0:40:A5H.wav
298,192,17700,128,0,18033:0:0:0:40:E6H.wav
42,192,18033,1,0,0:0:0:40:E6H.wav
213,192,18033,1,0,0:0:0:40:G#5H_Ab5H.wav
469,192,18033,128,0,18366:0:0:0:40:B5H.wav
128,192,18366,128,0,18700:0:0:0:40:E5H.wav
384,192,18700,128,0,19033:0:0:0:40:G#5H_Ab5H.wav
469,192,19033,128,0,19366:0:0:0:40:E6H.wav
42,192,19366,1,0,0:0:0:40:C#6H_Db6H.wav
213,192,19366,128,0,19700:0:0:0:40:E6H.wav
298,192,19366,1,0,0:0:0:40:A5H.wav
128,192,19700,128,0,20033:0:0:0:40:C#5H_Db5H.wav
298,192,20033,128,0,20366:0:0:0:40:A5H.wav
469,192,20366,128,0,20700:0:0:0:40:C#6H_Db6H.wav
42,192,20700,1,0,0:0:0:40:C#6H_Db6H.wav
213,192,20700,1,0,0:0:0:40:E5H.wav
384,192,20700,1,0,0:0:0:40:A5H.wav
42,192,20866,1,0,0:0:0:40:C#6H_Db6H.wav
213,192,20866,1,0,0:0:0:40:E5H.wav
384,192,20866,1,0,0:0:0:40:A5H.wav
42,192,22033,1,0,0:0:0:40:E5H.wav
298,192,22033,1,0,0:0:0:40:E6H.wav
384,192,22033,128,0,22366:0:0:0:40:A5H.wav
469,192,22033,1,0,0:0:0:40:A6H.wav
213,192,22366,128,0,22700:0:0:0:40:B5H.wav
128,192,22700,1,0,0:0:0:40:E5H.wav
298,192,22700,1,0,0:0:0:40:E6H.wav
384,192,22700,128,0,23033:0:0:0:40:A6H.wav
213,192,23033,128,0,23366:0:0:0:40:B5H.wav
128,192,23366,1,0,0:0:0:40:E5H.wav
298,192,23366,1,0,0:0:0:40:E6H.wav
384,192,23366,128,0,23700:0:0:0:40:A6H.wav
213,192,23700,128,0,24033:0:0:0:40:B5H.wav
128,192,24033,1,0,0:0:0:40:E5H.wav
298,192,24033,1,0,0:0:0:40:E6H.wav
384,192,24033,128,0,24366:0:0:0:40:A6H.wav
213,192,24366,128,0,24700:0:0:0:40:B5H.wav
42,192,24700,1,0,0:0:0:40:E5H.wav
298,192,24700,128,0,25033:0:0:0:40:E6H.wav
384,192,24700,1,0,0:0:0:40:G#6H_Ab6H.wav
469,192,24700,1,0,0:0:0:0:
128,192,25033,128,0,25366:0:0:0:40:B5H.wav
42,192,25366,1,0,0:0:0:40:E5H.wav
298,192,25366,128,0,25700:0:0:0:40:E6H.wav
469,192,25366,1,0,0:0:0:40:G#6H_Ab6H.wav
128,192,25700,128,0,26033:0:0:0:40:B5H.wav
42,192,26033,1,0,0:0:0:40:E5H.wav
298,192,26033,128,0,26366:0:0:0:40:E6H.wav
469,192,26033,1,0,0:0:0:40:G#6H_Ab6H.wav
128,192,26366,128,0,26700:0:0:0:40:B5H.wav
42,192,26700,1,0,0:0:0:40:E5H.wav
298,192,26700,128,0,27033:0:0:0:40:E6H.wav
469,192,26700,1,0,0:0:0:40:G#6H_Ab6H.wav
128,192,27033,128,0,27366:0:0:0:40:B5H.wav
42,192,27366,1,0,0:0:0:40:E5H.wav
298,192,27366,1,0,0:0:0:40:E6H.wav
384,192,27366,128,0,27700:0:0:0:40:A6H.wav
469,192,27366,1,0,0:0:0:0:
213,192,27700,128,0,28033:0:0:0:40:B5H.wav
128,192,28033,1,0,0:0:0:40:E5H.wav
298,192,28033,1,0,0:0:0:40:E6H.wav
384,192,28033,128,0,28366:0:0:0:40:A6H.wav
213,192,28366,128,0,28700:0:0:0:40:B5H.wav
128,192,28700,1,0,0:0:0:40:E5H.wav
298,192,28700,1,0,0:0:0:40:E6H.wav
384,192,28700,128,0,29033:0:0:0:40:A6H.wav
213,192,29033,128,0,29366:0:0:0:40:B5H.wav
128,192,29366,1,0,0:0:0:40:E5H.wav
298,192,29366,1,0,0:0:0:40:E6H.wav
384,192,29366,128,0,29700:0:0:0:40:A6H.wav
213,192,29700,1,0,0:0:0:40:G#6H_Ab6H.wav
128,192,29811,1,0,0:0:0:40:F#6H_Gb6H.wav
42,192,29922,1,0,0:0:0:40:E6H.wav
213,192,30033,128,0,30700:0:0:0:40:E6H.wav
298,192,30033,128,0,31366:0:0:0:40:G#6H_Ab6H.wav
469,192,30033,128,0,32033:0:0:0:40:B5H.wav
42,192,32033,1,0,0:0:0:40:D5H.wav
213,192,32033,128,0,32533:0:0:0:40:F#5H_Gb5H.wav
384,192,32033,1,0,0:0:0:40:B4H.wav
128,192,32700,1,0,0:0:0:40:C#5H_Db5H.wav
298,192,32700,1,0,0:0:0:40:E5H.wav
469,192,32700,128,0,33033:0:0:0:40:A4H.wav
42,192,33033,128,0,33366:0:0:0:40:E4H.wav
128,192,33366,128,0,33700:0:0:0:40:A4H.wav
298,192,33700,128,0,34033:0:0:0:40:C#5H_Db5H.wav
42,192,34033,1,0,0:0:0:40:E5H.wav
213,192,34033,1,0,0:0:0:40:B5H.wav
469,192,34033,128,0,34366:0:0:0:40:B4H.wav
128,192,34366,128,0,34700:0:0:0:40:F#4H_Gb4H.wav
42,192,34700,1,0,0:0:0:40:D#5H_Eb5H.wav
298,192,34700,1,0,0:0:0:40:B5H.wav
384,192,34700,128,0,35200:0:0:0:40:B4H.wav
42,192,35366,128,0,35700:0:0:0:40:D#5H_Eb5H.wav
128,192,35366,1,0,0:0:0:40:G#4H_Ab4H.wav
298,192,35366,1,0,0:0:0:40:B4H.wav
469,192,35700,128,0,36033:0:0:0:40:D#4H_Eb4H.wav
298,192,36033,128,0,36366:0:0:0:40:F#4H_Gb4H.wav
42,192,36366,128,0,36700:0:0:0:40:B4H.wav
213,192,36700,128,0,37033:0:0:0:40:C#4H_Db4H.wav
384,192,36700,1,0,0:0:0:40:C#5H_Db5H.wav
469,192,36700,1,0,0:0:0:40:E5H.wav
128,192,37033,128,0,37366:0:0:0:40:G#4H_Ab4H.wav
384,192,37366,128,0,37866:0:0:0:40:C#5H_Db5H.wav
42,192,38033,128,0,38366:0:0:0:40:C#5H_Db5H.wav
298,192,38033,1,0,0:0:0:40:E5H.wav
469,192,38033,1,0,0:0:0:40:A4H.wav
213,192,38366,128,0,38700:0:0:0:40:E4H.wav
384,192,38700,128,0,39033:0:0:0:40:A4H.wav
469,192,39033,128,0,39366:0:0:0:40:C#5H_Db5H.wav
128,192,39366,128,0,39700:0:0:0:40:E5H.wav
213,192,39366,1,0,0:0:0:40:B5H.wav
298,192,39366,1,0,0:0:0:40:B4H.wav
384,192,39700,128,0,40033:0:0:0:40:F#4H_Gb4H.wav
42,192,40033,128,0,40533:0:0:0:40:D#5H_Eb5H.wav
213,192,40033,1,0,0:0:0:40:B5H.wav
469,192,40033,1,0,0:0:0:40:B4H.wav
42,192,40700,128,0,41200:0:0:0:40:D#5H_Eb5H.wav
298,192,40700,128,0,41200:0:0:0:40:G#4H_Ab4H.wav
469,192,40700,128,0,41200:0:0:0:40:B4H.wav
128,192,41366,128,0,41866:0:0:0:40:C5H.wav
298,192,41366,128,0,41866:0:0:0:40:D#5H_Eb5H.wav
384,192,41366,128,0,41866:0:0:0:40:G#4H_Ab4H.wav
213,192,42033,128,0,42700:0:0:0:40:C#5H_Db5H.wav
298,192,42033,128,0,42700:0:0:0:40:E5H.wav
469,192,42033,128,0,42700:0:0:0:40:G#4H_Ab4H.wav
128,192,42866,128,0,43200:0:0:0:40:D5H.wav
213,192,42866,128,0,43200:0:0:0:40:G#4H_Ab4H.wav
384,192,42866,128,0,43200:0:0:0:40:B4H.wav
42,192,43366,1,0,0:0:0:40:C#5H_Db5H.wav
298,192,43366,128,0,43700:0:0:0:40:E5H.wav
469,192,43366,1,0,0:0:0:40:A4H.wav
128,192,43700,128,0,44033:0:0:0:40:E4H.wav
213,192,44033,128,0,44366:0:0:0:40:A4H.wav
384,192,44366,128,0,44700:0:0:0:40:C#5H_Db5H.wav
42,192,44700,1,0,0:0:0:40:D#5H_Eb5H.wav
298,192,44700,1,0,0:0:0:40:F#5H_Gb5H.wav
469,192,44700,128,0,45033:0:0:0:40:B4H.wav
128,192,45033,128,0,45366:0:0:0:40:B4H.wav
298,192,45366,128,0,45866:0:0:0:40:D#5H_Eb5H.wav
42,192,46033,1,0,0:0:0:40:D#5H_Eb5H.wav
213,192,46033,128,0,46366:0:0:0:40:G#4H_Ab4H.wav
384,192,46033,1,0,0:0:0:40:B4H.wav
128,192,46366,128,0,46700:0:0:0:40:D#4H_Eb4H.wav
469,192,46700,128,0,47033:0:0:0:40:B4H.wav
298,192,47033,128,0,47366:0:0:0:40:D#5H_Eb5H.wav
42,192,47366,1,0,0:0:0:40:C#4H_Db4H.wav
213,192,47366,1,0,0:0:0:40:E5H.wav
384,192,47366,128,0,47700:0:0:0:40:G#5H_Ab5H.wav
128,192,47700,128,0,48033:0:0:0:40:B4H.wav
469,192,48033,128,0,48533:0:0:0:40:E5H.wav
42,192,48700,128,0,49033:0:0:0:40:C#5H_Db5H.wav
213,192,48700,1,0,0:0:0:40:F#4H_Gb4H.wav
298,192,48700,1,0,0:0:0:40:A4H.wav
128,192,49033,128,0,49366:0:0:0:40:C#4H_Db4H.wav
384,192,49366,128,0,49700:0:0:0:40:A4H.wav
298,192,49700,128,0,50033:0:0:0:40:C#5H_Db5H.wav
42,192,50033,1,0,0:0:0:40:E5H.wav
213,192,50033,128,0,50533:0:0:0:40:F#4H_Gb4H.wav
469,192,50033,1,0,0:0:0:40:B4H.wav
128,192,50700,1,0,0:0:0:40:D#5H_Eb5H.wav
298,192,50700,128,0,51200:0:0:0:40:F#4H_Gb4H.wav
469,192,50700,1,0,0:0:0:40:B4H.wav
213,192,51366,1,0,0:0:0:40:E5H.wav
384,192,51366,1,0,0:0:0:40:A4H.wav
469,192,51366,128,0,51700:0:0:0:40:B4H.wav
42,192,51700,128,0,52033:0:0:0:40:B4H.wav
213,192,52033,128,0,52366:0:0:0:40:E5H.wav
384,192,52366,128,0,52700:0:0:0:40:A5H.wav
128,192,52700,1,0,0:0:0:40:E5H.wav
298,192,52700,128,0,53866:0:0:0:40:G#5H_Ab5H.wav
469,192,52700,1,0,0:0:0:40:B4H.wav
128,192,54033,1,0,0:0:0:40:E5H.wav
213,192,54033,128,0,54366:0:0:0:40:G#4H_Ab4H.wav
469,192,54033,1,0,0:0:0:40:B4H.wav
42,192,54366,128,0,54700:0:0:0:40:E4H.wav
298,192,54700,128,0,55033:0:0:0:40:B4H.wav
469,192,55033,128,0,55533:0:0:0:40:B5H.wav
128,192,55700,128,0,56033:0:0:0:40:A4H.wav
298,192,56033,128,0,56366:0:0:0:40:C#5H_Db5H.wav
384,192,56366,128,0,56700:0:0:0:40:E5H.wav
128,192,56700,1,0,0:0:0:40:D#5H_Eb5H.wav
213,192,56700,1,0,0:0:0:40:F#5H_Gb5H.wav
469,192,56700,128,0,57033:0:0:0:40:B4H.wav
42,192,57033,128,0,57366:0:0:0:40:F#4H_Gb4H.wav
298,192,57366,128,0,57700:0:0:0:40:B4H.wav
469,192,57700,128,0,58200:0:0:0:40:B5H.wav
298,192,58366,128,0,58700:0:0:0:40:B4H.wav
213,192,58700,128,0,59033:0:0:0:40:D#5H_Eb5H.wav
42,192,59033,128,0,59366:0:0:0:40:F#5H_Gb5H.wav
128,192,59366,1,0,0:0:0:40:D#5H_Eb5H.wav
384,192,59366,128,0,59866:0:0:0:40:F#5H_Gb5H.wav
469,192,59366,1,0,0:0:0:40:B4H.wav
298,192,60033,128,0,60533:0:0:0:40:A4H.wav
128,192,60700,128,0,61200:0:0:0:40:C5H.wav
213,192,60700,1,0,0:0:0:40:D#5H_Eb5H.wav
469,192,60700,1,0,0:0:0:40:G#5H_Ab5H.wav
469,192,61366,128,0,61866:0:0:0:40:D#5H_Eb5H.wav
42,192,62033,128,0,62366:0:0:0:40:C#4H_Db4H.wav
128,192,62033,1,0,0:0:0:40:C#5H_Db5H.wav
384,192,62033,1,0,0:0:0:40:E5H.wav
213,192,62366,128,0,62700:0:0:0:40:G#4H_Ab4H.wav
298,192,62700,128,0,63033:0:0:0:40:C#5H_Db5H.wav
384,192,63033,128,0,63366:0:0:0:40:D#5H_Eb5H.wav
469,192,63366,128,0,64033:0:0:0:40:E5H.wav
42,192,64200,128,0,64533:0:0:0:40:D5H.wav
213,192,64200,1,0,0:0:0:40:F#5H_Gb5H.wav
298,192,64200,1,0,0:0:0:40:A4H.wav
128,192,64700,1,0,0:0:0:40:C#5H_Db5H.wav
384,192,64700,128,0,65033:0:0:0:40:E5H.wav
469,192,64700,1,0,0:0:0:40:G#5H_Ab5H.wav
213,192,65033,128,0,65366:0:0:0:40:E4H.wav
298,192,65366,128,0,65700:0:0:0:40:A#4H_Bb4H.wav
42,192,65700,1,0,0:0:0:40:C#5H_Db5H.wav
128,192,65700,128,0,66200:0:0:0:40:E5H.wav
469,192,65700,1,0,0:0:0:40:G#5H_Ab5H.wav
384,192,66366,128,0,66700:0:0:0:40:A#3H_Bb3H.wav
42,192,66700,1,0,0:0:0:40:C#5H_Db5H.wav
213,192,66700,128,0,67033:0:0:0:40:E5H.wav
298,192,66700,1,0,0:0:0:40:G#5H_Ab5H.wav
469,192,67033,128,0,67366:0:0:0:40:A#3H_Bb3H.wav
128,192,67366,1,0,0:0:0:40:C#5H_Db5H.wav
298,192,67366,128,0,67700:0:0:0:40:E5H.wav
384,192,67366,1,0,0:0:0:40:G#5H_Ab5H.wav
213,192,67700,128,0,68033:0:0:0:40:E4H.wav
384,192,68033,128,0,68366:0:0:0:40:B4H.wav
42,192,68366,128,0,68866:0:0:0:40:C#5H_Db5H.wav
128,192,68366,1,0,0:0:0:40:E5H.wav
469,192,68366,1,0,0:0:0:40:G#5H_Ab5H.wav
298,192,69033,128,0,69366:0:0:0:40:A#3H_Bb3H.wav
128,192,69366,1,0,0:0:0:40:C#5H_Db5H.wav
213,192,69366,1,0,0:0:0:40:E5H.wav
469,192,69366,128,0,69700:0:0:0:40:G#5H_Ab5H.wav
42,192,69700,128,0,70033:0:0:0:40:A#3H_Bb3H.wav
213,192,70033,128,0,70366:0:0:0:40:B3H.wav
298,192,70033,1,0,0:0:0:40:B4H.wav
384,192,70033,1,0,0:0:0:0:
469,192,70366,128,0,70700:0:0:0:40:C#5H_Db5H.wav
42,192,70700,1,0,0:0:0:40:D#5H_Eb5H.wav
128,192,70700,1,0,0:0:0:40:D#4H_Eb4H.wav
298,192,70700,128,0,71033:0:0:0:0:
213,192,71033,128,0,71366:0:0:0:40:E5H.wav
128,192,71366,1,0,0:0:0:40:F#5H_Gb5H.wav
384,192,71366,128,0,71700:0:0:0:40:F#4H_Gb4H.wav
469,192,71366,1,0,0:0:0:40:B3H.wav
42,192,71700,128,0,72033:0:0:0:40:D#5H_Eb5H.wav
298,192,72033,128,0,72366:0:0:0:40:E5H.wav
469,192,72366,128,0,72700:0:0:0:40:F#5H_Gb5H.wav
128,192,72700,128,0,74200:0:0:0:40:D#5H_Eb5H.wav
213,192,72700,1,0,0:0:0:40:F#4H_Gb4H.wav
384,192,72700,1,0,0:0:0:40:B4H.wav
42,192,74366,1,0,0:0:0:40:D#5H_Eb5H.wav
298,192,74366,1,0,0:0:0:40:F#5H_Gb5H.wav
469,192,74366,1,0,0:0:0:40:B4H.wav
42,192,74533,1,0,0:0:0:40:D#5H_Eb5H.wav
298,192,74533,1,0,0:0:0:40:F#5H_Gb5H.wav
469,192,74533,1,0,0:0:0:40:B4H.wav
128,192,75366,1,0,0:0:0:40:E5H.wav
213,192,75366,1,0,0:0:0:40:G#5H_Ab5H.wav
384,192,75366,128,0,75866:0:0:0:40:B5H.wav
128,192,76033,1,0,0:0:0:40:E5H.wav
213,192,76033,1,0,0:0:0:40:G#5H_Ab5H.wav
384,192,76033,128,0,76533:0:0:0:40:B5H.wav
298,192,76366,1,0,0:0:0:40:E4H.wav
42,192,76700,128,0,77200:0:0:0:40:D#5H_Eb5H.wav
213,192,76700,1,0,0:0:0:40:F#5H_Gb5H.wav
469,192,76700,1,0,0:0:0:40:B5H.wav
42,192,77366,128,0,77866:0:0:0:40:D#5H_Eb5H.wav
213,192,77366,1,0,0:0:0:40:F#5H_Gb5H.wav
469,192,77366,1,0,0:0:0:40:B5H.wav
384,192,77700,1,0,0:0:0:40:B3H.wav
128,192,78033,1,0,0:0:0:40:D#5H_Eb5H.wav
213,192,78033,1,0,0:0:0:40:F#5H_Gb5H.wav
298,192,78033,128,0,78533:0:0:0:40:B5H.wav
128,192,78700,1,0,0:0:0:40:D#5H_Eb5H.wav
213,192,78700,1,0,0:0:0:40:F#5H_Gb5H.wav
298,192,78700,128,0,79200:0:0:0:40:B5H.wav
42,192,79033,1,0,0:0:0:40:G#3H_Ab3H.wav
213,192,79366,128,0,79866:0:0:0:40:C#4H_Db4H.wav
384,192,79366,1,0,0:0:0:40:E5H.wav
469,192,79366,1,0,0:0:0:40:G#5H_Ab5H.wav
42,192,80033,1,0,0:0:0:40:D#5H_Eb5H.wav
298,192,80033,1,0,0:0:0:40:F#5H_Gb5H.wav
469,192,80033,128,0,80533:0:0:0:40:B4H.wav
42,192,80700,1,0,0:0:0:40:C#5H_Db5H.wav
128,192,80700,1,0,0:0:0:40:E5H.wav
384,192,80700,128,0,81200:0:0:0:40:A4H.wav
42,192,81366,1,0,0:0:0:40:C#5H_Db5H.wav
128,192,81366,1,0,0:0:0:40:E5H.wav
384,192,81366,128,0,81866:0:0:0:40:A4H.wav
298,192,81700,1,0,0:0:0:40:A3H.wav
128,192,82033,1,0,0:0:0:40:E5H.wav
213,192,82033,128,0,82533:0:0:0:40:G#4H_Ab4H.wav
469,192,82033,1,0,0:0:0:40:B4H.wav
128,192,82700,1,0,0:0:0:40:E5H.wav
213,192,82700,128,0,83200:0:0:0:40:G#4H_Ab4H.wav
469,192,82700,1,0,0:0:0:40:B4H.wav
298,192,83033,1,0,0:0:0:40:G#3H_Ab3H.wav
42,192,83366,1,0,0:0:0:40:C#5H_Db5H.wav
384,192,83366,1,0,0:0:0:40:E5H.wav
469,192,83366,128,0,83866:0:0:0:40:A4H.wav
42,192,84033,1,0,0:0:0:40:C#5H_Db5H.wav
384,192,84033,1,0,0:0:0:40:E5H.wav
469,192,84033,128,0,84533:0:0:0:40:A4H.wav
213,192,84366,1,0,0:0:0:40:F#3H_Gb3H.wav
128,192,84700,128,0,85200:0:0:0:40:E5H.wav
298,192,84700,1,0,0:0:0:40:A4H.wav
384,192,84700,1,0,0:0:0:40:B4H.wav
42,192,85366,1,0,0:0:0:40:D#5H_Eb5H.wav
298,192,85366,128,0,85866:0:0:0:40:F#5H_Gb5H.wav
469,192,85366,1,0,0:0:0:40:B4H.wav
213,192,85700,1,0,0:0:0:40:B3H.wav
128,192,86033,1,0,0:0:0:40:E5H.wav
384,192,86033,128,0,86533:0:0:0:40:G#5H_Ab5H.wav
469,192,86033,1,0,0:0:0:40:B5H.wav
128,192,86700,1,0,0:0:0:40:E5H.wav
384,192,86700,128,0,87200:0:0:0:40:G#5H_Ab5H.wav
469,192,86700,1,0,0:0:0:40:B5H.wav
213,192,87033,1,0,0:0:0:40:E4H.wav
42,192,87366,128,0,87866:0:0:0:40:D#5H_Eb5H.wav
298,192,87366,1,0,0:0:0:40:F#5H_Gb5H.wav
384,192,87366,1,0,0:0:0:40:B5H.wav
42,192,88033,128,0,88533:0:0:0:40:D#5H_Eb5H.wav
298,192,88033,1,0,0:0:0:40:F#5H_Gb5H.wav
384,192,88033,1,0,0:0:0:40:B5H.wav
469,192,88366,1,0,0:0:0:40:B3H.wav
128,192,88700,1,0,0:0:0:40:D#5H_Eb5H.wav
213,192,88700,1,0,0:0:0:40:G#5H_Ab5H.wav
298,192,88700,128,0,89200:0:0:0:40:B5H.wav
213,192,89366,128,0,89866:0:0:0:40:C4H.wav
384,192,89366,1,0,0:0:0:40:D#5H_Eb5H.wav
469,192,89366,1,0,0:0:0:40:G#5H_Ab5H.wav
42,192,90033,128,0,90533:0:0:0:40:E5H.wav
298,192,90033,1,0,0:0:0:40:G#5H_Ab5H.wav
384,192,90033,1,0,0:0:0:40:B4H.wav
42,192,90700,128,0,91200:0:0:0:40:E5H.wav
298,192,90700,1,0,0:0:0:40:G#5H_Ab5H.wav
384,192,90700,1,0,0:0:0:40:B4H.wav
128,192,91366,1,0,0:0:0:40:C#5H_Db5H.wav
213,192,91366,1,0,0:0:0:40:E5H.wav
469,192,91366,128,0,91866:0:0:0:40:G#5H_Ab5H.wav
128,192,92033,1,0,0:0:0:40:C#5H_Db5H.wav
213,192,92033,1,0,0:0:0:40:E5H.wav
469,192,92033,128,0,92533:0:0:0:40:G#5H_Ab5H.wav
42,192,92366,1,0,0:0:0:40:A3H.wav
128,192,92700,128,0,93200:0:0:0:40:E5H.wav
298,192,92700,1,0,0:0:0:40:G#5H_Ab5H.wav
384,192,92700,1,0,0:0:0:40:B4H.wav
128,192,93366,128,0,93866:0:0:0:40:E5H.wav
298,192,93366,1,0,0:0:0:40:G#5H_Ab5H.wav
384,192,93366,1,0,0:0:0:40:B4H.wav
469,192,93700,1,0,0:0:0:40:G#3H_Ab3H.wav
42,192,94033,1,0,0:0:0:40:C#5H_Db5H.wav
213,192,94033,1,0,0:0:0:40:E5H.wav
384,192,94033,128,0,94533:0:0:0:40:A4H.wav
42,192,94700,1,0,0:0:0:40:C#5H_Db5H.wav
213,192,94700,1,0,0:0:0:40:E5H.wav
384,192,94700,128,0,95200:0:0:0:40:A4H.wav
298,192,95033,1,0,0:0:0:40:F#3H_Gb3H.wav
128,192,95366,1,0,0:0:0:40:E5H.wav
213,192,95366,1,0,0:0:0:40:F#5H_Gb5H.wav
469,192,95366,1,0,0:0:0:40:B4H.wav
128,192,95533,1,0,0:0:0:40:E5H.wav
213,192,95533,1,0,0:0:0:40:F#5H_Gb5H.wav
469,192,95533,1,0,0:0:0:40:B4H.wav
128,192,96700,1,0,0:0:0:40:E4H.wav
298,192,96700,128,0,97200:0:0:0:40:E5H.wav
469,192,96700,1,0,0:0:0:40:A5H.wav
128,192,97366,1,0,0:0:0:40:E4H.wav
298,192,97366,128,0,97866:0:0:0:40:E5H.wav
469,192,97366,1,0,0:0:0:40:A5H.wav
42,192,97700,1,0,0:0:0:40:B4H.wav
128,192,98033,1,0,0:0:0:40:E4H.wav
298,192,98033,128,0,98533:0:0:0:40:E5H.wav
469,192,98033,1,0,0:0:0:40:A5H.wav
128,192,98700,1,0,0:0:0:40:E4H.wav
298,192,98700,128,0,99200:0:0:0:40:E5H.wav
469,192,98700,1,0,0:0:0:40:A5H.wav
42,192,99033,1,0,0:0:0:40:B4H.wav
128,192,99366,1,0,0:0:0:40:E4H.wav
213,192,99366,128,0,99866:0:0:0:40:E5H.wav
384,192,99366,1,0,0:0:0:40:G#5H_Ab5H.wav
128,192,100033,1,0,0:0:0:40:E4H.wav
213,192,100033,128,0,100533:0:0:0:40:E5H.wav
384,192,100033,1,0,0:0:0:40:G#5H_Ab5H.wav
42,192,100366,1,0,0:0:0:40:B4H.wav
128,192,100700,1,0,0:0:0:40:E4H.wav
213,192,100700,128,0,101200:0:0:0:40:E5H.wav
384,192,100700,1,0,0:0:0:40:G#5H_Ab5H.wav
128,192,101366,1,0,0:0:0:40:E4H.wav
213,192,101366,128,0,101866:0:0:0:40:E5H.wav
384,192,101366,1,0,0:0:0:40:G#5H_Ab5H.wav
42,192,101700,1,0,0:0:0:40:B4H.wav
128,192,102033,1,0,0:0:0:40:E4H.wav
298,192,102033,128,0,102533:0:0:0:40:E5H.wav
469,192,102033,1,0,0:0:0:40:A4H.wav
128,192,102700,1,0,0:0:0:40:E4H.wav
298,192,102700,128,0,103200:0:0:0:40:E5H.wav
469,192,102700,1,0,0:0:0:40:A4H.wav
42,192,103033,1,0,0:0:0:40:B4H.wav
128,192,103366,1,0,0:0:0:40:E4H.wav
298,192,103366,128,0,103866:0:0:0:40:E5H.wav
469,192,103366,1,0,0:0:0:40:A4H.wav
128,192,104033,1,0,0:0:0:40:E4H.wav
298,192,104033,128,0,104533:0:0:0:40:E5H.wav
469,192,104033,1,0,0:0:0:40:A4H.wav
42,192,104366,1,0,0:0:0:40:G#5H_Ab5H.wav
128,192,104477,1,0,0:0:0:40:F#5H_Gb5H.wav
213,192,104588,1,0,0:0:0:40:E5H.wav
42,192,104700,128,0,110033:0:0:0:40:E5H.wav
384,192,104700,128,0,106366:0:0:0:40:G#5H_Ab5H.wav
469,192,104700,128,0,109366:0:0:0:40:B4H.wav
