osu file format v14

[General]
AudioFilename: audio.mp3
AudioLeadIn: 0
PreviewTime: 48860
Countdown: 0
SampleSet: Soft
StackLeniency: 0.7
Mode: 2
LetterboxInBreaks: 0
WidescreenStoryboard: 1

[Editor]
Bookmarks: 130,16568,36294,49445,75746,87253
DistanceSpacing: 1.3
BeatDivisor: 8
GridSize: 4
TimelineZoom: 3.699998

[Metadata]
Title:Grandport, Center of Commerce
TitleUnicode:交易の都グランポート
Artist:Nishiki Yasunori
ArtistUnicode:西木康智
Creator:wonjae
Version:Hyperion's Platter
Source:OCTOPATH TRAVELER
Tags:vivian tressa square enix video game instumental jbhyperion jbh paranoid grapes cyanine darkness of blue darknessofblue californian az magic meat liyac absolute zero halfsmashed
BeatmapID:2140772
BeatmapSetID:819202

[Difficulty]
HPDrainRate:5
CircleSize:3.5
OverallDifficulty:8
ApproachRate:8
SliderMultiplier:1.6
SliderTickRate:2

[Events]
//Background and Video events
0,0,"best girl.jpg",0,0
//Break Periods
//Storyboard Layer 0 (Background)
//Storyboard Layer 1 (Fail)
//Storyboard Layer 2 (Pass)
//Storyboard Layer 3 (Foreground)
//Storyboard Layer 4 (Overlay)
//Storyboard Sound Samples

[TimingPoints]
162,410.958904109589,4,2,0,28,1,0
49477,-100,4,2,0,36,0,1
74134,-100,4,2,0,22,0,1
75778,-100,4,2,0,26,0,0
75782,-100,4,2,0,22,0,0

[Colours]
Combo1 : 128,128,128
Combo2 : 255,128,64
Combo3 : 0,128,128
Combo4 : 192,192,192

[HitObjects]
384,192,162,6,0,L|388:104,1,80,2|0,0:0|0:0,0:0:0:0:
242,111,778,1,0,0:0:0:0:
330,111,983,2,0,L|414:111,1,80,2|0,0:0|0:0,0:0:0:0:
266,111,1600,1,0,0:0:0:0:
354,111,1805,6,0,L|266:111,1,80,2|0,0:0|0:0,0:0:0:0:
114,111,2422,1,0,0:0:0:0:
202,111,2627,2,0,L|206:23,1,80,2|0,0:0|0:0,0:0:0:0:
118,31,3038,2,0,L|198:31,1,80,0|0,0:0|3:0,0:0:0:0:
392,32,3449,6,0,P|440:88|392:144,1,160,10|0,0:0|0:0,0:0:0:0:
216,140,4271,1,2,0:0:0:0:
304,140,4477,1,0,0:0:0:0:
304,228,4682,1,0,0:0:0:0:
216,228,4888,1,0,0:0:0:0:
24,228,5093,6,0,P|16:140|36:56,1,160,10|0,0:0|0:0,0:0:0:0:
328,72,5915,1,2,0:0:0:0:
240,72,6120,2,0,L|160:72,2,80,0|0|0,0:0|0:0|0:0,0:0:0:0:
436,72,6737,6,0,L|440:160,1,80,10|0,0:0|0:0,0:0:0:0:
360,192,7148,1,0,0:0:0:0:
448,192,7353,1,0,0:0:0:0:
344,192,7559,1,2,0:0:0:0:
152,192,7970,2,0,L|144:276,1,80,0|0,0:0|0:0,0:0:0:0:
336,272,8381,6,0,P|384:224|336:160,1,160,10|0,0:0|0:0,0:0:0:0:
224,160,8997,1,2,0:0:0:0:
320,160,9203,2,0,L|324:76,1,80,0|0,0:0|0:0,0:0:0:0:
228,80,9614,2,0,L|144:80,1,80,0|0,0:0|0:0,0:0:0:0:
340,80,10025,6,0,L|344:168,1,80,10|0,0:0|0:0,0:0:0:0:
252,192,10435,1,0,0:0:0:0:
92,192,10846,1,2,0:0:0:0:
188,192,11052,2,0,L|96:192,2,80,0|0|0,0:0|0:0|0:0,0:0:0:0:
392,192,11668,6,0,B|472:192|472:192|472:272,1,160,10|0,0:0|0:0,0:0:0:0:
296,272,12490,1,2,0:0:0:0:
384,272,12696,1,0,0:0:0:0:
280,272,12901,1,8,0:0:0:0:
176,272,13107,1,0,0:0:0:0:
368,272,13312,6,0,L|372:176,1,80,10|0,0:0|0:0,0:0:0:0:
212,192,13929,2,0,L|208:108,1,80,0|2,0:0|0:0,0:0:0:0:
336,112,14545,1,0,0:0:0:0:
224,112,14751,1,0,0:0:0:0:
188,112,14828,1,0,0:0:0:0:
128,112,14956,6,0,P|76:152|128:208,1,160,10|0,0:0|0:0,0:0:0:0:
224,208,15572,1,0,0:0:0:0:
408,208,15778,2,0,L|412:292,1,80,0|0,0:0|0:0,0:0:0:0:
356,368,16189,1,2,0:0:0:0:
44,368,16600,6,0,P|40:280|76:196,1,160,10|0,0:0|0:0,0:0:0:0:
152,212,17216,1,0,0:0:0:0:
240,212,17422,1,2,0:0:0:0:
136,212,17627,1,0,0:0:0:0:
256,212,17833,2,0,L|268:128,1,80,0|0,0:0|0:0,0:0:0:0:
460,132,18244,6,0,P|504:72|460:12,1,160,10|0,0:0|0:0,0:0:0:0:
364,12,18860,1,0,0:0:0:0:
268,12,19066,1,2,0:0:0:0:
380,12,19271,1,0,0:0:0:0:
196,12,19477,2,0,L|192:96,1,80,8|0,0:0|0:0,0:0:0:0:
388,92,19888,6,0,B|468:92|468:92|468:176,1,160,10|0,0:0|0:0,0:0:0:0:
380,172,20504,1,0,0:0:0:0:
292,172,20709,2,0,L|288:264,1,80,2|0,0:0|0:0,0:0:0:0:
391,251,21120,2,0,L|379:171,1,80,0|0,0:0|0:0,0:0:0:0:
188,172,21531,6,0,L|108:172,1,80,10|0,0:0|0:0,0:0:0:0:
197,252,21942,2,0,L|277:252,1,80,0|0,0:0|0:0,0:0:0:0:
172,252,22353,1,2,0:0:0:0:
312,336,22764,2,0,L|228:336,1,80,8|0,0:0|0:0,0:0:0:0:
40,336,23175,6,0,L|36:256,1,80,10|0,0:0|0:0,0:0:0:0:
228,256,23586,2,0,L|312:256,2,80
388,256,24408,2,0,L|480:256,1,80,10|0,0:0|0:0,0:0:0:0:
280,260,24819,6,0,L|276:180,1,80,8|0,0:0|0:0,0:0:0:0:
472,184,25230,1,0,0:0:0:0:
472,104,25435,1,0,0:0:0:0:
392,104,25641,1,0,0:0:0:0:
136,104,25975,1,0,0:0:0:0:
176,104,26052,2,0,L|256:104,1,80,8|0,0:0|0:0,0:0:0:0:
456,104,26463,6,0,P|500:168|456:224,1,160,8|0,0:0|0:0,0:0:0:0:
360,224,27079,1,0,0:0:0:0:
264,224,27285,2,0,L|260:128,1,80,0|0,0:0|0:0,0:0:0:0:
356,144,27696,1,8,0:0:0:0:
52,144,28107,6,0,L|132:144,1,80,8|0,0:0|0:0,0:0:0:0:
324,144,28518,2,0,L|328:60,1,80
232,64,28929,2,0,L|228:143,1,80,0|0,0:0|0:0,0:0:0:0:
324,144,29340,1,8,0:0:0:0:
20,144,29751,6,0,L|24:224,1,80,10|0,0:0|0:0,0:0:0:0:
200,224,30367,2,0,L|280:224,1,80,2|0,0:0|0:0,0:0:0:0:
184,224,30778,1,0,0:0:0:0:
376,224,30983,2,0,L|452:192,1,80,2|0,0:0|0:0,0:0:0:0:
252,192,31394,5,10,0:0:0:0:
172,192,31600,1,0,0:0:0:0:
244,192,31805,1,0,0:0:0:0:
436,192,32011,2,0,P|488:236|496:324,1,160
424,368,32627,1,0,0:0:0:0:
96,368,33038,6,0,B|96:288|96:288|176:288,1,160,10|0,0:0|0:0,0:0:0:0:
264,288,33655,1,0,0:0:0:0:
168,288,33860,1,2,0:0:0:0:
360,288,34271,2,0,L|276:288,1,80,0|0,0:0|0:0,0:0:0:0:
468,288,34682,6,0,L|472:204,1,80,10|0,0:0|0:0,0:0:0:0:
376,208,35093,2,0,L|296:208,1,80,0|0,0:0|0:0,0:0:0:0:
104,208,35504,2,0,L|100:120,1,80
188,128,35915,1,2,0:0:0:0:
84,128,36120,1,0,0:0:0:0:
352,128,36326,6,0,L|432:128,1,80,10|0,0:0|0:0,0:0:0:0:
256,128,36942,1,0,0:0:0:0:
352,128,37148,1,2,0:0:0:0:
248,128,37353,1,0,0:0:0:0:
440,128,37559,2,0,L|432:40,1,80
228,48,37970,6,0,L|144:48,1,80,10|0,0:0|0:0,0:0:0:0:
324,48,38586,1,0,0:0:0:0:
220,48,38792,1,2,0:0:0:0:
116,48,38997,1,0,0:0:0:0:
308,48,39203,2,0,L|312:132,1,80
40,128,39614,6,0,L|36:212,1,80,10|0,0:0|0:0,0:0:0:0:
212,208,40230,1,0,0:0:0:0:
116,208,40435,2,0,L|120:128,1,80,2|0,0:0|0:0,0:0:0:0:
224,128,40846,2,0,L|308:128,1,80,2|0,0:0|0:0,0:0:0:0:
492,128,41257,6,0,L|484:44,1,80,10|0,2:0|2:0,0:0:0:0:
432,48,41566,1,0,2:0:0:0:
380,48,41668,1,2,2:0:0:0:
276,48,41874,1,0,2:0:0:0:
364,48,42079,2,0,L|368:136,1,80,2|0,2:0|0:0,0:0:0:0:
280,128,42490,2,0,L|196:128,1,80,0|0,0:0|0:0,0:0:0:0:
392,128,42901,6,0,L|440:192,1,80,10|0,0:0|0:0,0:0:0:0:
248,164,43312,1,0,0:0:0:0:
188,228,43518,1,0,0:0:0:0:
260,276,43723,2,0,L|344:276,1,80,2|0,0:0|3:0,0:0:0:0:
68,276,44134,2,0,L|60:364,1,80,2|0,0:0|0:0,0:0:0:0:
252,356,44545,6,0,L|332:356,1,80,10|0,0:0|0:0,0:0:0:0:
156,356,45162,1,0,0:0:0:0:
348,356,45367,2,0,P|396:292|348:244,1,160,2|0,0:0|0:0,0:0:0:0:
240,244,45983,2,0,L|236:196,1,40,0|0,3:0|3:0,0:0:0:0:
304,192,46189,6,0,L|400:192,1,80,10|0,0:0|0:0,0:0:0:0:
280,192,46600,2,0,L|200:192,2,80,0|0|2,0:0|0:0|0:0,0:0:0:0:
452,192,47422,1,0,0:0:0:0:
132,192,47833,6,0,L|116:112,2,80,2|0|0,0:0|0:0|0:0,0:0:0:0:
220,192,48449,1,0,0:0:0:0:
308,192,48655,2,0,L|228:192,1,80,0|0,0:0|3:3,0:0:0:0:
124,192,49066,2,0,L|120:112,1,80,0|0,3:0|0:0,0:0:0:0:
400,192,49477,6,0,L|480:192,1,80,6|0,3:2|0:0,0:0:0:0:
384,192,49888,1,0,0:0:0:0:
192,192,50093,2,0,L|188:284,1,80,0|0,3:3|0:0,0:0:0:0:
384,272,50709,2,0,L|296:272,1,80,0|0,2:0|0:0,0:0:0:0:
112,272,51120,6,0,L|104:356,1,80,2|0,3:2|0:0,0:0:0:0:
296,352,51737,1,0,3:0:0:0:
104,352,51942,2,0,P|52:300|104:248,1,160,2|0,0:0|3:0,0:0:0:0:
196,248,52559,1,0,0:0:0:0:
400,248,52764,6,0,P|412:168|392:88,1,160,10|0,3:2|0:0,0:0:0:0:
296,92,53381,1,0,3:0:0:0:
408,92,53586,2,0,L|412:8,1,80,2|0,0:0|0:0,0:0:0:0:
108,12,54203,1,0,0:0:0:0:
68,12,54305,1,0,0:0:0:0:
28,12,54408,6,0,L|20:112,1,80,10|0,3:2|0:0,0:0:0:0:
116,92,54819,2,0,L|196:92,1,80,0|0,0:0|3:0,0:0:0:0:
356,92,55230,1,2,0:0:0:0:
352,172,55435,1,0,0:0:0:0:
296,232,55641,1,0,0:0:0:0:
216,244,55846,1,0,3:0:0:0:
408,244,56052,5,10,3:2:0:0:
496,244,56257,2,0,B|496:324|496:324|416:324,1,160,0|2,0:0|3:2,0:0:0:0:
328,324,56874,1,0,0:0:0:0:
416,324,57079,1,0,0:0:0:0:
416,236,57285,1,0,0:0:0:0:
328,236,57490,1,0,3:0:0:0:
128,236,57696,6,0,P|80:180|128:120,1,160,10|0,3:2|0:0,0:0:0:0:
212,120,58312,1,0,3:2:0:0:
404,120,58518,2,0,L|232:120,1,160,2|0,0:0|0:0,0:0:0:0:
156,120,59134,1,0,0:0:0:0:
348,120,59340,6,0,P|316:188|228:200,1,160,10|0,3:2|0:0,0:0:0:0:
152,204,59956,1,2,3:2:0:0:
248,204,60161,2,0,L|256:284,2,80,0|0|0,0:0|0:0|3:0,0:0:0:0:
160,204,60778,1,0,0:0:0:0:
72,204,60983,5,2,0:0:0:0:
264,204,61189,2,0,P|312:264|264:316,1,160,2|0,3:0|3:0,0:0:0:0:
176,316,61805,1,0,0:0:0:0:
272,316,62011,1,0,3:0:0:0:
72,316,62216,2,0,L|68:224,1,80,2|0,0:0|0:0,0:0:0:0:
344,236,62627,6,0,B|424:236|424:236|424:156,1,160,10|0,3:2|0:0,0:0:0:0:
336,156,63244,1,2,3:2:0:0:
248,156,63449,2,0,L|336:156,1,80
136,156,63860,2,0,L|56:156,1,80,0|0,3:0|0:0,0:0:0:0:
328,76,64271,6,0,L|408:76,2,80,10|0|0,3:2|0:0|3:0,0:0:0:0:
232,76,64888,1,2,3:2:0:0:
328,76,65093,1,0,0:0:0:0:
32,76,65504,2,0,L|28:164,1,80,0|0,3:0|0:0,0:0:0:0:
300,156,65915,6,0,L|384:156,1,80,10|0,3:2|0:0,0:0:0:0:
204,156,66531,1,2,3:2:0:0:
92,156,66737,1,0,0:0:0:0:
188,156,66942,1,0,0:0:0:0:
300,156,67148,2,0,L|296:244,1,80,0|0,3:0|0:0,0:0:0:0:
28,236,67559,6,0,L|24:316,1,80,10|0,3:2|0:0,0:0:0:0:
216,316,67970,2,0,L|212:236,1,80,0|2,0:0|3:2,0:0:0:0:
116,236,68381,1,0,0:0:0:0:
412,236,68792,2,0,L|492:236,1,80,0|0,3:0|0:0,0:0:0:0:
220,236,69203,5,10,3:2:0:0:
124,236,69408,2,0,P|72:196|124:140,1,160,0|2,0:0|3:2,0:0:0:0:
220,140,70025,1,0,0:0:0:0:
108,140,70230,2,0,L|192:140,2,80,0|0|0,0:0|3:0|0:0,0:0:0:0:
380,140,70846,5,10,3:2:0:0:
476,140,71052,2,0,L|312:140,1,160,0|0,0:0|3:0,0:0:0:0:
44,136,71668,2,0,B|44:56|44:56|128:56,1,160,2|0,3:2|0:0,0:0:0:0:
28,56,72285,1,0,3:0:0:0:
300,56,72490,6,0,L|464:56,1,160,10|0,0:0|0:0,0:0:0:0:
364,56,73107,1,0,3:0:0:0:
268,56,73312,2,0,L|108:56,1,160,0|0,0:0|0:0,0:0:0:0:
256,192,74134,12,0,75367,0:0:0:0:
176,192,75778,6,0,P|257:81|340:192,1,320,10|2,0:0|0:0,0:0:0:0:
258,167,76805,1,0,0:0:0:0:
352,192,77011,2,0,L|432:192,1,80,0|0,0:0|0:0,0:0:0:0:
240,168,77422,5,2,0:0:0:0:
186,204,77627,1,0,0:0:0:0:
184,268,77833,1,0,0:0:0:0:
234,308,78038,1,0,0:0:0:0:
338,309,78244,2,0,L|254:309,1,80,0|0,3:0|0:0,0:0:0:0:
146,309,78655,2,0,L|230:309,1,80,2|0,0:0|0:0,0:0:0:0:
420,308,79066,6,0,B|472:192|400:80|400:80|320:80,1,320,10|2,0:0|0:0,0:0:0:0:
224,80,80093,1,0,0:0:0:0:
336,80,80298,1,0,0:0:0:0:
240,80,80504,1,0,0:0:0:0:
144,80,80709,6,0,L|140:176,1,80
236,160,81120,2,0,L|148:160,1,80,0|0,3:0|0:0,0:0:0:0:
348,160,81531,1,2,3:0:0:0:
184,160,81942,2,0,L|264:160,1,80,0|0,0:0|0:0,0:0:0:0:
456,160,82353,6,0,L|292:160,2,160,10|0|0,0:0|0:0|0:0,0:0:0:0:
264,160,83586,1,2,0:0:0:0:
360,160,83792,1,0,0:0:0:0:
168,160,83997,6,0,P|120:216|168:272,1,160,2|2,0:0|0:0,0:0:0:0:
480,272,84819,2,0,L|340:192,1,160,2|2,0:0|0:0,0:0:0:0:
212,192,85504,1,0,0:0:0:0:
180,192,85572,1,0,0:0:0:0:
148,192,85641,6,0,P|96:144|148:92,1,160,2|0,0:0|0:0,0:0:0:0:
244,92,86257,2,0,B|324:92|324:92|324:12,1,160,0|0,0:0|0:0,0:0:0:0:
212,12,86874,2,0,L|292:12,1,80,0|0,0:0|0:0,0:0:0:0:
484,12,87285,5,2,0:0:0:0:
224,8,88107,1,0,0:0:0:0:
