osu file format v14

[General]
AudioFilename: audio.mp3
AudioLeadIn: 0
PreviewTime: -1
Countdown: 1
SampleSet: None
StackLeniency: 0.7
Mode: 0
LetterboxInBreaks: 0
WidescreenStoryboard: 0

[Editor]
Bookmarks: 25107,61517,78184,111261,127927,164594
DistanceSpacing: 1
BeatDivisor: 4
GridSize: 8
TimelineZoom: 1.9

[Metadata]
Title:Platinum Disco
TitleUnicode:Platinum Disco
Artist:Nisemonogari (Yuka Iguchi)
ArtistUnicode:Nisemonogari (Yuka Iguchi)
Creator:RioAl
Version:
Source:
Tags:
BeatmapID:1924062
BeatmapSetID:921384

[Difficulty]
HPDrainRate:5
CircleSize:5
OverallDifficulty:6
ApproachRate:9
SliderMultiplier:1.4
SliderTickRate:1

[Events]
//Background and Video events
//Break Periods
2,94024,110661
//Storyboard Layer 0 (Background)
//Storyboard Layer 1 (Fail)
//Storyboard Layer 2 (Pass)
//Storyboard Layer 3 (Foreground)
//Storyboard Sound Samples

[TimingPoints]
540.787174797132,509.770603228547,4,2,0,100,1,0
8697,512.820512820513,4,2,0,100,1,0

[HitObjects]
128,88,540,5,8,0:0:0:0:
256,344,1560,1,8,0:0:0:0:
384,88,2579,5,8,0:0:0:0:
256,344,3599,1,8,0:0:0:0:
112,104,4618,1,8,0:0:0:0:
256,104,5128,1,8,0:0:0:0:
368,192,5638,1,8,0:0:0:0:
256,280,6148,1,8,0:0:0:0:
144,192,6658,1,8,0:0:0:0:
256,104,7167,1,8,0:0:0:0:
362,195,7677,5,8,0:0:0:0:
256,288,8187,5,8,0:0:0:0:
196,162,8697,1,8,0:0:0:0:
246,88,8953,1,8,0:0:0:0:
250,161,9209,2,8,L|250:259,2,70
390,164,10235,1,8,0:0:0:0:
341,214,10491,1,8,0:0:0:0:
300,156,10748,1,8,0:0:0:0:
255,104,11004,1,8,0:0:0:0:
195,73,11261,1,8,0:0:0:0:
130,100,11517,1,8,0:0:0:0:
101,163,11773,1,8,0:0:0:0:
116,231,12030,2,8,L|203:261,1,70
274,148,12799,1,8,0:0:0:0:
343,146,13055,1,8,0:0:0:0:
361,213,13312,1,8,0:0:0:0:
411,260,13568,2,8,P|351:274|347:253,1,70
285,301,14081,2,8,P|225:315|221:294,1,70
164,337,14594,2,8,B|174:337|174:337|171:356|171:356|96:352|121:183,1,210
229,31,16132,1,8,0:0:0:0:
265,90,16388,1,8,0:0:0:0:
334,102,16645,1,8,0:0:0:0:
376,157,16902,2,8,L|379:302,1,140
234,261,17927,1,8,0:0:0:0:
95,103,18697,2,8,L|194:107,1,70
143,145,19209,2,8,L|146:217,1,70
184,253,19722,2,8,L|274:214,1,70
248,225,20235,1,8,0:0:0:0:
248,225,20491,1,8,0:0:0:0:
172,115,21004,2,8,B|236:98|236:98|322:132,2,140
219,167,22286,1,8,0:0:0:0:
219,167,22542,1,8,0:0:0:0:
211,236,22798,1,8,0:0:0:0:
211,236,23055,1,8,0:0:0:0:
256,192,23312,12,8,24594,0:0:0:0:
462,231,25107,5,8,0:0:0:0:
322,238,25620,2,8,B|236:184|236:184|247:252|247:252|188:197|188:197|154:192,1,280
159,122,26902,2,8,L|124:129,2,35
299,122,27671,1,8,0:0:0:0:
368,122,27927,2,8,P|409:144|419:196,1,70
319,262,28697,1,8,0:0:0:0:
249,262,28953,1,8,0:0:0:0:
249,262,29209,2,8,P|168:294|114:267,1,140
123,134,30235,2,8,P|183:110|270:136,1,140
201,284,31261,2,8,L|267:221,1,70
317,220,31773,2,8,L|262:163,1,70
218,174,32286,2,8,L|159:120,1,70
166,126,32671,1,8,0:0:0:0:
166,126,32799,1,8,0:0:0:0:
224,219,33312,1,8,0:0:0:0:
300,93,33825,2,8,B|287:130|239:119|239:119|267:168|267:168|191:177|191:177|158:203|232:221,1,280
288,249,35107,1,8,0:0:0:0:
288,249,35235,1,8,0:0:0:0:
288,249,35363,1,8,0:0:0:0:
167,183,35876,1,8,0:0:0:0:
167,183,36132,2,8,L|255:172,1,70
377,160,36902,1,8,0:0:0:0:
208,112,37158,2,8,L|252:103,2,35
160,241,37927,1,8,0:0:0:0:
245,115,38440,1,8,0:0:0:0:
285,172,38697,1,8,0:0:0:0:
270,240,38953,1,8,0:0:0:0:
318,290,39209,1,8,0:0:0:0:
359,233,39466,1,8,0:0:0:0:
256,192,39722,12,8,41517,0:0:0:0:
153,109,41773,5,8,0:0:0:0:
153,109,42030,5,8,0:0:0:0:
178,176,42286,2,8,P|232:232|252:203,1,140
294,100,43055,1,8,0:0:0:0:
309,168,43312,2,8,P|363:224|383:195,1,140
463,107,44081,1,8,0:0:0:0:
397,99,44338,2,8,L|314:96,1,70
257,95,44850,1,8,0:0:0:0:
335,158,45107,2,8,L|294:195,1,35
309,181,45363,1,8,0:0:0:0:
309,181,45619,1,8,0:0:0:0:
309,181,45876,1,8,0:0:0:0:
256,192,46132,12,8,47158,0:0:0:0:
100,112,47414,6,8,L|141:149,1,35
125,135,47670,1,8,0:0:0:0:
125,135,47926,1,8,0:0:0:0:
256,192,48184,12,8,49722,0:0:0:0:
327,225,49979,5,8,0:0:0:0:
263,195,50235,1,8,0:0:0:0:
177,170,50491,2,8,P|111:160|107:171,2,70
176,248,51261,1,8,0:0:0:0:
338,219,51517,2,8,P|360:245|394:241,2,70
326,149,52286,1,8,0:0:0:0:
215,107,52543,2,8,L|135:118,2,70
289,114,53312,1,8,0:0:0:0:
255,175,53568,1,8,0:0:0:0:
255,175,53825,2,8,P|186:171|128:123,1,140
95,188,54594,1,8,0:0:0:0:
95,188,54850,2,8,P|115:220|227:234,1,140
276,261,55620,1,8,0:0:0:0:
276,261,55876,2,8,P|348:227|397:169,4,140
256,192,58440,12,8,61004,0:0:0:0:
80,164,61517,5,8,0:0:0:0:
119,106,61773,1,8,0:0:0:0:
180,71,62030,1,8,0:0:0:0:
229,120,62286,1,8,0:0:0:0:
269,177,62543,1,8,0:0:0:0:
322,132,62799,1,8,0:0:0:0:
367,79,63055,2,8,P|399:120|368:223,1,140
324,233,63825,1,8,0:0:0:0:
288,293,64081,1,8,0:0:0:0:
220,310,64338,1,8,0:0:0:0:
177,254,64594,1,8,0:0:0:0:
119,293,64850,1,8,0:0:0:0:
87,230,65107,2,8,P|70:172|92:159,2,70
128,173,65876,1,8,0:0:0:0:
176,122,66132,1,8,0:0:0:0:
244,109,66645,1,8,0:0:0:0:
244,109,66902,1,8,0:0:0:0:
313,108,67158,1,8,0:0:0:0:
384,164,67671,1,8,0:0:0:0:
384,164,67927,2,8,P|382:212|357:240,5,70
257,118,69722,1,8,0:0:0:0:
194,86,69979,1,8,0:0:0:0:
144,135,70235,1,8,0:0:0:0:
90,179,70491,1,8,0:0:0:0:
93,183,70748,2,8,P|124:228|211:246,1,140
312,118,71773,1,8,0:0:0:0:
349,177,72030,1,8,0:0:0:0:
395,240,72286,2,8,P|348:272|130:275,1,280
32,156,74081,1,8,0:0:0:0:
32,156,74338,2,8,P|73:123|157:164,1,140
225,151,75107,1,8,0:0:0:0:
225,151,75363,2,8,P|290:152|325:218,1,140
222,279,76132,1,8,0:0:0:0:
222,279,76389,2,8,B|177:268|177:268|274:203|154:136|154:179|274:81,1,280,8|8,0:0|0:0,0:0:0:0:
47,110,78184,2,8,L|136:111,1,70
174,303,79209,2,8,L|243:300,1,70
349,117,80235,1,8,0:0:0:0:
416,97,80491,1,8,0:0:0:0:
411,167,80748,1,8,0:0:0:0:
406,234,81004,2,8,B|436:271|436:271|325:267,2,140
359,178,82286,2,8,L|276:160,1,70
200,287,83312,2,8,L|114:289,1,70
61,93,84338,1,8,0:0:0:0:
106,147,84594,1,8,0:0:0:0:
142,87,84850,2,8,L|183:55,2,35
215,129,85363,1,8,0:0:0:0:
284,85,85620,1,8,0:0:0:0:
353,122,85876,1,8,0:0:0:0:
353,122,86132,1,8,0:0:0:0:
366,263,86645,2,8,P|308:200|197:249,1,210
144,213,87671,2,8,P|138:161|272:121,1,210
326,130,88697,1,8,0:0:0:0:
356,192,88953,1,8,0:0:0:0:
359,261,89209,1,8,0:0:0:0:
294,289,89466,1,8,0:0:0:0:
224,284,89722,2,8,P|170:261|221:251,1,140
182,91,90748,1,8,0:0:0:0:
314,163,91004,1,8,0:0:0:0:
314,163,91517,1,8,0:0:0:0:
182,91,91773,1,8,0:0:0:0:
182,91,92030,1,8,0:0:0:0:
270,310,92543,1,8,0:0:0:0:
284,241,92799,2,8,P|234:243|283:209,2,140
106,83,111261,5,8,0:0:0:0:
245,83,111773,2,8,B|308:45|308:45|294:82|294:82|323:58|323:58|328:121|328:121|394:121,1,280
370,187,113055,2,8,L|343:217,2,35
445,135,113825,1,8,0:0:0:0:
445,204,114081,2,8,P|436:249|396:269,1,70
279,276,114850,1,8,0:0:0:0:
208,274,115107,1,8,0:0:0:0:
138,276,115363,2,8,P|90:257|122:193,1,140
255,202,116389,2,8,P|303:183|271:119,1,140
115,114,117414,2,8,L|165:199,1,70
123,239,117927,2,8,L|216:246,1,70
256,215,118440,2,8,L|332:266,1,70
314,254,118825,1,8,0:0:0:0:
314,254,118953,1,8,0:0:0:0:
386,243,119209,1,8,0:0:0:0:
386,243,119338,1,8,0:0:0:0:
386,243,119466,2,8,P|331:191|251:202,1,140
130,243,120235,1,8,0:0:0:0:
130,243,120364,1,8,0:0:0:0:
130,243,120492,2,8,P|185:191|265:202,1,140
258,59,121261,1,8,0:0:0:0:
258,59,121390,1,8,0:0:0:0:
258,59,121518,2,8,L|258:201,1,140
258,331,122286,1,8,0:0:0:0:
258,331,122415,1,8,0:0:0:0:
258,331,122543,2,8,L|258:189,1,140
189,178,123312,1,8,0:0:0:0:
189,178,123568,2,8,P|134:180|120:106,1,140
256,86,124594,1,8,0:0:0:0:
317,51,124850,1,8,0:0:0:0:
353,110,125107,1,8,0:0:0:0:
360,179,125363,1,8,0:0:0:0:
325,240,125620,1,8,0:0:0:0:
256,192,125876,12,8,127671,0:0:0:0:
153,226,127927,5,8,0:0:0:0:
103,176,128184,1,8,0:0:0:0:
163,140,128440,1,8,0:0:0:0:
230,121,128697,2,8,P|305:132|352:188,1,140
302,248,129466,1,8,0:0:0:0:
234,267,129722,2,8,P|137:271|107:226,1,140
78,108,130748,2,8,B|117:95|77:52|128:33,1,70
167,82,131261,1,8,0:0:0:0:
226,118,131517,1,8,0:0:0:0:
271,171,131773,2,8,P|282:225|274:239,2,70
339,263,133568,2,8,P|376:243|387:218,2,70
204,166,135876,1,8,0:0:0:0:
271,185,136132,2,8,P|327:172|335:143,2,70
207,154,136902,1,8,0:0:0:0:
147,117,137158,1,8,0:0:0:0:
96,147,137414,1,8,0:0:0:0:
83,216,137671,1,8,0:0:0:0:
129,268,137927,1,8,0:0:0:0:
202,275,138184,2,8,L|322:275,1,105
307,275,138697,1,8,0:0:0:0:
370,230,138953,2,8,P|394:165|378:151,2,70
299,230,139722,1,8,0:0:0:0:
233,228,139979,2,8,L|156:189,2,70
233,157,140748,1,8,0:0:0:0:
233,87,141004,2,8,L|304:54,2,70
183,136,141773,1,8,0:0:0:0:
130,182,142030,2,8,P|98:240|123:306,4,140
256,192,144338,12,8,147158,0:0:0:0:
472,320,147671,5,8,0:0:0:0:
400,297,147927,1,8,0:0:0:0:
329,297,148184,1,8,0:0:0:0:
279,247,148440,1,8,0:0:0:0:
226,299,148697,1,8,0:0:0:0:
156,299,148953,2,8,P|107:310|67:340,1,70
90,319,149722,1,8,0:0:0:0:
139,269,149979,1,8,0:0:0:0:
89,219,150235,1,8,0:0:0:0:
138,169,150491,1,8,0:0:0:0:
88,119,150748,1,8,0:0:0:0:
137,69,151004,2,8,P|95:39|48:36,1,70
282,60,152030,1,8,0:0:0:0:
331,109,152286,2,8,P|357:180|325:236,1,140
286,275,153055,1,8,0:0:0:0:
216,283,153312,2,8,P|99:278|68:293,1,140
74,216,154081,1,8,0:0:0:0:
74,145,154338,2,8,P|108:104|146:102,4,70
215,130,155876,1,8,0:0:0:0:
215,130,156132,1,8,0:0:0:0:
215,130,156389,2,8,L|256:60,2,70
215,130,157158,1,8,0:0:0:0:
215,130,157414,1,8,0:0:0:0:
270,258,157927,1,8,0:0:0:0:
270,258,158183,1,8,0:0:0:0:
270,258,158440,2,8,L|311:188,2,70
270,258,159209,1,8,0:0:0:0:
270,258,159465,1,8,0:0:0:0:
59,258,160235,1,8,0:0:0:0:
59,258,160491,2,8,P|65:172|95:123,1,140
138,74,161261,1,8,0:0:0:0:
138,74,161517,2,8,P|205:65|283:94,1,140
322,136,162286,1,8,0:0:0:0:
371,185,162543,1,8,0:0:0:0:
256,192,162799,12,8,164338,0:0:0:0:
92,266,164594,6,8,P|99:294|131:306,2,52.5,8|0|8,0:0|0:0|0:0,0:0:0:0:
116,241,165107,6,8,P|123:269|155:281,2,52.5,8|0|8,0:0|0:0|0:0,0:0:0:0:
140,216,165620,6,8,P|147:244|179:256,2,52.5,8|0|8,0:0|0:0|0:0,0:0:0:0:
171,200,166132,6,8,P|178:228|210:240,2,52.5,8|0|8,0:0|0:0|0:0,0:0:0:0:
197,176,166645,6,8,P|204:204|236:216,2,52.5,8|0|8,0:0|0:0|0:0,0:0:0:0:
232,176,167158,2,8,L|302:166,2,70
289,73,168184,2,8,L|359:63,2,70
327,207,169209,2,8,L|274:276,2,70
227,302,170235,2,8,L|136:327,2,70
120,42,171773,2,8,L|179:94,1,70
222,137,172286,2,8,P|216:155|243:140,1,70
424,266,172799,6,8,P|417:294|385:306,2,52.5,8|0|8,0:0|0:0|0:0,0:0:0:0:
400,241,173312,6,8,P|393:269|361:281,2,52.5,8|0|8,0:0|0:0|0:0,0:0:0:0:
376,216,173825,6,8,P|369:244|337:256,2,52.5,8|0|8,0:0|0:0|0:0,0:0:0:0:
345,200,174337,6,8,P|338:228|306:240,2,52.5,8|0|8,0:0|0:0|0:0,0:0:0:0:
319,176,174850,6,8,P|312:204|280:216,2,52.5,8|0|8,0:0|0:0|0:0,0:0:0:0:
286,168,175363,2,8,L|232:120,2,70
154,197,176389,2,8,L|60:221,2,70
213,323,177414,2,8,L|284:281,2,70
72,323,178440,2,8,P|103:250|181:217,1,140
252,319,179466,2,8,L|310:185,1,140
333,132,180235,1,8,0:0:0:0:
288,78,180491,1,8,0:0:0:0:
220,95,180748,1,8,0:0:0:0:
106,93,181004,6,8,P|113:65|145:53,2,52.5,8|0|8,0:0|0:0|0:0,0:0:0:0:
130,118,181517,6,8,P|137:90|169:78,2,52.5,8|0|8,0:0|0:0|0:0,0:0:0:0:
154,143,182030,6,0,P|161:115|193:103,2,52.5,8|0|8,0:0|0:0|0:0,0:0:0:0:
185,159,182543,6,8,P|192:131|224:119,2,52.5,8|0|8,0:0|0:0|0:0,0:0:0:0:
211,183,183055,6,8,P|218:155|250:143,2,52.5,8|0|8,0:0|0:0|0:0,0:0:0:0:
237,201,183568,2,8,L|299:243,2,70
161,324,184594,2,8,L|74:319,2,70
108,193,185620,2,8,L|103:121,2,70
239,156,186645,2,8,L|320:124,2,70
474,307,188184,2,8,B|488:224|488:224|464:240|464:240|447:192,1,140
423,124,189209,6,8,P|419:98|397:84,2,52.5,8|0|8,0:0|0:0|0:0,0:0:0:0:
399,149,189722,6,8,P|395:123|373:109,2,52.5,8|0|8,0:0|0:0|0:0,0:0:0:0:
375,174,190235,6,8,P|371:148|349:134,2,52.5,8|0|8,0:0|0:0|0:0,0:0:0:0:
344,190,190747,6,8,P|340:164|318:150,2,52.5,8|0|8,0:0|0:0|0:0,0:0:0:0:
318,214,191260,6,8,P|314:188|292:174,2,52.5,8|0|8,0:0|0:0|0:0,0:0:0:0:
289,232,191773,2,8,L|223:296,2,70
221,210,192543,2,8,L|178:123,1,70
174,79,193055,2,8,L|268:60,1,70
311,78,193568,2,8,L|371:143,1,70
368,198,194081,2,8,L|304:276,1,70
334,321,194594,2,8,L|430:349,1,70
418,272,195107,2,8,P|361:252|344:222,1,70
304,189,195620,1,8,0:0:0:0:
304,189,195876,2,8,P|252:122|182:138,1,140
142,250,196902,1,8,0:0:0:0:
193,299,197158,1,8,0:0:0:0:
238,246,197414,1,8,0:0:0:0:
374,140,198953,1,8,0:0:0:0:
323,91,199209,1,8,0:0:0:0:
278,144,199465,1,8,0:0:0:0:
161,260,201261,1,8,0:0:0:0:
161,260,201517,2,8,L|108:247,1,35,8|0,0:0|0:0,0:0:0:0:
127,251,202030,1,8,0:0:0:0:
73,206,202286,1,8,0:0:0:0:
90,138,202543,2,8,P|178:90|207:109,1,140
198,175,203312,1,8,0:0:0:0:
198,175,203568,2,8,P|245:198|272:46,1,280
370,153,205107,1,8,0:0:0:0:
412,208,205363,1,8,0:0:0:0:
369,263,205620,1,8,0:0:0:0:
327,319,205876,1,8,0:0:0:0:
257,316,206132,2,8,P|220:328|183:318,2,70
265,246,207158,1,8,0:0:0:0:
265,246,207414,1,8,0:0:0:0:
265,246,207671,2,8,B|201:203|299:161|299:161|202:107|306:83|256:52|256:52|258:27,1,280
78,145,209466,1,8,0:0:0:0:
78,145,209722,2,8,L|150:272,1,140
214,248,210491,1,8,0:0:0:0:
214,248,210748,2,8,L|326:157,1,140
303,92,211517,1,8,0:0:0:0:
303,92,211773,2,8,L|148:92,2,140
436,164,213312,5,8,0:0:0:0:
397,106,213568,1,8,0:0:0:0:
336,71,213825,1,8,0:0:0:0:
287,120,214081,1,8,0:0:0:0:
247,177,214338,1,8,0:0:0:0:
194,132,214594,1,8,0:0:0:0:
149,79,214850,2,8,P|117:120|148:223,1,140
192,233,215620,1,8,0:0:0:0:
228,293,215876,1,8,0:0:0:0:
296,310,216133,1,8,0:0:0:0:
339,254,216389,1,8,0:0:0:0:
397,293,216645,1,8,0:0:0:0:
429,230,216902,2,8,P|446:172|424:159,2,70
388,173,217671,1,8,0:0:0:0:
340,122,217927,1,8,0:0:0:0:
272,109,218440,1,8,0:0:0:0:
272,109,218697,1,8,0:0:0:0:
203,108,218953,1,8,0:0:0:0:
132,164,219466,1,8,0:0:0:0:
132,164,219722,2,8,P|134:212|177:241,5,70
259,118,221517,1,8,0:0:0:0:
322,86,221774,1,8,0:0:0:0:
372,135,222030,1,8,0:0:0:0:
423,183,222286,1,8,0:0:0:0:
423,183,222543,2,8,P|392:228|296:232,1,140
204,118,223568,1,8,0:0:0:0:
167,177,223825,1,8,0:0:0:0:
121,240,224081,2,8,P|168:272|256:272,1,140
318,268,224850,1,8,0:0:0:0:
376,237,225107,1,8,0:0:0:0:
484,156,225876,1,8,0:0:0:0:
484,156,226133,2,8,P|443:123|359:164,1,140
291,151,226902,1,8,0:0:0:0:
291,151,227158,2,8,P|226:152|191:218,1,140
294,279,227927,1,8,0:0:0:0:
294,279,228184,2,8,B|339:268|339:268|242:203|243:164|324:180|260:120|260:120|314:108,1,280
469,110,229979,2,8,L|380:111,1,70
342,303,231004,2,8,L|273:300,1,70
167,117,232030,1,8,0:0:0:0:
100,97,232286,1,8,0:0:0:0:
105,167,232543,1,8,0:0:0:0:
110,234,232799,2,8,B|80:271|80:271|191:267,2,140
157,178,234081,2,8,L|240:160,1,70
316,287,235107,2,8,L|402:289,1,70
455,93,236133,1,8,0:0:0:0:
410,147,236389,1,8,0:0:0:0:
374,87,236645,2,8,L|333:55,2,35
301,129,237158,1,8,0:0:0:0:
232,85,237415,1,8,0:0:0:0:
163,122,237671,1,8,0:0:0:0:
163,122,237927,1,8,0:0:0:0:
150,263,238440,2,8,P|208:200|319:249,1,210
372,213,239466,2,8,P|378:161|244:121,1,210
190,130,240492,1,8,0:0:0:0:
160,192,240748,1,8,0:0:0:0:
157,261,241004,1,8,0:0:0:0:
222,289,241261,1,8,0:0:0:0:
292,284,241517,2,8,P|346:261|295:251,1,140
334,91,242543,1,8,0:0:0:0:
202,163,242799,1,8,0:0:0:0:
202,163,243312,1,8,0:0:0:0:
334,91,243568,1,8,0:0:0:0:
334,91,243825,1,8,0:0:0:0:
246,310,244338,1,8,0:0:0:0:
232,241,244594,2,8,P|282:243|233:209,2,140
182,91,246645,1,8,0:0:0:0:
314,163,246901,1,8,0:0:0:0:
314,163,247414,1,8,0:0:0:0:
182,91,247670,1,8,0:0:0:0:
182,91,247927,1,8,0:0:0:0:
246,310,248440,1,8,0:0:0:0:
232,241,248696,2,8,P|282:243|233:209,2,140
