osu file format v14

[General]
AudioFilename: audio.ogg
AudioLeadIn: 0
PreviewTime: 153104
Countdown: 0
SampleSet: Soft
StackLeniency: 0.7
Mode: 0
LetterboxInBreaks: 0
WidescreenStoryboard: 0

[Editor]
Bookmarks: 18163,34134,50067,66063,82149,98239,117952,137576,153228,169154,184804
DistanceSpacing: 0.4
BeatDivisor: 4
GridSize: 16
TimelineZoom: 1

[Metadata]
Title:Come As You Are
TitleUnicode:Come As You Are
Artist:Nirvana
ArtistUnicode:Nirvana
Creator:virt-
Version:Unarmed and Dangerous
Source:
Tags:xytoper kyrian visionary english rock grunge -doodle nevermind herestotheroc florescence aishiteiru-
BeatmapID:4014146
BeatmapSetID:1919661

[Difficulty]
HPDrainRate:5
CircleSize:4
OverallDifficulty:7
ApproachRate:7
SliderMultiplier:1.4
SliderTickRate:1

[Events]
//Background and Video events
0,0,"Kurt-Cobain-HD-Background-.jpg",0,0
//Break Periods
//Storyboard Layer 0 (Background)
//Storyboard Layer 1 (Fail)
//Storyboard Layer 2 (Pass)
//Storyboard Layer 3 (Foreground)
//Storyboard Layer 4 (Overlay)
//Storyboard Sound Samples

[TimingPoints]
-1950,500,4,2,1,60,1,0
2050,502.643064782314,4,2,1,60,1,0
4060,525.960535427825,4,2,1,60,1,0
6164,496.405199017118,4,2,1,60,1,0
8150,503.402159595265,4,2,1,60,1,0
9409,-100,4,2,1,60,0,0
9911,-100,4,2,2,60,0,0
10163,500.763664588498,4,2,1,60,1,0
10538,-100,4,2,1,5,0,0
10663,-100,4,2,2,60,0,0
11164,-100,4,2,1,60,0,0
11414,-100,4,2,2,60,0,0
12166,501.483555518409,4,2,1,60,1,0
12416,-100,4,2,2,60,0,0
14172,500.600720865038,4,2,1,60,1,0
14547,-100,4,2,1,5,0,0
14672,-100,4,2,2,60,0,0
15173,-100,4,2,1,60,0,0
15423,-100,4,2,2,60,0,0
16175,497.059067185817,4,2,1,60,1,0
16424,-100,4,2,2,60,0,0
18163,497.079657015037,4,2,3,60,1,0
18411,-100,4,2,2,60,0,0
18535,-100,4,2,2,5,0,0
18660,-100,4,2,2,60,0,0
19157,-100,4,2,4,60,0,0
19405,-100,4,2,2,60,0,0
19654,-100,4,2,3,60,0,0
19902,-100,4,2,5,60,0,0
20151,501.768734790135,4,2,1,60,1,0
20401,-100,4,2,2,60,0,0
21154,-100,4,2,3,60,0,0
21405,-100,4,2,2,60,0,0
21656,-100,4,2,3,60,0,0
21907,-100,4,2,5,60,0,0
22158,497.7931171805,4,2,1,60,1,0
22531,-100,4,2,1,5,0,0
22655,-100,4,2,2,60,0,0
23153,-100,4,2,4,60,0,0
23402,-100,4,2,5,60,0,0
23651,-100,4,2,2,60,0,0
23900,-100,4,2,5,60,0,0
24149,501.739363125502,4,2,1,60,1,0
24399,-100,4,2,2,60,0,0
24901,-100,4,2,5,60,0,0
25152,-100,4,2,2,60,0,0
25654,-100,4,2,3,60,0,0
25905,-100,4,2,5,60,0,0
26156,500.61325123276,4,2,1,60,1,0
26531,-100,4,2,1,5,0,0
26656,-100,4,2,2,60,0,0
27157,-100,4,2,4,60,0,0
27407,-100,4,2,2,60,0,0
27657,-100,4,2,3,60,0,0
27908,-100,4,2,5,60,0,0
28159,502.092050209205,4,2,1,60,1,0
28410,-100,4,2,2,60,0,0
29163,-100,4,2,3,60,0,0
29414,-100,4,2,2,60,0,0
29665,-100,4,2,3,60,0,0
29916,-100,4,2,5,60,0,0
30167,494.531307952888,4,2,1,60,1,0
30537,-100,4,2,1,5,0,0
30661,-100,4,2,2,60,0,0
31156,-100,4,2,4,60,0,0
31403,-100,4,2,5,60,0,0
31650,-100,4,2,2,60,0,0
31897,-100,4,2,5,60,0,0
32145,497.170272532171,4,2,1,60,1,0
32393,-100,4,2,2,60,0,0
32890,-100,4,2,5,60,0,0
33139,-100,4,2,2,60,0,0
33636,-100,4,2,3,60,0,0
33885,-100,4,2,5,60,0,0
34134,501.257320445451,4,2,3,60,1,0
34384,-100,4,2,2,60,0,0
34635,-100,4,2,2,60,0,0
35136,-100,4,2,4,60,0,0
35387,-100,4,2,2,60,0,0
35637,-100,4,2,3,60,0,0
35888,-100,4,2,5,60,0,0
36139,503.499320275918,4,2,1,60,1,0
36390,-100,4,2,2,60,0,0
37145,-100,4,2,3,60,0,0
37397,-100,4,2,2,60,0,0
37649,-100,4,2,3,60,0,0
37901,-100,4,2,5,60,0,0
38153,495.184332367724,4,2,1,60,1,0
38648,-100,4,2,2,60,0,0
39143,-100,4,2,4,60,0,0
39390,-100,4,2,5,60,0,0
39638,-100,4,2,2,60,0,0
39885,-100,4,2,5,60,0,0
40134,494.364247577615,4,2,1,60,1,0
40381,-100,4,2,2,60,0,0
40628,-100,4,2,2,60,0,0
40875,-100,4,2,5,60,0,0
41122,-100,4,2,2,60,0,0
41369,-100,4,2,2,60,0,0
41617,-100,4,2,3,60,0,0
41864,-100,4,2,5,60,0,0
42111,499.122376488009,4,2,1,60,1,0
42610,-100,4,2,2,60,0,0
43109,-100,4,2,4,60,0,0
43358,-100,4,2,2,60,0,0
43608,-100,4,2,3,60,0,0
43857,-100,4,2,5,60,0,0
44108,504.570568398745,4,2,1,60,1,0
44360,-100,4,2,2,60,0,0
45117,-100,4,2,3,60,0,0
45369,-100,4,2,2,60,0,0
45621,-100,4,2,3,60,0,0
45873,-100,4,2,5,60,0,0
46126,496.048149740402,4,2,1,60,1,0
46622,-100,4,2,2,60,0,0
47118,-100,4,2,4,60,0,0
47366,-100,4,2,5,60,0,0
47614,-100,4,2,2,60,0,0
47862,-100,4,2,5,60,0,0
48110,489.161007345568,4,2,1,60,1,0
48354,-100,4,2,2,60,0,0
48843,-100,4,2,5,60,0,0
49088,-100,4,2,2,60,0,0
49577,-100,4,2,3,60,0,0
49822,-100,4,2,5,60,0,0
50067,502.954859801333,4,2,3,60,1,0
50569,-100,4,2,2,60,0,0
51072,-100,4,2,6,60,0,0
51324,-100,4,2,2,60,0,0
51826,-100,4,2,3,60,0,0
52079,498.376124461131,4,2,3,60,1,0
52328,-100,4,2,1,60,0,0
52452,-100,4,2,1,60,0,0
54072,499.812570286143,4,2,3,60,1,0
54571,-100,4,2,2,60,0,0
55071,-100,4,2,6,60,0,0
55320,-100,4,2,2,60,0,0
55821,-100,4,2,3,60,0,0
56071,501.705799719045,4,2,3,60,1,0
56321,-100,4,2,1,60,0,0
58078,499.875031242189,4,2,3,60,1,0
58453,-100,4,2,3,5,0,0
58577,-100,4,2,4,60,0,0
59077,-100,4,2,6,60,0,0
59327,-100,4,2,2,60,0,0
59826,-100,4,2,3,60,0,0
60078,500.638313850159,4,2,3,60,1,0
60328,-100,4,2,1,60,0,0
60578,-100,4,2,1,60,0,0
62080,502.192909036124,4,2,3,60,1,0
62582,-100,4,2,2,60,0,0
63084,-100,4,2,6,60,0,0
63335,-100,4,2,2,60,0,0
63837,-100,4,2,3,60,0,0
64089,493.473808877594,4,2,3,60,1,0
64335,-100,4,2,2,60,0,0
64459,-100,4,2,2,60,0,0
66063,508.927435429832,4,2,1,60,1,0
66571,-100,4,2,2,60,0,0
67080,-100,4,2,4,60,0,0
67335,-100,4,2,2,60,0,0
67589,-100,4,2,3,60,0,0
67843,-100,4,2,5,60,0,0
68099,502.05843960237,4,2,1,60,1,0
68350,-100,4,2,2,60,0,0
68475,-100,4,2,2,5,0,0
68601,-100,4,2,2,60,0,0
69103,-100,4,2,3,60,0,0
69354,-100,4,2,2,60,0,0
69605,-100,4,2,3,60,0,0
69856,-100,4,2,5,60,0,0
70107,501.38717117358,4,2,1,60,1,0
70608,-100,4,2,2,60,0,0
71109,-100,4,2,4,60,0,0
71360,-100,4,2,5,60,0,0
71610,-100,4,2,2,60,0,0
71861,-100,4,2,5,60,0,0
72112,501.274071598647,4,2,1,60,1,0
72362,-100,4,2,2,60,0,0
72863,-100,4,2,5,60,0,0
73113,-100,4,2,2,60,0,0
73615,-100,4,2,3,60,0,0
73866,-100,4,2,5,60,0,0
74117,501.676435421701,4,2,1,60,1,0
74618,-100,4,2,2,60,0,0
75120,-100,4,2,4,60,0,0
75370,-100,4,2,2,60,0,0
75622,-100,4,2,3,60,0,0
75872,-100,4,2,5,60,0,0
76124,506.863780359029,4,2,1,60,1,0
76377,-100,4,2,2,60,0,0
77137,-100,4,2,3,60,0,0
77390,-100,4,2,2,60,0,0
77644,-100,4,2,3,60,0,0
77898,-100,4,2,5,60,0,0
78152,502.092050209205,4,2,1,60,1,0
78654,-100,4,2,2,60,0,0
79156,-100,4,2,4,60,0,0
79407,-100,4,2,5,60,0,0
79658,-100,4,2,2,60,0,0
79909,-100,4,2,5,60,0,0
80160,497.438193304482,4,2,1,60,1,0
80408,-100,4,2,2,60,0,0
80906,-100,4,2,5,60,0,0
81154,-100,4,2,2,60,0,0
82150,508.065540454719,4,2,3,60,1,0
82531,-100,4,2,3,5,0,0
82658,-100,4,2,2,60,0,0
83166,-100,4,2,6,60,0,0
83420,-100,4,2,2,60,0,0
83928,-100,4,2,3,60,0,0
84182,498.960498960499,4,2,3,60,1,0
84431,-100,4,2,1,60,0,0
86178,506.898037459765,4,2,1,60,1,0
86558,-100,4,2,1,5,0,0
86684,-100,4,2,2,60,0,0
87191,-100,4,2,6,60,0,0
87445,-100,4,2,2,60,0,0
87951,-100,4,2,3,60,0,0
88205,502.335861757171,4,2,3,60,1,0
88456,-100,4,2,1,60,0,0
90215,505.046253819412,4,2,1,60,1,0
90593,-100,4,2,1,5,0,0
90720,-100,4,2,4,60,0,0
91225,-100,4,2,6,60,0,0
91477,-100,4,2,2,60,0,0
91982,-100,4,2,3,60,0,0
92235,502.908487418906,4,2,3,60,1,0
92486,-100,4,2,1,60,0,0
94247,497.314501690869,4,2,1,60,1,0
94744,-100,4,2,2,60,0,0
95240,-100,4,2,6,60,0,0
95490,-100,4,2,2,60,0,0
95987,-100,4,2,3,60,0,0
96236,500.901622921258,4,2,2,60,1,0
98239,492.695784987559,4,2,2,60,1,0
98731,-100,4,2,6,60,0,0
99223,-100,4,2,7,60,0,0
99717,-100,4,2,6,60,0,0
100210,495.057674219047,4,2,2,60,1,0
100705,-100,4,2,6,60,0,0
100952,-100,4,2,3,60,0,0
101200,-100,4,2,8,60,0,0
101447,-100,4,2,7,60,0,0
101695,-100,4,2,6,60,0,0
101942,-100,4,2,1,60,0,0
102190,492.16231513153,4,2,1,60,1,0
102682,-100,4,2,6,60,0,0
102928,-100,4,2,3,60,0,0
103174,-100,4,2,7,60,0,0
103666,-100,4,2,9,60,0,0
104159,493.52657640614,4,2,2,60,1,0
104652,-100,4,2,6,60,0,0
105145,-100,4,2,7,60,0,0
105639,-100,4,2,6,60,0,0
105886,-100,4,2,1,60,0,0
106133,489.959904947778,4,2,9,60,1,0
106622,-100,4,2,6,60,0,0
106867,-100,4,2,3,60,0,0
107111,-100,4,2,7,60,0,0
107602,-100,4,2,9,60,0,0
108093,491.251627271015,4,2,2,60,1,0
108584,-100,4,2,6,60,0,0
109075,-100,4,2,7,60,0,0
109566,-100,4,2,6,60,0,0
109812,-100,4,2,2,60,0,0
110058,491.70654953124,4,2,2,60,1,0
110549,-100,4,2,6,60,0,0
110795,-100,4,2,3,60,0,0
111041,-100,4,2,7,60,0,0
111533,-100,4,2,9,60,0,0
112025,489.963905992259,4,2,2,60,1,0
112514,-100,4,2,6,60,0,0
113003,-100,4,2,8,60,0,0
113494,-100,4,2,6,60,0,0
113738,-100,4,2,2,60,0,0
113985,496.651739522718,4,2,2,60,1,0
114481,-100,4,2,10,60,0,0
114729,-100,4,2,7,60,0,0
114854,-100,4,2,1,60,0,0
114978,-100,4,2,10,60,0,0
115226,-100,4,2,2,60,0,0
115474,-100,4,2,10,60,0,0
115723,-100,4,2,2,60,0,0
115971,495.180245609402,4,2,10,60,1,0
116218,-100,4,2,2,60,0,0
116466,-100,4,2,10,60,0,0
116713,-100,4,2,2,60,0,0
116961,-100,4,2,10,60,0,0
117208,-100,4,2,2,60,0,0
117456,-100,4,2,10,60,0,0
117704,-100,4,2,2,60,0,0
117952,490.200083334014,4,2,10,60,1,0
118319,-100,4,2,10,5,0,0
118442,-100,4,2,10,60,0,0
118809,-100,4,2,1,60,0,0
118932,-100,4,2,10,60,0,0
119177,-100,4,2,2,60,0,0
119422,-100,4,2,10,60,0,0
119667,-100,4,2,2,60,0,0
119913,493.896265321074,4,2,10,60,1,0
120159,-100,4,2,2,60,0,0
120406,-100,4,2,10,60,0,0
120653,-100,4,2,2,60,0,0
120899,-100,4,2,10,60,0,0
121147,-100,4,2,2,60,0,0
121394,-100,4,2,10,60,0,0
121641,-100,4,2,2,60,0,0
121888,490.15603300384,4,2,3,60,1,1
122255,-100,4,2,3,5,0,1
122378,-100,4,2,10,60,0,1
122623,-100,4,2,7,60,0,1
122745,-100,4,2,1,60,0,1
122868,-100,4,2,10,60,0,1
123113,-100,4,2,2,60,0,1
123358,-100,4,2,10,60,0,1
123603,-100,4,2,2,60,0,1
123849,492.134057317213,4,2,11,60,1,1
124095,-100,4,2,2,60,0,1
124341,-100,4,2,10,60,0,1
124587,-100,4,2,2,60,0,1
124833,-100,4,2,10,60,0,1
124956,-100,4,2,10,5,0,1
125079,-100,4,2,2,60,0,1
125325,-100,4,2,10,60,0,1
125571,-100,4,2,2,60,0,1
125818,490.05594805407,4,2,11,60,1,1
126186,-100,4,2,11,5,0,1
126308,-100,4,2,10,60,0,1
126553,-100,4,2,3,60,0,1
126675,-100,4,2,1,60,0,1
126798,-100,4,2,10,60,0,1
127043,-100,4,2,2,60,0,1
127288,-100,4,2,10,60,0,1
127533,-100,4,2,2,60,0,1
127778,488.559563553457,4,2,11,60,1,1
128022,-100,4,2,2,60,0,1
128266,-100,4,2,10,60,0,1
128510,-100,4,2,2,60,0,1
128755,-100,4,2,10,60,0,1
128999,-100,4,2,2,60,0,1
129243,-100,4,2,10,60,0,1
129487,-100,4,2,2,60,0,1
129732,488.909893906553,4,2,3,60,1,1
130098,-100,4,2,3,5,0,1
130220,-100,4,2,10,60,0,1
130464,-100,4,2,7,60,0,1
130587,-100,4,2,1,60,0,1
130709,-100,4,2,10,60,0,1
130954,-100,4,2,2,60,0,1
131198,-100,4,2,10,60,0,1
131443,-100,4,2,2,60,0,1
131688,492.849574095826,4,2,11,60,1,1
131934,-100,4,2,2,60,0,1
132180,-100,4,2,10,60,0,1
132427,-100,4,2,2,60,0,1
132673,-100,4,2,10,60,0,1
132920,-100,4,2,2,60,0,1
133166,-100,4,2,10,60,0,1
133412,-100,4,2,2,60,0,1
133659,487.424449210372,4,2,11,60,1,1
134024,-100,4,2,11,5,0,1
134146,-100,4,2,10,60,0,1
134389,-100,4,2,3,60,0,1
134511,-100,4,2,1,60,0,1
134633,-100,4,2,10,60,0,1
134877,-100,4,2,2,60,0,1
135121,-100,4,2,10,60,0,1
135364,-100,4,2,2,60,0,1
135609,491.871818204176,4,2,11,60,1,1
135854,-100,4,2,2,60,0,1
136100,-100,4,2,10,60,0,1
136346,-100,4,2,2,60,0,1
136591,-100,4,2,10,60,0,1
136838,-100,4,2,2,60,0,1
137084,-100,4,2,10,60,0,1
137330,-100,4,2,2,60,0,1
137576,491.476970208304,4,2,3,60,1,1
137944,-100,4,2,3,5,0,1
138067,-100,4,2,10,60,0,1
138312,-100,4,2,3,60,0,1
138436,-100,4,2,1,60,0,1
138558,-100,4,2,10,60,0,1
138804,-100,4,2,2,60,0,1
139050,-100,4,2,10,60,0,1
139296,-100,4,2,2,60,0,1
139542,489.823908304964,4,2,11,60,1,1
139786,-100,4,2,2,60,0,1
140031,-100,4,2,10,60,0,1
140276,-100,4,2,2,60,0,1
140521,-100,4,2,10,60,0,1
140766,-100,4,2,2,60,0,1
141011,-100,4,2,10,60,0,1
141256,-100,4,2,2,60,0,1
141502,489.12910562743,4,2,11,60,1,1
141991,-100,4,2,10,60,0,1
142235,-100,4,2,3,60,0,1
142357,-100,4,2,1,60,0,1
142480,-100,4,2,10,60,0,1
142724,-100,4,2,2,60,0,1
142969,-100,4,2,10,60,0,1
143213,-100,4,2,2,60,0,1
143458,489.400402939665,4,2,11,60,1,1
143702,-100,4,2,2,60,0,1
143947,-100,4,2,10,60,0,1
144192,-100,4,2,2,60,0,1
144436,-100,4,2,10,60,0,1
144681,-100,4,2,2,60,0,1
144926,-100,4,2,10,60,0,1
145170,-100,4,2,2,60,0,1
145416,484.413980187468,4,2,3,60,1,1
145900,-100,4,2,10,60,0,1
146142,-100,4,2,3,60,0,1
146263,-100,4,2,1,60,0,1
146384,-100,4,2,10,60,0,1
146627,-100,4,2,2,60,0,1
146869,-100,4,2,10,60,0,1
147111,-100,4,2,2,60,0,1
147353,491.328059745492,4,2,11,60,1,1
147598,-100,4,2,2,60,0,1
147844,-100,4,2,10,60,0,1
148089,-100,4,2,2,60,0,1
148334,-100,4,2,10,60,0,1
148581,-100,4,2,2,60,0,1
148826,-100,4,2,10,60,0,1
149072,-100,4,2,2,60,0,1
149319,484.222419498023,4,2,11,60,1,1
149682,-100,4,2,11,5,0,1
149803,-100,4,2,10,60,0,1
150045,-100,4,2,3,60,0,1
150166,-100,4,2,1,60,0,1
150287,-100,4,2,10,60,0,1
150529,-100,4,2,2,60,0,1
150771,-100,4,2,10,60,0,1
151013,-100,4,2,2,60,0,1
151255,493.137174323991,4,2,11,60,1,1
151501,-100,4,2,2,60,0,1
151748,-100,4,2,10,60,0,1
151994,-100,4,2,2,60,0,1
152240,-100,4,2,10,60,0,1
152487,-100,4,2,2,60,0,1
152734,-100,4,2,10,60,0,1
152980,-100,4,2,2,60,0,1
153228,496.331284588086,4,2,3,60,1,0
153600,-100,4,2,3,5,0,0
153724,-100,4,2,2,60,0,0
154220,-100,4,2,6,60,0,0
154468,-100,4,2,2,60,0,0
154964,-100,4,2,3,60,0,0
155213,494.922915755871,4,2,3,60,1,0
155460,-100,4,2,1,60,0,0
157193,501.865265904947,4,2,3,60,1,0
157569,-100,4,2,3,5,0,0
157694,-100,4,2,2,60,0,0
158196,-100,4,2,6,60,0,0
158447,-100,4,2,2,60,0,0
158949,-100,4,2,3,60,0,0
159201,498.214730548867,4,2,3,60,1,0
159450,-100,4,2,1,60,0,0
161193,497.207352039379,4,2,3,60,1,0
161690,-100,4,2,4,60,0,0
162187,-100,4,2,6,60,0,0
162436,-100,4,2,2,60,0,0
162933,-100,4,2,3,60,0,0
163182,497.776597862879,4,2,3,60,1,0
163430,-100,4,2,1,60,0,0
165173,496.191728483886,4,2,3,60,1,0
165545,-100,4,2,3,5,0,0
165669,-100,4,2,2,60,0,0
165917,-100,4,2,3,60,0,0
166165,-100,4,2,6,60,0,0
166413,-100,4,2,2,60,0,0
166909,-100,4,2,3,60,0,0
167158,499.085010813509,4,2,2,60,1,0
169154,494.943328988831,4,2,2,60,1,0
169648,-100,4,2,6,60,0,0
170143,-100,4,2,7,60,0,0
170638,-100,4,2,6,60,0,0
171009,-100,4,2,6,5,0,0
171134,490.007921794736,4,2,2,60,1,0
171624,-100,4,2,6,60,0,0
171869,-100,4,2,3,60,0,0
172114,-100,4,2,8,60,0,0
172359,-100,4,2,7,60,0,0
172604,-100,4,2,6,60,0,0
172849,-100,4,2,1,60,0,0
173094,493.624023035788,4,2,9,60,1,0
173587,-100,4,2,6,60,0,0
173833,-100,4,2,3,60,0,0
174081,-100,4,2,7,60,0,0
174574,-100,4,2,9,60,0,0
174944,-100,4,2,9,5,0,0
175069,487.658184123475,4,2,2,60,1,0
175556,-100,4,2,6,60,0,0
176043,-100,4,2,7,60,0,0
176531,-100,4,2,6,60,0,0
176775,-100,4,2,1,60,0,0
177019,487.111832758271,4,2,9,60,1,0
177506,-100,4,2,6,60,0,0
177749,-100,4,2,3,60,0,0
177993,-100,4,2,7,60,0,0
178480,-100,4,2,9,60,0,0
178845,-100,4,2,9,5,0,0
178968,486.586433970221,4,2,2,60,1,0
179454,-100,4,2,6,60,0,0
179940,-100,4,2,7,60,0,0
180427,-100,4,2,6,60,0,0
180671,-100,4,2,2,60,0,0
180914,487.808843974341,4,2,2,60,1,0
181401,-100,4,2,6,60,0,0
181645,-100,4,2,3,60,0,0
181888,-100,4,2,7,60,0,0
182377,-100,4,2,9,60,0,0
182865,484.730974309258,4,2,12,60,1,0
183349,-100,4,2,6,60,0,0
183834,-100,4,2,7,60,0,0
184319,-100,4,2,6,60,0,0
184561,-100,4,2,2,60,0,0
184804,488.309067085527,4,2,2,60,1,0
185292,-100,4,2,6,60,0,0
185536,-100,4,2,3,60,0,0
185658,-100,4,2,3,5,0,0
185780,-100,4,2,7,60,0,0
186268,-100,4,2,9,60,0,0
186634,-100,4,2,9,5,0,0
186758,487.155337598649,4,2,12,60,1,0
187245,-100,4,2,6,60,0,0
187732,-100,4,2,7,60,0,0
188219,-100,4,2,6,60,0,0
188463,-100,4,2,2,60,0,0
188706,487.345267877449,4,2,2,60,1,0
189193,-100,4,2,6,60,0,0
189437,-100,4,2,3,60,0,0
189680,-100,4,2,7,60,0,0
190168,-100,4,2,9,60,0,0
190656,487.951660255524,4,2,2,60,1,0
191021,-100,4,2,2,5,0,0
191143,-100,4,2,6,60,0,0
191631,-100,4,2,8,60,0,0
192119,-100,4,2,6,60,0,0
192363,-100,4,2,2,60,0,0
192607,494.258365322833,4,2,3,60,1,0
193101,-100,4,2,10,60,0,0
193471,-100,4,2,1,60,0,0
193595,-100,4,2,10,60,0,0
193842,-100,4,2,2,60,0,0
194089,-100,4,2,10,60,0,0
194336,-100,4,2,2,60,0,0
194584,493.766201703493,4,2,10,60,1,0
194830,-100,4,2,2,60,0,0
195077,-100,4,2,10,60,0,0
195324,-100,4,2,2,60,0,0
195571,-100,4,2,10,60,0,0
195818,-100,4,2,2,60,0,0
196065,-100,4,2,10,60,0,0
196311,-100,4,2,9,60,0,0
196559,490.79754601227,4,2,6,60,1,0
197049,-100,4,2,10,60,0,0
197417,-100,4,2,1,60,0,0
197540,-100,4,2,10,60,0,0
197785,-100,4,2,2,60,0,0
198031,-100,4,2,10,60,0,0
198276,-100,4,2,2,60,0,0
198523,491.243583130695,4,2,10,60,1,0
198768,-100,4,2,2,60,0,0
199014,-100,4,2,10,60,0,0
199259,-100,4,2,2,60,0,0
199505,-100,4,2,10,60,0,0
199751,-100,4,2,2,60,0,0
199996,-100,4,2,10,60,0,0
200241,-100,4,2,2,60,0,0
200488,488.03897804638,4,2,3,60,1,0
200854,-100,4,2,3,5,0,0
200976,-100,4,2,10,60,0,0
201342,-100,4,2,1,60,0,0
201464,-100,4,2,10,60,0,0
201708,-100,4,2,2,60,0,0
201952,-100,4,2,10,60,0,0
202196,-100,4,2,2,60,0,0
202440,492.259223707204,4,2,10,60,1,0
202686,-100,4,2,2,60,0,0
202932,-100,4,2,10,60,0,0
203178,-100,4,2,2,60,0,0
203424,-100,4,2,10,60,0,0
203670,-100,4,2,2,60,0,0
203916,-100,4,2,10,60,0,0
204162,-100,4,2,9,60,0,0
204409,484.593950652183,4,2,6,60,1,0
204893,-100,4,2,10,60,0,0
205257,-100,4,2,1,60,0,0
205378,-100,4,2,10,60,0,0
205620,-100,4,2,2,60,0,0
205862,-100,4,2,10,60,0,0
206105,-100,4,2,2,60,0,0
206347,493.863742993308,4,2,10,60,1,0
206593,-100,4,2,2,60,0,0
206840,-100,4,2,10,60,0,0
207087,-100,4,2,2,60,0,0
207334,-100,4,2,10,60,0,0
207581,-100,4,2,1,60,0,0
207828,-100,4,2,9,60,0,0
208075,-100,4,2,2,60,0,0
208323,493.798711185364,4,2,12,60,1,0
208446,-100,4,2,12,5,0,0

[Colours]
Combo1 : 128,255,128
Combo2 : 255,128,192

[HitObjects]
256,192,1301,12,0,8906,0:0:0:0:
281,107,9409,5,8,2:3:0:0:
334,4,9659,1,4,2:3:0:0:
258,30,9911,1,4,2:3:0:0:
361,80,10163,2,0,P|428:96|484:99,1,105,4|0,1:2|0:0,0:0:0:0:
496,84,10663,2,0,L|512:9,1,70,10|2,3:3|2:3,0:0:0:0:
284,105,11164,2,0,P|274:146|262:176,1,70,2|2,1:3|1:3,0:0:0:0:
311,247,11666,1,10,3:3:0:0:
311,247,11915,1,2,1:3:0:0:
443,346,12166,5,2,1:3:0:0:
354,368,12416,2,0,P|362:326|373:296,1,70,2|10,1:3|3:3,0:0:0:0:
450,265,12918,1,2,1:3:0:0:
450,265,13419,5,2,1:3:0:0:
291,342,13670,1,10,3:3:0:0:
371,300,13921,1,2,1:3:0:0:
291,342,14172,6,0,L|180:323,1,105,2|0,1:3|0:0,0:0:0:0:
177,288,14672,2,0,L|194:205,1,70,10|2,3:3|2:3,0:0:0:0:
43,139,15173,2,0,L|28:207,1,70,2|2,1:3|1:3,0:0:0:0:
51,293,15673,1,10,3:3:0:0:
51,293,15924,1,2,1:3:0:0:
191,219,16174,2,0,P|248:210|266:196,1,70,2|2,1:3|1:3,0:0:0:0:
339,129,16672,1,10,3:3:0:0:
312,30,16920,1,2,1:3:0:0:
312,30,17417,5,2,1:3:0:0:
418,8,17666,1,10,3:3:0:0:
443,106,17914,1,2,1:3:0:0:
457,246,18163,6,0,P|467:187|483:130,1,105,6|0,1:2|0:0,0:0:0:0:
443,106,18660,2,0,L|367:130,1,70,10|2,3:3|2:3,0:0:0:0:
146,163,19157,5,2,1:3:0:0:
182,234,19405,1,2,1:3:0:0:
302,327,19654,1,10,3:3:0:0:
345,236,19902,1,2,1:3:0:0:
154,322,20151,6,0,P|95:335|60:344,1,70,2|2,1:3|1:3,0:0:0:0:
345,236,20652,2,0,P|409:220|436:212,1,70,10|2,3:3|1:3,0:0:0:0:
263,297,21154,5,2,3:3:0:0:
252,349,21405,5,2,1:3:0:0:
216,199,21656,5,10,3:3:0:0:
279,127,21907,5,2,1:3:0:0:
211,42,22158,6,0,L|101:59,1,105,2|0,1:3|0:0,0:0:0:0:
67,43,22655,2,0,P|44:91|52:108,1,70,10|2,3:3|2:3,0:0:0:0:
161,189,23153,1,2,1:3:0:0:
28,248,23402,1,2,1:3:0:0:
81,183,23651,1,10,3:3:0:0:
81,183,23900,1,2,1:3:0:0:
81,183,24149,6,0,P|84:248|88:286,1,70,2|2,1:3|1:3,0:0:0:0:
48,102,24650,1,10,3:3:0:0:
117,34,24901,1,2,1:3:0:0:
16,80,25152,1,2,3:3:0:0:
147,134,25403,1,2,1:3:0:0:
267,46,25654,1,10,3:3:0:0:
419,155,25905,1,2,1:3:0:0:
456,17,26156,6,0,P|444:65|444:129,1,105,2|0,1:3|0:0,0:0:0:0:
419,155,26656,2,0,P|370:165|334:173,1,70,10|2,3:3|2:3,0:0:0:0:
142,147,27157,1,2,1:3:0:0:
221,178,27407,1,2,1:3:0:0:
400,272,27657,1,10,3:3:0:0:
330,297,27908,1,2,1:3:0:0:
472,356,28159,6,0,P|478:315|487:278,1,70,2|2,1:3|1:3,0:0:0:0:
227,275,28661,2,0,P|241:317|248:348,1,70,10|2,3:3|1:3,0:0:0:0:
352,374,29163,5,2,3:3:0:0:
397,309,29414,1,2,1:3:0:0:
344,217,29665,1,10,3:3:0:0:
344,217,29916,1,2,1:3:0:0:
383,0,30167,6,0,P|380:55|391:118,1,105,2|0,1:3|0:0,0:0:0:0:
430,120,30661,1,10,3:3:0:0:
280,75,30908,1,2,2:3:0:0:
276,86,31032,1,8,2:2:0:0:
273,95,31156,1,2,1:3:0:0:
188,158,31403,1,2,1:3:0:0:
285,226,31650,1,10,3:3:0:0:
285,226,31897,1,2,1:3:0:0:
80,281,32145,6,0,P|45:276|10:272,1,70,2|2,1:3|1:3,0:0:0:0:
164,355,32642,1,10,3:3:0:0:
256,312,32890,1,2,1:3:0:0:
285,226,33139,1,2,3:3:0:0:
285,226,33387,1,2,1:3:0:0:
209,157,33636,1,10,3:3:0:0:
144,208,33885,1,2,1:3:0:0:
181,244,34134,6,0,P|188:197|190:91,2,140,4|10|2,1:2|3:3|1:3,0:0:0:0:
121,295,35387,1,2,1:3:0:0:
272,262,35637,1,10,3:3:0:0:
277,271,35888,1,2,1:3:0:0:
433,227,36139,5,2,1:3:0:0:
367,265,36390,1,2,1:3:0:0:
338,103,36642,5,10,3:3:0:0:
272,141,36895,1,2,1:3:0:0:
272,141,37397,5,2,1:3:0:0:
130,208,37649,5,10,3:3:0:0:
200,349,37901,5,2,1:3:0:0:
270,311,38153,6,0,P|190:317|110:331,1,140,2|10,1:3|3:3,0:0:0:0:
62,305,38895,1,2,2:3:0:0:
226,238,39143,1,2,1:3:0:0:
147,216,39390,1,2,1:3:0:0:
214,44,39638,2,0,B|249:62|249:62|257:116,1,70,10|2,3:3|1:3,0:0:0:0:
46,192,40134,6,0,B|61:123|61:123|137:94,1,140,2|10,1:3|3:3,0:0:0:0:
267,181,40875,2,0,B|333:165|324:110|384:93,1,140,2|2,1:3|1:3,0:0:0:0:
500,196,41617,1,10,3:3:0:0:
412,244,41864,1,2,1:3:0:0:
485,275,42111,5,4,1:2:0:0:
485,275,42610,1,10,3:3:0:0:
412,244,42859,1,2,2:3:0:0:
310,269,43109,1,2,1:3:0:0:
235,287,43358,1,2,1:3:0:0:
141,247,43608,1,10,3:3:0:0:
71,222,43857,1,2,1:3:0:0:
1,249,44108,6,0,P|36:243|72:242,1,70,2|2,1:3|1:3,0:0:0:0:
146,171,44612,5,10,3:3:0:0:
126,327,44864,1,2,1:3:0:0:
260,249,45117,5,2,3:3:0:0:
228,318,45369,1,2,1:3:0:0:
338,328,45621,5,10,3:3:0:0:
326,344,45873,1,2,1:3:0:0:
407,375,46126,6,0,P|417:339|407:219,1,140,2|10,1:3|3:3,0:0:0:0:
351,193,46870,1,2,2:3:0:0:
351,193,46994,1,8,2:2:0:0:
351,193,47118,5,2,1:3:0:0:
462,169,47366,1,2,1:3:0:0:
438,49,47614,1,10,3:3:0:0:
323,74,47862,1,2,1:3:0:0:
332,77,48110,5,2,1:3:0:0:
398,117,48354,1,2,1:3:0:0:
357,184,48599,1,10,3:3:0:0:
289,140,48843,1,2,1:3:0:0:
293,130,49088,5,2,3:3:0:0:
275,138,49332,1,2,1:3:0:0:
346,245,49577,5,10,3:3:0:0:
350,17,49822,5,2,1:3:0:0:
165,137,50067,2,0,P|102:122|20:115,2,140,6|12|4,1:2|3:2|1:2,0:0:0:0:
257,148,51324,1,2,1:2:0:0:
353,161,51575,2,0,P|358:125|363:78,1,70,14|2,3:2|2:2,0:0:0:0:
489,167,52079,2,0,P|477:222|473:295,1,105,6|8,1:2|2:2,0:0:0:0:
453,299,52577,1,8,3:2:0:0:
444,303,52701,1,8,2:2:0:0:
448,311,52826,1,8,2:2:0:0:
337,334,53075,5,10,3:2:0:0:
311,319,53200,1,8,2:2:0:0:
271,315,53324,1,8,2:2:0:0:
228,334,53449,1,8,2:2:0:0:
184,344,53574,1,10,3:2:0:0:
141,339,53698,1,8,2:2:0:0:
116,323,53823,1,10,2:2:0:0:
92,294,53947,1,8,2:2:0:0:
91,250,54072,6,0,P|97:200|96:97,1,140,6|12,1:2|3:2,0:0:0:0:
19,41,54821,1,0,0:0:0:0:
188,140,55071,2,0,P|234:146|281:144,1,70,4|2,1:2|1:2,0:0:0:0:
412,162,55571,1,14,3:2:0:0:
412,162,56071,5,6,1:2:0:0:
424,33,56321,1,8,2:2:0:0:
272,18,56572,1,8,3:2:0:0:
284,26,56698,1,8,2:2:0:0:
279,36,56823,1,8,2:2:0:0:
256,143,57074,1,10,3:2:0:0:
246,162,57199,1,8,2:2:0:0:
256,195,57325,1,8,2:2:0:0:
281,225,57450,1,8,2:2:0:0:
288,269,57576,1,10,3:2:0:0:
272,316,57701,1,8,2:2:0:0:
249,331,57826,1,10,2:2:0:0:
267,354,57952,1,8,2:2:0:0:
238,366,58077,6,0,L|106:352,1,105,6|0,1:2|0:0,0:0:0:0:
23,260,58577,2,0,L|113:271,1,70,12|0,2:2|0:0,0:0:0:0:
201,281,59077,1,4,1:2:0:0:
338,299,59327,1,2,1:2:0:0:
493,311,59577,6,0,L|505:212,1,70,14|2,3:2|2:2,0:0:0:0:
391,79,60077,2,0,L|338:70,3,35,6|0|8|8,1:2|0:0|2:2|2:2,0:0:0:0:
478,158,60578,2,0,L|531:167,3,35,8|8|8|8,3:2|2:2|2:2|2:2,0:0:0:0:
317,154,61079,1,10,3:2:0:0:
289,151,61204,1,8,2:2:0:0:
258,148,61329,1,8,2:2:0:0:
219,143,61454,1,8,2:2:0:0:
170,139,61579,1,10,3:2:0:0:
129,136,61705,1,8,2:2:0:0:
88,130,61830,1,10,2:2:0:0:
54,126,61955,1,8,2:2:0:0:
18,123,62080,6,0,P|-6:207|4:283,2,140,6|12|4,1:2|3:2|1:2,0:0:0:0:
105,0,63335,1,2,1:2:0:0:
245,54,63586,2,0,P|287:67|319:69,1,70,14|2,3:2|2:2,0:0:0:0:
473,200,64089,2,0,P|414:183|365:176,1,105,6|8,1:2|2:2,0:0:0:0:
264,216,64582,5,8,3:2:0:0:
231,240,64705,1,8,2:2:0:0:
190,249,64829,1,8,2:2:0:0:
151,234,64952,1,8,2:2:0:0:
116,219,65075,1,4,3:3:0:0:
75,219,65199,1,4,2:3:0:0:
48,230,65322,1,4,2:3:0:0:
30,248,65446,1,0,1:1:0:0:
21,270,65569,2,0,P|24:313|22:352,1,70,8|0,3:2|1:1,0:0:0:0:
142,139,66063,6,0,P|133:69|133:0,2,140,6|10|2,1:2|3:3|1:3,0:0:0:0:
267,116,67335,1,2,1:3:0:0:
267,116,67589,2,0,P|273:160|285:207,1,70,10|2,3:3|1:3,0:0:0:0:
424,0,68099,6,0,P|371:4|319:12,1,105,2|0,1:3|0:0,0:0:0:0:
319,12,68601,1,10,3:3:0:0:
378,133,68852,1,2,1:3:0:0:
507,156,69103,2,0,P|499:111|493:79,1,70,2|2,3:3|1:3,0:0:0:0:
378,133,69605,1,10,3:3:0:0:
372,256,69856,2,0,P|406:252|440:244,1,70,2|2,1:3|1:3,0:0:0:0:
0,199,70608,6,0,P|33:190|69:184,1,70,10|2,3:3|2:3,0:0:0:0:
231,108,71109,1,2,1:3:0:0:
231,108,71360,2,0,P|196:115|162:121,1,70,2|10,1:3|3:3,0:0:0:0:
69,76,71861,5,2,1:3:0:0:
54,173,72112,1,2,1:3:0:0:
122,248,72362,1,2,1:3:0:0:
107,345,72613,1,10,3:3:0:0:
235,261,72863,6,0,B|275:249|321:245,1,70,2|2,1:3|3:3,0:0:0:0:
470,302,73365,5,2,1:3:0:0:
337,356,73615,1,10,3:3:0:0:
235,261,73866,1,2,1:3:0:0:
355,181,74117,6,0,P|346:145|332:106,1,70,4|2,1:2|2:3,0:0:0:0:
429,11,74618,6,0,P|445:47|457:78,1,70,10|2,3:3|2:3,0:0:0:0:
192,73,75120,6,0,P|179:29|173:4,1,70,2|2,1:3|1:3,0:0:0:0:
344,23,75622,1,10,3:3:0:0:
344,23,75872,1,2,1:3:0:0:
344,22,76124,2,0,P|310:32|278:46,1,70,2|2,1:3|1:3,0:0:0:0:
224,151,76630,1,10,3:3:0:0:
130,185,76884,1,2,1:3:0:0:
39,216,77137,2,0,P|32:250|23:284,1,70,2|2,3:3|1:3,0:0:0:0:
238,157,77644,5,10,3:3:0:0:
125,170,77898,1,2,1:3:0:0:
28,231,78152,2,0,P|18:264|6:297,1,70,2|2,1:3|2:3,0:0:0:0:
128,345,78654,5,10,3:3:0:0:
147,265,78905,1,2,2:3:0:0:
29,88,79156,6,0,P|17:120|4:153,1,70,2|2,1:3|1:3,0:0:0:0:
237,216,79658,5,10,3:3:0:0:
258,134,79909,1,2,1:3:0:0:
135,0,80160,5,2,1:3:0:0:
135,0,80408,2,0,P|123:43|114:81,1,70,2|10,1:3|3:3,0:0:0:0:
249,276,80906,5,2,1:3:0:0:
199,99,81154,1,2,3:3:0:0:
15,151,81403,1,2,1:3:0:0:
63,326,81652,1,10,2:2:0:0:
249,276,81901,1,2,1:2:0:0:
324,373,82150,6,0,P|338:293|347:245,1,105,6|0,1:2|0:0,0:0:0:0:
377,237,82658,2,0,P|437:222|468:217,2,70,12|0|4,3:2|0:0|1:2,0:0:0:0:
249,276,83420,1,2,1:2:0:0:
412,326,83674,1,14,3:2:0:0:
465,180,83928,1,2,2:2:0:0:
199,168,84182,6,0,P|217:227|223:252,1,70,6|8,1:2|2:2,0:0:0:0:
315,51,84680,1,8,3:2:0:0:
313,66,84805,1,8,2:2:0:0:
309,78,84930,1,8,2:2:0:0:
304,88,85055,1,8,2:2:0:0:
298,95,85179,1,10,3:2:0:0:
295,99,85304,1,8,2:2:0:0:
293,98,85429,1,8,2:2:0:0:
288,95,85554,1,8,2:2:0:0:
290,91,85678,2,0,P|336:101|346:103,1,35,10|8,3:2|2:2,0:0:0:0:
165,65,85928,2,0,P|206:75|213:76,1,35,10|8,2:2|2:2,0:0:0:0:
59,40,86178,6,0,P|86:90|65:155,1,105,6|0,1:2|0:0,0:0:0:0:
37,153,86684,1,12,3:2:0:0:
37,153,86938,1,0,0:0:0:0:
125,239,87191,1,4,1:2:0:0:
125,239,87445,1,2,1:2:0:0:
31,335,87698,2,0,P|21:283|44:248,1,70,14|2,3:2|2:2,0:0:0:0:
252,187,88205,6,0,P|254:238|232:266,1,70,6|8,1:2|2:2,0:0:0:0:
125,239,88707,5,8,3:2:0:0:
123,225,88832,1,8,2:2:0:0:
121,211,88958,1,8,2:2:0:0:
119,196,89084,1,8,2:2:0:0:
128,185,89209,1,10,3:2:0:0:
137,174,89335,1,8,2:2:0:0:
146,163,89460,1,8,2:2:0:0:
155,153,89586,1,8,2:2:0:0:
155,138,89712,1,10,3:2:0:0:
153,124,89837,1,8,2:2:0:0:
151,110,89963,1,10,2:2:0:0:
149,95,90089,1,8,2:2:0:0:
181,74,90215,6,0,P|237:70|302:64,1,105,6|0,1:2|0:0,0:0:0:0:
323,106,90720,1,12,2:2:0:0:
431,163,90972,1,0,0:0:0:0:
414,83,91225,1,4,1:2:0:0:
342,187,91477,1,2,1:2:0:0:
489,305,91730,2,0,B|506:338|506:338|477:368,1,70,14|2,3:2|2:2,0:0:0:0:
404,282,92235,2,0,P|353:289|318:298,1,70,6|8,1:2|2:2,0:0:0:0:
171,326,92737,1,8,3:2:0:0:
163,342,92863,1,8,2:2:0:0:
177,354,92989,1,8,2:2:0:0:
205,360,93115,1,8,2:2:0:0:
232,345,93240,1,10,3:2:0:0:
247,314,93366,1,8,2:2:0:0:
227,271,93492,1,8,2:2:0:0:
187,262,93617,1,8,2:2:0:0:
146,272,93743,1,10,3:2:0:0:
136,279,93869,1,8,2:2:0:0:
111,275,93995,1,10,2:2:0:0:
101,286,94120,1,8,2:2:0:0:
90,285,94247,6,0,P|40:298|12:304,1,70,6|0,1:2|0:0,0:0:0:0:
99,196,94744,1,12,3:2:0:0:
75,113,94992,2,0,P|41:122|8:131,1,70,0|4,0:0|1:2,0:0:0:0:
99,196,95490,1,2,1:2:0:0:
190,137,95738,1,14,3:2:0:0:
155,49,95987,1,2,2:2:0:0:
116,240,96236,5,10,2:2:0:0:
26,58,96486,1,0,1:1:0:0:
8,148,96736,5,8,2:2:0:0:
258,52,96987,1,0,1:1:0:0:
180,9,97237,5,8,3:2:0:0:
409,103,97488,1,0,1:1:0:0:
241,239,97738,5,8,2:2:0:0:
269,166,97989,1,0,1:1:0:0:
361,330,98239,6,0,P|323:331|278:334,1,70,4|0,1:2|1:1,0:0:0:0:
138,273,98731,2,0,P|109:242|122:135,1,140,10|2,2:3|1:3,0:0:0:0:
167,95,99470,1,2,1:2:0:0:
353,180,99717,2,0,P|368:196|361:254,1,70,10|0,2:3|0:0,0:0:0:0:
254,104,100209,6,0,P|240:46|234:20,1,70,6|0,1:2|1:1,0:0:0:0:
475,119,100705,2,0,B|405:122|422:172|343:181,1,140,10|2,2:3|1:3,0:0:0:0:
279,180,101447,1,2,1:2:0:0:
167,166,101695,1,10,2:3:0:0:
58,188,101942,1,8,2:2:0:0:
45,201,102066,1,8,2:2:0:0:
30,200,102190,5,6,1:2:0:0:
79,173,102436,1,0,1:1:0:0:
141,212,102682,1,10,2:3:0:0:
214,175,102928,2,0,P|223:216|223:251,1,70,2|2,2:2|1:3,0:0:0:0:
416,310,103420,2,0,P|418:270|440:166,1,140,2|0,1:2|0:0,0:0:0:0:
378,34,104159,5,4,1:2:0:0:
471,57,104405,1,0,1:1:0:0:
338,163,104652,2,0,P|286:173|190:200,1,140,10|2,2:3|1:3,0:0:0:0:
100,178,105392,1,2,1:2:0:0:
185,113,105639,1,10,2:3:0:0:
143,272,105886,1,10,2:2:0:0:
143,272,106009,1,8,2:2:0:0:
143,272,106133,5,6,1:2:0:0:
121,347,106377,1,0,1:1:0:0:
261,224,106622,5,10,2:3:0:0:
230,328,106867,2,0,P|268:337|312:348,1,70,2|2,2:2|1:3,0:0:0:0:
457,270,107357,1,2,1:2:0:0:
401,360,107602,1,10,2:3:0:0:
398,350,107847,1,0,0:0:0:0:
346,204,108092,6,0,P|393:198|425:195,1,70,4|0,1:2|1:1,0:0:0:0:
253,121,108584,2,0,P|295:108|317:5,1,140,10|2,2:3|1:3,0:0:0:0:
256,0,109321,1,2,1:2:0:0:
122,74,109566,1,10,2:3:0:0:
186,35,109812,1,10,2:2:0:0:
186,35,109935,1,8,2:2:0:0:
186,35,110058,5,6,1:2:0:0:
47,93,110303,5,0,1:1:0:0:
127,84,110549,5,10,2:3:0:0:
191,30,110795,5,2,2:2:0:0:
269,17,111041,5,2,1:3:0:0:
194,45,111287,5,2,1:2:0:0:
121,86,111533,5,10,2:3:0:0:
43,106,111778,5,0,0:0:0:0:
31,121,112025,6,0,P|28:168|31:200,1,70,4|0,1:2|1:1,0:0:0:0:
245,245,112514,2,0,P|220:190|139:168,1,140,10|2,2:3|1:3,0:0:0:0:
98,220,113249,1,0,1:1:0:0:
292,155,113494,2,0,P|291:113|280:71,1,70,10|0,2:3|1:1,0:0:0:0:
175,307,113985,6,0,B|233:346|233:346|326:311,1,140,4|10,1:2|3:3,0:0:0:0:
351,264,114729,1,0,1:1:0:0:
351,264,114854,1,8,2:2:0:0:
351,264,114978,1,2,1:3:0:0:
292,312,115226,1,0,1:1:0:0:
397,194,115474,1,10,3:3:0:0:
310,46,115723,1,0,1:1:0:0:
374,93,115971,5,2,1:3:0:0:
312,143,116218,1,0,1:1:0:0:
248,95,116466,1,10,3:3:0:0:
310,46,116713,2,0,P|362:40|459:34,1,140,0|0,1:1|1:1,0:0:0:0:
499,171,117456,1,10,3:3:0:0:
440,225,117704,1,0,1:1:0:0:
371,279,117952,6,0,P|378:319|381:397,1,105,2|0,1:3|0:0,0:0:0:0:
381,383,118442,2,0,L|470:376,1,70,10|0,3:3|1:1,0:0:0:0:
271,284,118809,1,8,2:2:0:0:
271,284,118932,2,0,L|182:291,1,70,2|0,1:3|1:1,0:0:0:0:
150,362,119422,5,10,3:3:0:0:
68,337,119667,1,0,1:1:0:0:
166,207,119912,5,2,1:3:0:0:
12,256,120159,1,0,1:1:0:0:
8,109,120406,5,10,3:3:0:0:
94,143,120653,2,0,P|89:91|84:52,1,70,0|2,1:1|3:3,0:0:0:0:
166,207,121147,5,2,1:2:0:0:
243,154,121394,1,10,3:3:0:0:
334,205,121641,1,0,1:1:0:0:
512,129,121888,6,0,P|461:139|409:135,1,105,6|0,1:2|0:0,0:0:0:0:
294,72,122378,1,10,3:3:0:0:
354,0,122623,1,2,1:2:0:0:
354,0,122745,1,8,2:2:0:0:
354,0,122868,1,2,1:3:0:0:
447,51,123113,1,2,1:2:0:0:
395,137,123358,1,10,3:3:0:0:
429,241,123603,5,2,1:2:0:0:
324,284,123849,1,2,1:3:0:0:
366,374,124095,1,0,1:1:0:0:
465,343,124341,1,10,3:3:0:0:
321,294,124587,2,0,P|273:314|209:313,1,105,2|0,1:2|0:0,0:0:0:0:
87,342,125079,1,2,1:2:0:0:
28,206,125325,2,0,P|35:157|31:103,1,70,10|2,3:3|1:2,0:0:0:0:
178,26,125817,6,0,P|161:103|165:142,1,105,2|0,1:3|0:0,0:0:0:0:
208,166,126308,2,0,P|255:180|295:199,1,70,10|2,3:3|2:2,0:0:0:0:
274,188,126675,1,8,2:2:0:0:
274,188,126798,1,2,1:3:0:0:
448,67,127043,1,2,1:2:0:0:
299,40,127288,1,10,3:3:0:0:
406,225,127533,1,2,1:2:0:0:
336,300,127778,5,2,1:3:0:0:
416,238,128022,1,0,1:1:0:0:
479,330,128266,1,10,3:3:0:0:
399,384,128510,1,0,1:1:0:0:
390,378,128999,5,2,1:2:0:0:
259,331,129243,1,10,3:3:0:0:
150,361,129487,1,2,1:2:0:0:
46,325,129732,6,0,P|18:277|8:224,1,105,6|0,1:2|0:0,0:0:0:0:
32,197,130220,2,0,P|64:179|93:163,1,70,10|2,3:3|1:2,0:0:0:0:
101,170,130587,1,8,2:2:0:0:
101,170,130709,1,2,1:3:0:0:
235,93,130954,1,2,1:2:0:0:
86,26,131198,5,10,3:3:0:0:
313,82,131443,1,2,1:2:0:0:
219,22,131688,1,2,1:3:0:0:
183,160,131934,1,0,1:1:0:0:
221,240,132180,1,10,3:3:0:0:
106,349,132427,5,2,1:2:0:0:
106,349,132920,1,2,1:2:0:0:
231,326,133166,1,10,3:3:0:0:
0,377,133412,1,2,1:2:0:0:
231,326,133659,6,0,P|257:345|342:343,1,105,2|0,1:3|0:0,0:0:0:0:
373,336,134146,2,0,L|448:350,1,70,10|2,3:3|2:2,0:0:0:0:
441,348,134511,1,8,2:2:0:0:
441,348,134633,1,2,1:3:0:0:
456,240,134877,1,2,1:2:0:0:
464,120,135121,1,10,3:3:0:0:
472,12,135364,1,2,1:2:0:0:
444,136,135609,2,0,L|367:119,1,70,2|0,1:3|1:1,0:0:0:0:
166,9,136100,5,10,3:3:0:0:
166,9,136346,2,0,L|246:30,1,70,2|2,1:2|3:3,0:0:0:0:
289,81,136838,5,2,1:2:0:0:
248,262,137084,1,10,3:3:0:0:
62,222,137330,1,2,1:2:0:0:
248,262,137576,2,0,P|296:273|351:288,1,105,6|0,1:2|0:0,0:0:0:0:
365,307,138067,6,0,P|360:343|355:376,1,70,10|2,3:3|2:2,0:0:0:0:
355,376,138436,1,8,2:2:0:0:
355,376,138558,1,2,1:3:0:0:
416,269,138804,1,2,1:2:0:0:
369,156,139050,1,10,3:3:0:0:
444,51,139296,1,2,1:2:0:0:
449,70,139541,5,2,1:3:0:0:
429,105,139786,1,0,1:1:0:0:
320,150,140031,1,10,3:3:0:0:
189,23,140276,1,2,1:2:0:0:
189,23,140766,5,2,1:2:0:0:
196,187,141011,1,10,3:3:0:0:
208,350,141256,1,2,1:2:0:0:
198,339,141501,2,0,P|167:356|137:374,1,70,2|0,1:3|0:0,0:0:0:0:
18,273,141991,2,0,P|50:259|80:241,1,70,10|2,3:3|2:2,0:0:0:0:
89,101,142357,1,8,2:2:0:0:
89,101,142480,2,0,P|57:116|26:131,1,70,2|2,1:3|1:2,0:0:0:0:
173,146,142969,5,10,3:3:0:0:
212,52,143213,1,2,1:2:0:0:
303,178,143458,5,2,1:3:0:0:
241,342,143702,1,0,1:1:0:0:
165,230,143947,1,10,3:3:0:0:
327,305,144192,2,0,P|369:278|400:264,1,70,2|2,1:2|3:3,0:0:0:0:
509,122,144681,1,2,1:2:0:0:
509,122,144926,2,0,P|461:142|426:161,1,70,10|2,3:3|1:2,0:0:0:0:
279,97,145293,1,0,0:0:0:0:
279,97,145416,2,0,P|331:77|368:58,1,70,6|0,1:2|0:0,0:0:0:0:
326,184,145900,5,10,3:3:0:0:
268,4,146142,1,2,2:2:0:0:
268,4,146263,1,8,2:2:0:0:
268,4,146384,1,2,1:3:0:0:
452,41,146627,1,2,1:2:0:0:
326,184,146869,1,10,3:3:0:0:
268,4,147111,1,2,1:2:0:0:
362,66,147353,5,2,1:3:0:0:
346,95,147598,1,0,1:1:0:0:
332,65,147844,1,10,3:3:0:0:
445,150,148089,2,0,P|456:182|478:219,1,70,2|2,1:2|3:3,0:0:0:0:
439,320,148581,2,0,P|405:330|375:348,1,70,2|10,1:2|3:3,0:0:0:0:
163,248,149072,1,2,1:2:0:0:
278,303,149319,6,0,P|258:254|232:208,1,105,2|0,1:3|0:0,0:0:0:0:
204,172,149803,2,0,P|187:140|173:108,1,70,10|2,3:3|2:2,0:0:0:0:
171,96,150166,1,8,2:2:0:0:
171,96,150287,1,2,1:3:0:0:
328,24,150529,1,2,1:2:0:0:
390,179,150771,1,10,3:3:0:0:
237,241,151013,1,2,1:2:0:0:
390,179,151255,5,2,1:3:0:0:
430,37,151501,1,0,1:1:0:0:
323,104,151748,1,10,3:3:0:0:
481,159,151994,2,0,P|472:193|469:228,1,70,2|2,1:2|3:3,0:0:0:0:
233,8,152487,5,2,1:2:0:0:
133,83,152734,2,0,P|126:121|116:163,1,70,10|2,3:3|1:2,0:0:0:0:
390,179,153228,6,0,P|376:245|371:296,1,105,6|0,1:2|0:0,0:0:0:0:
399,321,153724,2,0,P|445:349|468:340,1,70,12|0,3:2|0:0,0:0:0:0:
290,262,154220,1,4,1:2:0:0:
213,305,154468,1,2,1:2:0:0:
56,278,154716,2,0,P|107:260|136:277,1,70,14|2,3:2|2:2,0:0:0:0:
282,368,155213,5,6,1:2:0:0:
349,319,155460,1,8,2:2:0:0:
258,245,155707,1,8,3:2:0:0:
269,236,155831,1,8,2:2:0:0:
272,223,155955,1,8,2:2:0:0:
262,206,156079,1,8,2:2:0:0:
238,200,156202,5,10,3:2:0:0:
213,183,156326,1,8,2:2:0:0:
205,167,156450,1,8,2:2:0:0:
208,157,156574,1,8,2:2:0:0:
219,158,156697,2,0,P|212:110|212:97,1,35,10|8,3:2|2:2,0:0:0:0:
330,87,156945,2,0,P|326:110|325:121,1,35,10|8,2:2|2:2,0:0:0:0:
438,34,157193,6,0,P|446:92|454:159,1,105,6|0,1:2|0:0,0:0:0:0:
436,179,157694,2,0,P|482:191|507:196,1,70,12|0,3:2|0:0,0:0:0:0:
381,243,158196,1,4,1:2:0:0:
300,211,158447,1,2,1:2:0:0:
101,264,158698,1,14,3:2:0:0:
101,264,158949,1,2,2:2:0:0:
19,219,159201,6,0,P|37:162|46:135,1,70,6|8,1:2|2:2,0:0:0:0:
122,54,159699,1,8,3:2:0:0:
128,62,159823,1,8,2:2:0:0:
133,69,159948,1,8,2:2:0:0:
139,78,160072,1,8,2:2:0:0:
157,93,160197,1,10,3:2:0:0:
182,88,160321,1,8,2:2:0:0:
200,66,160446,1,8,2:2:0:0:
244,47,160571,1,8,2:2:0:0:
302,70,160695,1,10,3:2:0:0:
333,125,160820,1,8,2:2:0:0:
303,184,160944,1,10,2:2:0:0:
236,206,161069,1,8,2:2:0:0:
177,180,161193,6,0,P|255:161|336:150,1,140,6|12,1:2|2:2,0:0:0:0:
510,220,161938,1,0,0:0:0:0:
510,220,162187,1,4,1:2:0:0:
456,294,162436,1,2,1:2:0:0:
387,244,162684,1,14,3:2:0:0:
435,173,162933,1,2,2:2:0:0:
379,257,163182,6,0,P|334:268|311:273,1,70,6|8,1:2|2:2,0:0:0:0:
158,321,163679,1,8,3:2:0:0:
138,313,163804,1,8,2:2:0:0:
135,298,163928,1,8,2:2:0:0:
144,289,164053,1,8,2:2:0:0:
160,282,164177,1,10,3:2:0:0:
181,273,164301,1,8,2:2:0:0:
218,240,164426,1,8,2:2:0:0:
224,182,164550,1,8,2:2:0:0:
167,139,164675,1,10,3:2:0:0:
112,172,164799,1,8,2:2:0:0:
118,204,164924,1,10,2:2:0:0:
129,210,165048,1,8,2:2:0:0:
142,203,165173,6,0,P|132:135|145:75,1,105,6|0,1:2|0:0,0:0:0:0:
172,68,165669,2,0,P|229:75|258:79,1,70,12|2,3:2|2:2,0:0:0:0:
321,39,166165,1,6,1:2:0:0:
88,12,166413,1,2,1:2:0:0:
28,79,166661,1,14,3:2:0:0:
97,132,166909,1,2,2:2:0:0:
39,230,167158,5,10,3:2:0:0:
92,345,167407,1,0,1:1:0:0:
206,189,167657,5,8,3:2:0:0:
166,282,167906,1,0,1:1:0:0:
306,232,168156,5,8,3:2:0:0:
339,349,168405,1,0,1:1:0:0:
437,179,168655,5,8,3:2:0:0:
415,266,168904,1,0,1:1:0:0:
504,228,169154,5,4,1:2:0:0:
425,226,169401,5,0,1:1:0:0:
313,240,169648,5,10,2:3:0:0:
234,220,169896,5,0,0:0:0:0:
159,214,170143,5,2,1:3:0:0:
115,232,170391,5,2,1:2:0:0:
25,246,170638,6,0,P|8:209|13:128,1,105,10|0,2:3|0:0,0:0:0:0:
12,133,171133,5,6,1:2:0:0:
101,112,171379,1,0,1:1:0:0:
204,83,171624,2,0,P|203:137|198:178,1,70,10|2,2:3|2:2,0:0:0:0:
134,282,172114,1,2,1:3:0:0:
226,273,172359,1,2,1:2:0:0:
113,128,172604,1,10,2:3:0:0:
218,14,172849,1,8,2:2:0:0:
218,14,172971,1,8,2:2:0:0:
218,14,173094,5,6,1:2:0:0:
277,69,173340,1,0,1:1:0:0:
213,111,173587,2,0,P|201:149|212:196,1,70,10|2,2:3|2:2,0:0:0:0:
318,219,174081,1,2,1:3:0:0:
395,240,174328,1,2,1:2:0:0:
511,274,174574,2,0,P|512:320|461:361,1,105,10|0,2:3|0:0,0:0:0:0:
449,359,175069,6,0,P|412:343|371:335,1,70,4|0,1:2|1:1,0:0:0:0:
217,365,175556,2,0,P|202:322|209:202,1,140,10|2,2:3|1:3,0:0:0:0:
310,111,176288,1,2,1:2:0:0:
175,139,176531,1,10,2:3:0:0:
36,171,176775,1,10,2:2:0:0:
36,171,176897,1,8,2:2:0:0:
36,171,177019,5,6,1:2:0:0:
102,159,177262,1,0,1:1:0:0:
172,131,177506,1,10,2:3:0:0:
243,121,177749,1,2,2:2:0:0:
310,93,177993,1,2,1:3:0:0:
383,66,178236,1,2,1:2:0:0:
497,13,178480,2,0,P|477:56|478:142,1,105,10|0,2:3|0:0,0:0:0:0:
489,130,178968,6,0,P|502:172|496:203,1,70,4|0,1:2|1:1,0:0:0:0:
331,332,179454,2,0,P|339:285|430:249,1,140,10|2,2:3|1:3,0:0:0:0:
485,271,180184,1,2,1:2:0:0:
312,294,180427,1,10,2:3:0:0:
169,224,180671,1,10,2:2:0:0:
169,224,180792,1,8,2:2:0:0:
169,224,180914,5,6,1:2:0:0:
108,167,181157,1,0,1:1:0:0:
36,194,181401,2,0,P|32:253|47:338,1,140,10|2,2:3|1:3,0:0:0:0:
109,370,182133,1,2,1:2:0:0:
278,274,182377,2,0,P|282:215|267:130,1,140,10|4,2:3|1:2,0:0:0:0:
207,93,183107,5,0,1:1:0:0:
355,11,183349,5,10,2:3:0:0:
361,19,183592,1,0,0:0:0:0:
499,112,183834,5,2,1:3:0:0:
504,119,184076,1,2,1:2:0:0:
484,296,184319,5,10,2:3:0:0:
343,352,184561,1,10,2:2:0:0:
343,352,184682,1,8,2:2:0:0:
343,352,184804,6,0,B|297:343|249:344,1,70,6|0,1:2|1:1,0:0:0:0:
17,290,185292,2,0,B|82:291|144:281,1,105,10|0,2:3|0:0,0:0:0:0:
215,263,185780,1,2,1:3:0:0:
179,355,186024,1,2,1:2:0:0:
215,263,186268,2,0,B|229:207|205:135,1,105,10|0,2:3|0:0,0:0:0:0:
183,121,186757,2,0,L|187:50,1,70,4|0,1:2|1:1,0:0:0:0:
15,6,187245,6,0,P|6:60|19:161,1,140,10|2,2:3|1:3,0:0:0:0:
88,191,187975,1,2,1:2:0:0:
167,164,188219,1,10,2:3:0:0:
255,182,188463,1,10,2:2:0:0:
255,182,188584,1,8,2:2:0:0:
255,182,188706,5,6,1:2:0:0:
403,166,188949,1,0,1:1:0:0:
397,22,189193,1,10,2:3:0:0:
238,31,189437,1,2,2:2:0:0:
397,22,189680,2,0,L|475:12,1,70,2|2,1:3|1:2,0:0:0:0:
419,146,190168,2,0,L|339:152,1,70,10|0,2:3|0:0,0:0:0:0:
159,202,190656,6,0,P|112:218|36:205,1,105,4|0,1:2|0:0,0:0:0:0:
35,204,191143,2,0,L|26:129,1,70,10|0,2:3|0:0,0:0:0:0:
167,283,191631,2,0,L|176:358,1,70,2|0,1:3|1:1,0:0:0:0:
85,363,192119,1,10,2:3:0:0:
174,352,192363,1,0,1:1:0:0:
279,354,192607,5,4,1:2:0:0:
279,354,192730,1,0,0:0:0:0:
279,354,192854,1,0,0:0:0:0:
265,175,193101,2,0,L|257:88,1,70,10|0,3:3|0:0,0:0:0:0:
404,42,193471,1,8,2:2:0:0:
404,42,193595,2,0,L|410:111,1,70,2|0,1:3|1:1,0:0:0:0:
473,317,194089,5,10,3:3:0:0:
484,229,194336,1,0,1:1:0:0:
365,279,194584,5,2,1:3:0:0:
335,158,194830,1,0,1:1:0:0:
190,327,195077,5,10,3:3:0:0:
219,233,195324,1,0,1:1:0:0:
104,165,195818,5,0,1:1:0:0:
82,175,196065,2,0,L|5:167,1,70,10|0,3:3|1:1,0:0:0:0:
158,48,196559,2,0,B|250:60|325:67,1,140,4|10,1:2|3:3,0:0:0:0:
488,181,197295,1,0,0:0:0:0:
488,181,197417,1,8,2:2:0:0:
488,181,197540,2,0,L|396:169,1,70,2|0,1:3|1:1,0:0:0:0:
279,151,198031,1,10,3:3:0:0:
418,171,198276,1,0,1:1:0:0:
356,114,198523,5,2,1:3:0:0:
351,219,198768,1,0,1:1:0:0:
292,290,199014,1,10,3:3:0:0:
351,384,199259,2,0,P|424:372|497:369,1,140,0|0,1:1|1:1,0:0:0:0:
512,237,199996,2,0,L|437:246,1,70,10|0,3:3|1:1,0:0:0:0:
152,224,200488,6,0,P|121:162|127:101,1,105,4|0,1:2|0:0,0:0:0:0:
112,102,200976,2,0,L|36:90,1,70,10|0,3:3|0:0,0:0:0:0:
212,63,201342,1,8,2:2:0:0:
212,63,201464,2,0,L|310:81,1,70,2|0,1:3|1:1,0:0:0:0:
410,101,201952,1,10,3:3:0:0:
357,28,202196,1,0,1:1:0:0:
335,152,202440,6,0,B|317:185|317:185|325:233,1,70,2|0,1:3|1:1,0:0:0:0:
385,341,202932,1,10,3:3:0:0:
463,261,203178,2,0,P|479:223|480:102,1,140,0|0,1:1|1:1,0:0:0:0:
274,22,203916,2,0,L|283:97,1,70,10|0,3:3|1:1,0:0:0:0:
217,183,204409,6,0,P|164:208|81:206,1,140,4|10,1:2|3:3,0:0:0:0:
29,148,205135,1,0,0:0:0:0:
29,148,205257,1,8,2:2:0:0:
29,148,205378,1,2,1:3:0:0:
113,120,205620,1,0,1:1:0:0:
191,148,205862,1,10,3:3:0:0:
260,115,206105,1,0,1:1:0:0:
386,148,206347,5,2,1:3:0:0:
368,131,206593,1,0,1:1:0:0:
350,134,206840,1,10,3:3:0:0:
339,129,207087,1,0,1:1:0:0:
341,315,207334,5,10,2:3:0:0:
392,51,207581,1,8,2:2:0:0:
110,10,207828,1,4,1:2:0:0:
63,246,208075,1,4,1:2:0:0:
512,145,208323,5,4,1:2:0:0:
256,192,208447,12,0,219186,0:0:0:0:
