osu file format v14

[General]
AudioFilename: audio.mp3
AudioLeadIn: 0
PreviewTime: -1
Countdown: 0
SampleSet: Normal
StackLeniency: 0.7
Mode: 3
LetterboxInBreaks: 0
EpilepsyWarning: 1
CountdownOffset: 3
SpecialStyle: 1
WidescreenStoryboard: 0

[Editor]
DistanceSpacing: 1.3
BeatDivisor: 9
GridSize: 16
TimelineZoom: 1.1

[Metadata]
Title:Wozwald
TitleUnicode:Wozwald
Artist:Niru Kajitsu (Miyashita Yuu cover)
ArtistUnicode:Niru Kajitsu (Miyashita Yuu cover)
Creator:Sakura__
Version:Insane
Source:
Tags:Wozwald Niru Kajitsu Miyashita Yuu Utattemita Japanese J-Rock
BeatmapID:2416525
BeatmapSetID:1157908

[Difficulty]
HPDrainRate:6
CircleSize:4
OverallDifficulty:4
ApproachRate:5
SliderMultiplier:1.4
SliderTickRate:1

[Events]
//Background and Video events
0,0,"tumblr_5a64458f825b4403c201233377fe1f82_7e68e6c4_1280.png",0,0
Video,0,"Wozwald.mp4"
//Break Periods
2,193629,206042
//Storyboard Layer 0 (Background)
//Storyboard Layer 1 (Fail)
//Storyboard Layer 2 (Pass)
//Storyboard Layer 3 (Foreground)
//Storyboard Layer 4 (Overlay)
//Storyboard Sound Samples

[TimingPoints]
0,431.654676258993,4,1,1,70,1,0
158896,666.666666666667,4,1,1,70,1,0
162377,600,4,1,1,70,1,0
162798,571.428571428571,4,1,1,70,1,0
163264,545.454545454546,4,1,1,70,1,0
164370,504.201680672269,4,1,1,70,1,0
165826,431.654676258993,4,1,1,70,1,0
288393,402.684563758389,4,1,1,70,1,0
288661,377.358490566038,4,1,1,70,1,0
288870,355.029585798817,4,1,1,70,1,0
289067,335.195530726257,4,1,1,70,1,0
289253,317.460317460317,4,1,1,70,1,0
289499,301.507537688442,4,1,1,70,1,0
289733,300,4,1,1,70,1,0

[HitObjects]
448,192,13860,5,0,0:0:0:0:
320,192,14100,1,0,0:0:0:0:
192,192,14532,1,0,0:0:0:0:
64,192,14964,1,0,0:0:0:0:
192,192,15155,1,0,0:0:0:0:
320,192,15587,1,0,0:0:0:0:
448,192,15827,1,0,0:0:0:0:
320,192,16258,1,0,0:0:0:0:
192,192,16690,1,0,0:0:0:0:
64,192,16882,1,0,0:0:0:0:
192,192,17314,1,0,0:0:0:0:
320,192,17553,1,0,0:0:0:0:
448,192,17937,1,0,0:0:0:0:
320,192,18369,1,0,0:0:0:0:
192,192,18609,1,0,0:0:0:0:
64,192,18800,1,0,0:0:0:0:
448,192,18800,1,0,0:0:0:0:
448,192,19280,1,0,0:0:0:0:
64,192,19280,1,0,0:0:0:0:
192,192,19712,1,0,0:0:0:0:
320,192,19712,1,0,0:0:0:0:
448,192,20143,1,0,0:0:0:0:
64,192,20143,1,0,0:0:0:0:
192,192,20767,1,0,0:0:0:0:
64,192,20767,1,0,0:0:0:0:
320,192,21007,1,0,0:0:0:0:
448,192,21007,1,0,0:0:0:0:
192,192,21438,1,0,0:0:0:0:
320,192,21438,1,0,0:0:0:0:
192,192,21870,1,0,0:0:0:0:
64,192,21870,1,0,0:0:0:0:
448,192,22062,1,0,0:0:0:0:
320,192,22062,1,0,0:0:0:0:
448,192,22494,1,0,0:0:0:0:
320,192,22494,1,0,0:0:0:0:
192,192,22733,1,0,0:0:0:0:
64,192,22733,1,0,0:0:0:0:
192,192,23165,1,0,0:0:0:0:
320,192,23165,1,0,0:0:0:0:
320,192,23597,1,0,0:0:0:0:
448,192,23597,1,0,0:0:0:0:
192,192,23788,1,0,0:0:0:0:
64,192,23788,1,0,0:0:0:0:
192,192,24220,1,0,0:0:0:0:
320,192,24220,1,0,0:0:0:0:
64,192,24460,1,0,0:0:0:0:
448,192,24460,1,0,0:0:0:0:
64,192,24892,1,0,0:0:0:0:
448,192,24892,1,0,0:0:0:0:
64,192,25323,1,0,0:0:0:0:
448,192,25323,1,0,0:0:0:0:
320,192,25515,1,0,0:0:0:0:
192,192,25515,1,0,0:0:0:0:
448,192,25707,1,0,0:0:0:0:
192,192,25707,1,0,0:0:0:0:
320,192,26187,1,0,0:0:0:0:
64,192,26187,1,0,0:0:0:0:
192,192,26618,1,0,0:0:0:0:
448,192,26618,1,0,0:0:0:0:
320,192,27050,1,0,0:0:0:0:
64,192,27050,1,0,0:0:0:0:
64,192,27673,1,0,0:0:0:0:
320,192,27673,128,0,28968:0:0:0:0:
448,192,27913,1,0,0:0:0:0:
192,192,28345,1,0,0:0:0:0:
64,192,28776,1,0,0:0:0:0:
448,192,28968,1,0,0:0:0:0:
64,192,29400,128,0,30695:0:0:0:0:
192,192,29400,1,0,0:0:0:0:
320,192,29640,1,0,0:0:0:0:
192,192,30071,1,0,0:0:0:0:
448,192,30503,1,0,0:0:0:0:
320,192,30695,1,0,0:0:0:0:
448,192,31127,128,0,32422:0:0:0:0:
192,192,31127,1,0,0:0:0:0:
320,192,31366,1,0,0:0:0:0:
320,192,31798,1,0,0:0:0:0:
64,192,32230,1,0,0:0:0:0:
192,192,32422,1,0,0:0:0:0:
64,192,32613,1,0,0:0:0:0:
448,192,32613,1,0,0:0:0:0:
320,192,32613,1,0,0:0:0:0:
320,192,33093,1,0,0:0:0:0:
448,192,33093,1,0,0:0:0:0:
192,192,33093,1,0,0:0:0:0:
64,192,33525,1,0,0:0:0:0:
192,192,33525,1,0,0:0:0:0:
320,192,33525,1,0,0:0:0:0:
64,192,33956,1,0,0:0:0:0:
192,192,33956,1,0,0:0:0:0:
448,192,33956,1,0,0:0:0:0:
192,192,34580,128,0,34820:0:0:0:0:
320,192,34580,1,0,0:0:0:0:
64,192,34820,128,0,35251:0:0:0:0:
320,192,34820,1,0,0:0:0:0:
448,192,35251,128,0,35683:0:0:0:0:
192,192,35251,1,0,0:0:0:0:
64,192,35683,128,0,35875:0:0:0:0:
320,192,35683,1,0,0:0:0:0:
192,192,35875,128,0,36306:0:0:0:0:
448,192,35875,1,0,0:0:0:0:
448,192,36306,128,0,36546:0:0:0:0:
320,192,36306,1,0,0:0:0:0:
320,192,36546,128,0,36978:0:0:0:0:
64,192,36546,1,0,0:0:0:0:
64,192,36978,128,0,37410:0:0:0:0:
448,192,36978,1,0,0:0:0:0:
448,192,37410,128,0,37601:0:0:0:0:
192,192,37410,1,0,0:0:0:0:
192,192,37601,128,0,38033:0:0:0:0:
320,192,37601,1,0,0:0:0:0:
320,192,38033,128,0,38273:0:0:0:0:
64,192,38033,1,0,0:0:0:0:
64,192,38273,128,0,38705:0:0:0:0:
448,192,38273,1,0,0:0:0:0:
192,192,38705,128,0,39136:0:0:0:0:
448,192,39136,128,0,39328:0:0:0:0:
320,192,39136,1,0,0:0:0:0:
64,192,39328,128,0,39520:0:0:0:0:
192,192,39328,1,0,0:0:0:0:
320,192,39520,128,0,40000:0:0:0:0:
448,192,39520,1,0,0:0:0:0:
448,192,40000,128,0,40431:0:0:0:0:
64,192,40000,1,0,0:0:0:0:
192,192,40431,128,0,40863:0:0:0:0:
320,192,40431,1,0,0:0:0:0:
448,192,40863,1,0,0:0:0:0:
192,192,41247,1,0,0:0:0:0:
448,192,41486,1,0,0:0:0:0:
320,192,41486,1,0,0:0:0:0:
64,192,41678,1,0,0:0:0:0:
192,192,41678,1,0,0:0:0:0:
192,192,41918,1,0,0:0:0:0:
448,192,42158,1,0,0:0:0:0:
192,192,42350,1,0,0:0:0:0:
192,192,42541,1,0,0:0:0:0:
64,192,42781,1,0,0:0:0:0:
192,192,43021,128,0,43261:0:0:0:0:
192,192,43405,1,0,0:0:0:0:
448,192,43405,1,0,0:0:0:0:
64,192,43645,1,0,0:0:0:0:
320,192,43645,1,0,0:0:0:0:
320,192,43836,1,0,0:0:0:0:
64,192,43836,1,0,0:0:0:0:
192,192,44076,1,0,0:0:0:0:
448,192,44076,1,0,0:0:0:0:
192,192,44700,1,0,0:0:0:0:
320,192,44700,1,0,0:0:0:0:
64,192,44940,1,0,0:0:0:0:
448,192,44940,1,0,0:0:0:0:
192,192,45179,1,0,0:0:0:0:
320,192,45179,1,0,0:0:0:0:
448,192,45371,128,0,46235:0:0:0:0:
64,192,45371,1,0,0:0:0:0:
320,192,45611,1,0,0:0:0:0:
192,192,45611,1,0,0:0:0:0:
64,192,45851,1,0,0:0:0:0:
192,192,45851,1,0,0:0:0:0:
64,192,46235,128,0,46666:0:0:0:0:
192,192,46666,1,0,0:0:0:0:
320,192,46906,1,0,0:0:0:0:
64,192,47290,1,0,0:0:0:0:
448,192,47290,1,0,0:0:0:0:
64,192,47769,1,0,0:0:0:0:
192,192,47769,1,0,0:0:0:0:
320,192,47865,1,0,0:0:0:0:
64,192,47961,1,0,0:0:0:0:
192,192,47961,1,0,0:0:0:0:
448,192,48105,1,0,0:0:0:0:
320,192,48105,1,0,0:0:0:0:
192,192,48201,1,0,0:0:0:0:
64,192,48393,1,0,0:0:0:0:
320,192,48393,1,0,0:0:0:0:
448,192,48393,1,0,0:0:0:0:
64,192,48585,1,0,0:0:0:0:
192,192,48681,1,0,0:0:0:0:
320,192,48776,1,0,0:0:0:0:
448,192,49016,1,8,0:0:0:0:
192,192,49448,1,0,0:0:0:0:
64,192,49544,1,0,0:0:0:0:
320,192,49544,1,0,0:0:0:0:
448,192,49640,1,0,0:0:0:0:
64,192,49640,1,0,0:0:0:0:
448,192,49784,1,0,0:0:0:0:
64,192,49928,1,0,0:0:0:0:
448,192,49928,1,0,0:0:0:0:
320,192,50119,1,0,0:0:0:0:
192,192,50119,1,0,0:0:0:0:
192,192,50311,1,0,0:0:0:0:
64,192,50407,1,0,0:0:0:0:
320,192,50503,1,0,0:0:0:0:
448,192,50743,1,8,0:0:0:0:
192,192,51223,1,0,0:0:0:0:
64,192,51414,1,0,0:0:0:0:
320,192,51606,1,0,0:0:0:0:
320,192,51846,1,0,0:0:0:0:
192,192,51846,1,0,0:0:0:0:
64,192,51942,1,0,0:0:0:0:
448,192,51942,1,0,0:0:0:0:
64,192,52038,1,0,0:0:0:0:
192,192,52134,1,0,0:0:0:0:
320,192,52230,1,0,0:0:0:0:
448,192,52470,1,0,0:0:0:0:
64,192,52565,1,0,0:0:0:0:
448,192,52565,1,0,0:0:0:0:
448,192,52661,1,0,0:0:0:0:
320,192,52901,1,0,0:0:0:0:
192,192,52997,1,0,0:0:0:0:
64,192,53333,1,0,0:0:0:0:
192,192,53333,1,0,0:0:0:0:
448,192,53333,1,0,0:0:0:0:
448,192,53764,128,0,54004:0:0:0:0:
320,192,54004,128,0,54244:0:0:0:0:
64,192,54244,128,0,54484:0:0:0:0:
192,192,54484,1,0,0:0:0:0:
448,192,54580,1,0,0:0:0:0:
320,192,54580,1,0,0:0:0:0:
64,192,54676,1,0,0:0:0:0:
192,192,54676,1,0,0:0:0:0:
448,192,54820,1,0,0:0:0:0:
320,192,54820,1,0,0:0:0:0:
320,192,55299,1,4,0:0:0:0:
448,192,55299,1,4,0:0:0:0:
64,192,55299,1,4,0:0:0:0:
192,192,55299,1,4,0:0:0:0:
192,192,55491,1,0,0:0:0:0:
320,192,55587,1,0,0:0:0:0:
192,192,55731,1,0,0:0:0:0:
448,192,55731,1,0,0:0:0:0:
64,192,55827,1,0,0:0:0:0:
320,192,55827,1,0,0:0:0:0:
192,192,55923,1,0,0:0:0:0:
448,192,55923,1,0,0:0:0:0:
448,192,56163,128,0,56354:0:0:0:0:
320,192,56163,1,0,0:0:0:0:
64,192,56354,1,0,0:0:0:0:
64,192,56594,128,0,56786:0:0:0:0:
192,192,56594,1,0,0:0:0:0:
448,192,56786,1,0,0:0:0:0:
448,192,57026,1,0,0:0:0:0:
320,192,57122,1,0,0:0:0:0:
192,192,57218,1,0,0:0:0:0:
64,192,57314,1,0,0:0:0:0:
448,192,57458,1,0,0:0:0:0:
320,192,57553,1,0,0:0:0:0:
192,192,57649,1,0,0:0:0:0:
64,192,57745,1,0,0:0:0:0:
64,192,58129,1,0,0:0:0:0:
192,192,58129,1,0,0:0:0:0:
320,192,58321,1,0,0:0:0:0:
192,192,58321,1,0,0:0:0:0:
448,192,58513,1,0,0:0:0:0:
320,192,58513,1,0,0:0:0:0:
320,192,58752,128,0,58944:0:0:0:0:
192,192,58752,1,0,0:0:0:0:
64,192,58848,1,0,0:0:0:0:
192,192,58944,1,0,0:0:0:0:
320,192,59184,1,0,0:0:0:0:
192,192,59184,128,0,59376:0:0:0:0:
448,192,59280,1,0,0:0:0:0:
320,192,59376,1,0,0:0:0:0:
448,192,59616,1,0,0:0:0:0:
64,192,59712,1,0,0:0:0:0:
192,192,59952,1,0,0:0:0:0:
320,192,59952,1,0,0:0:0:0:
320,192,60191,1,0,0:0:0:0:
448,192,60239,1,0,0:0:0:0:
192,192,60287,1,0,0:0:0:0:
64,192,60335,1,0,0:0:0:0:
448,192,60479,1,0,0:0:0:0:
192,192,60479,1,0,0:0:0:0:
320,192,60575,1,0,0:0:0:0:
192,192,60671,1,0,0:0:0:0:
448,192,60671,1,0,0:0:0:0:
64,192,60863,1,0,0:0:0:0:
192,192,60863,1,0,0:0:0:0:
192,192,61103,1,0,0:0:0:0:
320,192,61103,1,0,0:0:0:0:
448,192,61103,1,0,0:0:0:0:
192,192,61247,1,0,0:0:0:0:
448,192,61247,1,0,0:0:0:0:
320,192,61534,1,0,0:0:0:0:
448,192,61534,1,0,0:0:0:0:
192,192,61774,1,0,0:0:0:0:
320,192,61774,1,0,0:0:0:0:
64,192,62014,1,0,0:0:0:0:
192,192,62014,1,0,0:0:0:0:
192,192,62398,1,0,0:0:0:0:
320,192,62446,1,0,0:0:0:0:
448,192,62494,1,0,0:0:0:0:
64,192,62541,1,0,0:0:0:0:
192,192,62733,1,0,0:0:0:0:
320,192,62733,1,0,0:0:0:0:
448,192,62829,1,0,0:0:0:0:
64,192,62829,1,0,0:0:0:0:
320,192,63069,1,0,0:0:0:0:
192,192,63069,1,0,0:0:0:0:
320,192,63261,1,0,0:0:0:0:
192,192,63453,1,0,0:0:0:0:
448,192,63453,1,0,0:0:0:0:
192,192,63693,1,0,0:0:0:0:
64,192,63884,1,0,0:0:0:0:
320,192,63884,1,0,0:0:0:0:
64,192,64124,1,0,0:0:0:0:
192,192,64364,1,0,0:0:0:0:
64,192,64364,1,0,0:0:0:0:
320,192,64556,1,0,0:0:0:0:
448,192,64796,1,0,0:0:0:0:
192,192,64796,1,0,0:0:0:0:
320,192,65035,1,0,0:0:0:0:
64,192,65227,1,0,0:0:0:0:
192,192,65227,1,0,0:0:0:0:
320,192,65659,1,0,0:0:0:0:
448,192,65659,1,0,0:0:0:0:
448,192,65851,1,0,0:0:0:0:
64,192,66091,1,0,0:0:0:0:
192,192,66091,1,0,0:0:0:0:
64,192,66282,1,0,0:0:0:0:
192,192,66522,1,0,0:0:0:0:
320,192,66522,1,0,0:0:0:0:
64,192,66762,1,0,0:0:0:0:
448,192,66762,1,0,0:0:0:0:
64,192,66954,1,0,0:0:0:0:
448,192,66954,1,0,0:0:0:0:
192,192,67194,1,0,0:0:0:0:
320,192,67194,1,0,0:0:0:0:
64,192,67625,1,0,0:0:0:0:
320,192,67625,1,0,0:0:0:0:
448,192,67625,1,0,0:0:0:0:
320,192,68057,1,0,0:0:0:0:
192,192,68057,1,0,0:0:0:0:
64,192,68057,1,0,0:0:0:0:
64,192,68489,1,0,0:0:0:0:
192,192,68489,1,0,0:0:0:0:
448,192,68489,1,0,0:0:0:0:
192,192,68872,1,0,0:0:0:0:
320,192,68872,1,0,0:0:0:0:
64,192,69064,1,4,0:0:0:0:
192,192,69064,1,4,0:0:0:0:
448,192,69064,1,4,0:0:0:0:
320,192,69064,1,4,0:0:0:0:
64,192,72565,1,4,0:0:0:0:
192,192,72565,1,4,0:0:0:0:
320,192,76019,1,4,0:0:0:0:
448,192,76019,1,4,0:0:0:0:
192,192,76690,1,0,0:0:0:0:
320,192,77122,1,0,0:0:0:0:
448,192,77122,1,0,0:0:0:0:
192,192,77314,1,0,0:0:0:0:
320,192,77314,1,0,0:0:0:0:
64,192,77505,1,0,0:0:0:0:
192,192,77505,1,0,0:0:0:0:
192,192,77985,1,0,0:0:0:0:
448,192,78369,1,0,0:0:0:0:
64,192,78561,1,0,0:0:0:0:
320,192,78800,1,0,0:0:0:0:
320,192,79040,1,0,0:0:0:0:
64,192,79280,1,0,0:0:0:0:
192,192,79472,1,0,0:0:0:0:
192,192,80095,1,0,0:0:0:0:
64,192,80527,1,0,0:0:0:0:
448,192,80527,1,0,0:0:0:0:
192,192,80767,1,0,0:0:0:0:
320,192,80767,1,0,0:0:0:0:
64,192,80959,1,0,0:0:0:0:
448,192,80959,1,0,0:0:0:0:
192,192,81390,1,0,0:0:0:0:
320,192,81390,1,0,0:0:0:0:
64,192,81630,1,0,0:0:0:0:
448,192,81630,1,0,0:0:0:0:
192,192,81822,1,0,0:0:0:0:
320,192,81822,1,0,0:0:0:0:
192,192,82062,128,8,82589:0:0:0:0:
64,192,82062,128,8,82685:0:0:0:0:
448,192,82062,128,8,82398:0:0:0:0:
320,192,82062,128,8,82494:0:0:0:0:
192,192,82925,1,0,0:0:0:0:
448,192,82925,1,0,0:0:0:0:
64,192,83165,1,0,0:0:0:0:
320,192,83165,1,0,0:0:0:0:
192,192,83357,1,0,0:0:0:0:
448,192,83357,1,0,0:0:0:0:
320,192,83549,128,0,84220:0:0:0:0:
64,192,83836,1,0,0:0:0:0:
192,192,83836,1,0,0:0:0:0:
448,192,83836,1,0,0:0:0:0:
192,192,84220,1,0,0:0:0:0:
64,192,84652,1,0,0:0:0:0:
320,192,84652,1,0,0:0:0:0:
192,192,84892,1,0,0:0:0:0:
448,192,84892,1,0,0:0:0:0:
64,192,85083,1,0,0:0:0:0:
320,192,85083,1,0,0:0:0:0:
64,192,85275,128,0,86187:0:0:0:0:
448,192,85515,1,0,0:0:0:0:
192,192,85755,1,0,0:0:0:0:
320,192,85995,1,0,0:0:0:0:
448,192,86187,128,0,87242:0:0:0:0:
64,192,86378,1,0,0:0:0:0:
320,192,86378,1,0,0:0:0:0:
192,192,86618,1,0,0:0:0:0:
64,192,86810,128,0,87050:0:0:0:0:
320,192,87050,1,0,0:0:0:0:
192,192,87242,128,0,87865:0:0:0:0:
64,192,87482,1,0,0:0:0:0:
320,192,87482,1,0,0:0:0:0:
64,192,87721,128,0,87865:0:0:0:0:
448,192,87865,1,0,0:0:0:0:
192,192,88105,1,0,0:0:0:0:
320,192,88105,1,0,0:0:0:0:
192,192,88297,1,0,0:0:0:0:
320,192,88297,1,0,0:0:0:0:
64,192,88537,128,0,88920:0:0:0:0:
448,192,88537,128,0,88920:0:0:0:0:
320,192,88633,1,0,0:0:0:0:
192,192,88776,1,0,0:0:0:0:
320,192,88920,1,0,0:0:0:0:
192,192,88920,1,0,0:0:0:0:
192,192,89400,1,0,0:0:0:0:
320,192,89400,128,0,89832:0:0:0:0:
448,192,89592,1,0,0:0:0:0:
64,192,89640,1,0,0:0:0:0:
192,192,89832,1,0,0:0:0:0:
64,192,90071,1,0,0:0:0:0:
192,192,90071,1,0,0:0:0:0:
448,192,90071,1,0,0:0:0:0:
320,192,90311,1,0,0:0:0:0:
192,192,90407,1,0,0:0:0:0:
64,192,90503,1,0,0:0:0:0:
320,192,90503,1,0,0:0:0:0:
448,192,90503,1,0,0:0:0:0:
448,192,90695,1,8,0:0:0:0:
64,192,90935,1,0,0:0:0:0:
192,192,90983,1,0,0:0:0:0:
64,192,91270,1,0,0:0:0:0:
448,192,91318,1,0,0:0:0:0:
448,192,91558,1,0,0:0:0:0:
64,192,91558,1,0,0:0:0:0:
192,192,91606,1,0,0:0:0:0:
320,192,91750,1,0,0:0:0:0:
192,192,91798,1,0,0:0:0:0:
448,192,91798,1,0,0:0:0:0:
448,192,91942,1,0,0:0:0:0:
320,192,92038,1,0,0:0:0:0:
192,192,92134,1,0,0:0:0:0:
320,192,92230,1,0,0:0:0:0:
448,192,92326,1,0,0:0:0:0:
64,192,92422,1,8,0:0:0:0:
448,192,92422,1,8,0:0:0:0:
320,192,92613,128,0,93093:0:0:0:0:
192,192,92613,1,0,0:0:0:0:
448,192,92709,1,0,0:0:0:0:
192,192,92805,1,0,0:0:0:0:
448,192,93045,1,0,0:0:0:0:
64,192,93093,128,0,94148:0:0:0:0:
192,192,93093,1,0,0:0:0:0:
320,192,93285,128,0,93621:0:0:0:0:
192,192,93525,1,0,0:0:0:0:
320,192,93717,1,0,0:0:0:0:
448,192,93908,1,0,0:0:0:0:
320,192,94148,128,0,95443:0:0:0:0:
192,192,94148,1,0,0:0:0:0:
448,192,94340,1,0,0:0:0:0:
192,192,94340,1,0,0:0:0:0:
64,192,94532,1,0,0:0:0:0:
448,192,94772,1,0,0:0:0:0:
192,192,94772,1,0,0:0:0:0:
64,192,95011,1,0,0:0:0:0:
448,192,95203,1,0,0:0:0:0:
192,192,95203,1,0,0:0:0:0:
192,192,95443,1,0,0:0:0:0:
448,192,95587,1,0,0:0:0:0:
320,192,95635,1,0,0:0:0:0:
192,192,95683,1,0,0:0:0:0:
64,192,95731,128,0,95971:0:0:0:0:
192,192,96019,1,0,0:0:0:0:
320,192,96067,1,0,0:0:0:0:
448,192,96115,1,0,0:0:0:0:
64,192,96306,1,0,0:0:0:0:
448,192,96306,1,0,0:0:0:0:
192,192,96498,1,0,0:0:0:0:
320,192,96498,1,0,0:0:0:0:
320,192,96738,128,0,96930:0:0:0:0:
192,192,96738,1,0,0:0:0:0:
64,192,96930,128,0,97362:0:0:0:0:
192,192,96930,1,0,0:0:0:0:
192,192,97170,128,0,97362:0:0:0:0:
448,192,97362,128,0,97601:0:0:0:0:
320,192,97362,1,0,0:0:0:0:
320,192,97601,128,0,98033:0:0:0:0:
64,192,97601,1,0,0:0:0:0:
64,192,97841,128,0,98033:0:0:0:0:
192,192,98033,128,0,98465:0:0:0:0:
448,192,98033,1,0,0:0:0:0:
320,192,98225,1,0,0:0:0:0:
448,192,98273,1,0,0:0:0:0:
448,192,98465,128,0,98705:0:0:0:0:
320,192,98465,1,0,0:0:0:0:
64,192,98705,128,0,99136:0:0:0:0:
192,192,98896,1,0,0:0:0:0:
320,192,98944,128,0,99136:0:0:0:0:
192,192,99136,1,0,0:0:0:0:
448,192,99136,1,0,0:0:0:0:
320,192,99568,128,0,100000:0:0:0:0:
448,192,99568,128,0,99760:0:0:0:0:
192,192,99664,1,0,0:0:0:0:
64,192,99760,128,0,100000:0:0:0:0:
192,192,100000,1,0,0:0:0:0:
448,192,100191,1,0,0:0:0:0:
192,192,100191,1,0,0:0:0:0:
64,192,100431,1,0,0:0:0:0:
192,192,100479,1,0,0:0:0:0:
320,192,100623,1,0,0:0:0:0:
448,192,100671,1,0,0:0:0:0:
64,192,100863,1,0,0:0:0:0:
192,192,100863,1,0,0:0:0:0:
448,192,100863,1,0,0:0:0:0:
320,192,101055,128,0,101486:0:0:0:0:
64,192,101055,1,0,0:0:0:0:
192,192,101055,1,0,0:0:0:0:
64,192,101247,128,0,101294:0:0:0:0:
448,192,101294,1,0,0:0:0:0:
192,192,101486,1,0,0:0:0:0:
320,192,101678,1,0,0:0:0:0:
448,192,101678,1,0,0:0:0:0:
64,192,101918,128,0,102110:0:0:0:0:
192,192,101918,1,0,0:0:0:0:
320,192,102014,1,0,0:0:0:0:
448,192,102110,128,0,102302:0:0:0:0:
192,192,102110,1,0,0:0:0:0:
64,192,102206,1,0,0:0:0:0:
192,192,102302,1,0,0:0:0:0:
192,192,102541,1,0,0:0:0:0:
320,192,102541,1,0,0:0:0:0:
64,192,102733,1,0,0:0:0:0:
448,192,102733,1,0,0:0:0:0:
448,192,103213,1,0,0:0:0:0:
320,192,103213,1,0,0:0:0:0:
64,192,103261,1,0,0:0:0:0:
192,192,103261,1,0,0:0:0:0:
448,192,103357,1,0,0:0:0:0:
320,192,103357,1,0,0:0:0:0:
64,192,103405,1,0,0:0:0:0:
192,192,103405,1,0,0:0:0:0:
64,192,103645,1,0,0:0:0:0:
192,192,103741,1,0,0:0:0:0:
320,192,103836,1,0,0:0:0:0:
448,192,104028,1,0,0:0:0:0:
320,192,104172,1,0,0:0:0:0:
64,192,104460,1,8,0:0:0:0:
320,192,104460,1,8,0:0:0:0:
448,192,104460,1,8,0:0:0:0:
320,192,104604,1,0,0:0:0:0:
192,192,104700,1,0,0:0:0:0:
64,192,104796,1,0,0:0:0:0:
192,192,104940,1,0,0:0:0:0:
320,192,105035,1,0,0:0:0:0:
64,192,105131,1,0,0:0:0:0:
192,192,105131,1,0,0:0:0:0:
320,192,105131,1,0,0:0:0:0:
448,192,105371,1,0,0:0:0:0:
320,192,105371,1,0,0:0:0:0:
64,192,105467,1,0,0:0:0:0:
192,192,105467,1,0,0:0:0:0:
448,192,105563,1,0,0:0:0:0:
320,192,105563,1,0,0:0:0:0:
64,192,105755,128,0,105995:0:0:0:0:
192,192,105995,128,0,106187:0:0:0:0:
64,192,106235,1,8,0:0:0:0:
448,192,106235,1,8,0:0:0:0:
192,192,106330,1,0,0:0:0:0:
320,192,106330,1,0,0:0:0:0:
64,192,106426,1,0,0:0:0:0:
448,192,106426,1,0,0:0:0:0:
448,192,106618,1,0,0:0:0:0:
320,192,106666,1,0,0:0:0:0:
192,192,106714,1,0,0:0:0:0:
64,192,106762,1,0,0:0:0:0:
64,192,106858,128,0,107098:0:0:0:0:
448,192,107098,1,0,0:0:0:0:
320,192,107098,1,0,0:0:0:0:
192,192,107338,1,0,0:0:0:0:
64,192,107386,1,0,0:0:0:0:
320,192,107529,1,0,0:0:0:0:
448,192,107577,1,0,0:0:0:0:
192,192,107721,1,0,0:0:0:0:
64,192,107769,128,0,108393:0:0:0:0:
320,192,107913,1,0,0:0:0:0:
448,192,107961,128,0,108393:0:0:0:0:
192,192,108393,1,0,0:0:0:0:
320,192,108393,1,0,0:0:0:0:
64,192,108585,1,4,0:0:0:0:
448,192,108585,1,4,0:0:0:0:
64,192,110551,1,0,0:0:0:0:
192,192,110551,1,0,0:0:0:0:
448,192,110599,1,0,0:0:0:0:
320,192,110599,1,0,0:0:0:0:
64,192,110791,1,0,0:0:0:0:
192,192,110791,1,0,0:0:0:0:
192,192,111223,1,2,0:0:0:0:
64,192,111609,1,0,0:0:0:0:
192,192,111609,1,0,0:0:0:0:
64,192,111852,1,0,0:0:0:0:
192,192,111852,1,0,0:0:0:0:
448,192,112278,1,0,0:0:0:0:
320,192,112278,1,0,0:0:0:0:
320,192,112517,1,0,0:0:0:0:
448,192,112517,1,0,0:0:0:0:
320,192,112949,1,2,0:0:0:0:
448,192,113336,1,0,0:0:0:0:
320,192,113336,1,0,0:0:0:0:
320,192,113579,1,0,0:0:0:0:
448,192,113579,1,0,0:0:0:0:
192,192,114004,1,0,0:0:0:0:
64,192,114052,1,0,0:0:0:0:
192,192,114100,1,0,0:0:0:0:
64,192,114676,1,8,0:0:0:0:
64,192,115059,1,0,0:0:0:0:
192,192,115059,1,0,0:0:0:0:
192,192,115299,1,0,0:0:0:0:
320,192,115299,1,0,0:0:0:0:
320,192,115731,1,0,0:0:0:0:
448,192,115779,1,0,0:0:0:0:
320,192,115827,1,0,0:0:0:0:
320,192,116402,1,8,0:0:0:0:
448,192,116786,1,0,0:0:0:0:
320,192,116786,1,0,0:0:0:0:
320,192,117026,1,0,0:0:0:0:
192,192,117026,1,0,0:0:0:0:
192,192,117458,1,0,0:0:0:0:
448,192,117458,1,0,0:0:0:0:
320,192,117505,1,0,0:0:0:0:
64,192,117505,1,0,0:0:0:0:
64,192,117697,1,0,0:0:0:0:
320,192,117697,1,0,0:0:0:0:
192,192,118129,1,0,0:0:0:0:
320,192,118129,1,2,0:0:0:0:
448,192,118129,1,0,0:0:0:0:
64,192,118513,1,0,0:0:0:0:
320,192,118513,1,0,0:0:0:0:
192,192,118752,1,0,0:0:0:0:
448,192,118752,1,0,0:0:0:0:
64,192,119184,1,0,0:0:0:0:
320,192,119184,1,0,0:0:0:0:
192,192,119376,1,0,0:0:0:0:
448,192,119376,1,0,0:0:0:0:
64,192,119856,1,0,0:0:0:0:
192,192,119856,1,2,0:0:0:0:
320,192,119856,1,0,0:0:0:0:
192,192,120239,1,0,0:0:0:0:
448,192,120239,1,0,0:0:0:0:
64,192,120479,1,0,0:0:0:0:
320,192,120479,1,0,0:0:0:0:
64,192,120917,1,0,0:0:0:0:
448,192,120917,1,0,0:0:0:0:
192,192,120971,1,0,0:0:0:0:
320,192,120971,1,0,0:0:0:0:
64,192,120998,1,0,0:0:0:0:
448,192,120998,1,0,0:0:0:0:
64,192,121582,1,8,0:0:0:0:
448,192,121582,1,0,0:0:0:0:
320,192,121966,1,0,0:0:0:0:
64,192,121966,1,0,0:0:0:0:
64,192,122206,1,0,0:0:0:0:
192,192,122206,1,0,0:0:0:0:
192,192,122637,1,0,0:0:0:0:
320,192,122637,1,0,0:0:0:0:
64,192,122685,1,0,0:0:0:0:
448,192,122685,1,0,0:0:0:0:
320,192,122733,1,0,0:0:0:0:
192,192,122733,1,0,0:0:0:0:
192,192,123309,1,8,0:0:0:0:
320,192,123309,1,8,0:0:0:0:
64,192,124172,1,2,0:0:0:0:
448,192,124172,1,2,0:0:0:0:
64,192,124364,128,0,125035:0:0:0:0:
192,192,124364,1,0,0:0:0:0:
320,192,124604,1,0,0:0:0:0:
448,192,124844,1,0,0:0:0:0:
320,192,125035,1,0,0:0:0:0:
192,192,125227,1,0,0:0:0:0:
320,192,125467,1,0,0:0:0:0:
448,192,125563,1,0,0:0:0:0:
64,192,125755,1,0,0:0:0:0:
192,192,125851,1,0,0:0:0:0:
320,192,125947,1,0,0:0:0:0:
320,192,126091,128,0,126858:0:0:0:0:
192,192,126330,1,0,0:0:0:0:
448,192,126330,1,0,0:0:0:0:
192,192,126570,1,0,0:0:0:0:
64,192,126570,1,0,0:0:0:0:
64,192,126762,1,0,0:0:0:0:
448,192,126762,1,0,0:0:0:0:
192,192,126858,128,0,127050:0:0:0:0:
64,192,127050,1,0,0:0:0:0:
320,192,127050,1,0,0:0:0:0:
64,192,127290,1,0,0:0:0:0:
448,192,127290,1,0,0:0:0:0:
320,192,127386,1,0,0:0:0:0:
192,192,127482,1,0,0:0:0:0:
448,192,127482,1,0,0:0:0:0:
320,192,127577,1,0,0:0:0:0:
64,192,127673,1,0,0:0:0:0:
448,192,127673,1,0,0:0:0:0:
320,192,127817,1,0,0:0:0:0:
448,192,127817,1,0,0:0:0:0:
192,192,127865,1,0,0:0:0:0:
192,192,128057,1,0,0:0:0:0:
448,192,128297,1,0,0:0:0:0:
320,192,128393,1,0,0:0:0:0:
192,192,128489,1,0,0:0:0:0:
448,192,128681,1,0,0:0:0:0:
320,192,128776,1,0,0:0:0:0:
192,192,128872,1,0,0:0:0:0:
64,192,128968,1,0,0:0:0:0:
192,192,129064,1,0,0:0:0:0:
320,192,129160,1,0,0:0:0:0:
448,192,129256,1,0,0:0:0:0:
320,192,129352,1,0,0:0:0:0:
192,192,129448,1,0,0:0:0:0:
64,192,129544,1,0,0:0:0:0:
320,192,129544,1,0,0:0:0:0:
448,192,129544,1,0,0:0:0:0:
192,192,129640,1,0,0:0:0:0:
320,192,129880,1,0,0:0:0:0:
64,192,129976,1,0,0:0:0:0:
192,192,129976,1,0,0:0:0:0:
448,192,129976,1,0,0:0:0:0:
320,192,130167,1,0,0:0:0:0:
192,192,130263,1,0,0:0:0:0:
64,192,130407,1,0,0:0:0:0:
192,192,130407,1,0,0:0:0:0:
320,192,130407,1,0,0:0:0:0:
448,192,130503,1,0,0:0:0:0:
64,192,130743,1,0,0:0:0:0:
192,192,130839,1,0,0:0:0:0:
320,192,130839,1,0,0:0:0:0:
448,192,130839,1,0,0:0:0:0:
64,192,131270,1,0,0:0:0:0:
448,192,131270,1,0,0:0:0:0:
192,192,131462,1,0,0:0:0:0:
320,192,131462,1,0,0:0:0:0:
64,192,131702,1,0,0:0:0:0:
448,192,131702,1,0,0:0:0:0:
320,192,131894,1,0,0:0:0:0:
192,192,131894,1,0,0:0:0:0:
448,192,132134,1,0,0:0:0:0:
64,192,132134,1,0,0:0:0:0:
320,192,132326,1,0,0:0:0:0:
192,192,132326,1,0,0:0:0:0:
64,192,132565,1,0,0:0:0:0:
448,192,132565,1,0,0:0:0:0:
320,192,132661,1,0,0:0:0:0:
192,192,132757,1,0,0:0:0:0:
64,192,132853,1,0,0:0:0:0:
192,192,132997,1,0,0:0:0:0:
320,192,132997,1,0,0:0:0:0:
448,192,133093,1,0,0:0:0:0:
192,192,133189,1,0,0:0:0:0:
320,192,133189,1,0,0:0:0:0:
64,192,133285,1,0,0:0:0:0:
192,192,133381,128,0,133525:0:0:0:0:
320,192,133381,128,0,133525:0:0:0:0:
448,192,133381,128,0,133525:0:0:0:0:
64,192,133621,1,0,0:0:0:0:
448,192,133717,128,0,134100:0:0:0:0:
192,192,133717,128,0,134100:0:0:0:0:
320,192,133717,128,0,134100:0:0:0:0:
64,192,134052,1,0,0:0:0:0:
192,192,134148,1,0,0:0:0:0:
320,192,134244,1,0,0:0:0:0:
448,192,134340,1,0,0:0:0:0:
320,192,134436,1,0,0:0:0:0:
192,192,134532,1,0,0:0:0:0:
64,192,134628,1,0,0:0:0:0:
192,192,134724,1,0,0:0:0:0:
64,192,134820,1,0,0:0:0:0:
192,192,134916,1,0,0:0:0:0:
192,192,135203,1,0,0:0:0:0:
64,192,135203,1,0,0:0:0:0:
448,192,135203,1,0,0:0:0:0:
320,192,135203,1,0,0:0:0:0:
320,192,135395,1,0,0:0:0:0:
192,192,135395,1,0,0:0:0:0:
192,192,135587,1,0,0:0:0:0:
64,192,135587,1,0,0:0:0:0:
448,192,135587,1,0,0:0:0:0:
320,192,135587,1,0,0:0:0:0:
192,192,135827,1,0,0:0:0:0:
320,192,135827,1,0,0:0:0:0:
448,192,136019,1,0,0:0:0:0:
64,192,136019,1,0,0:0:0:0:
192,192,136019,1,0,0:0:0:0:
320,192,136019,1,0,0:0:0:0:
192,192,136211,1,0,0:0:0:0:
64,192,136211,1,0,0:0:0:0:
320,192,136306,1,0,0:0:0:0:
448,192,136306,1,0,0:0:0:0:
64,192,136450,128,0,136834:0:0:0:0:
448,192,136450,128,0,136834:0:0:0:0:
320,192,136834,1,0,0:0:0:0:
192,192,136930,1,0,0:0:0:0:
320,192,137026,1,0,0:0:0:0:
192,192,137122,1,0,0:0:0:0:
320,192,137218,1,0,0:0:0:0:
448,192,137314,1,0,0:0:0:0:
320,192,137505,1,0,0:0:0:0:
64,192,137505,1,0,0:0:0:0:
448,192,137505,1,0,0:0:0:0:
320,192,137697,1,0,0:0:0:0:
192,192,137697,1,0,0:0:0:0:
448,192,137697,1,0,0:0:0:0:
64,192,137889,1,0,0:0:0:0:
192,192,137889,1,0,0:0:0:0:
448,192,137889,1,0,0:0:0:0:
320,192,138177,1,0,0:0:0:0:
192,192,138177,1,0,0:0:0:0:
64,192,138177,128,0,139040:0:0:0:0:
448,192,138177,1,0,0:0:0:0:
192,192,138369,1,0,0:0:0:0:
320,192,138513,1,0,0:0:0:0:
192,192,138705,1,0,0:0:0:0:
320,192,138800,1,0,0:0:0:0:
448,192,139040,1,0,0:0:0:0:
320,192,139040,128,0,139904:0:0:0:0:
192,192,139040,1,0,0:0:0:0:
192,192,139232,1,0,0:0:0:0:
64,192,139376,1,0,0:0:0:0:
192,192,139568,1,0,0:0:0:0:
64,192,139664,1,0,0:0:0:0:
448,192,139904,1,0,0:0:0:0:
192,192,139904,128,0,140767:0:0:0:0:
64,192,139904,1,0,0:0:0:0:
320,192,140095,1,0,0:0:0:0:
448,192,140239,1,0,0:0:0:0:
320,192,140431,1,0,0:0:0:0:
448,192,140527,128,0,140767:0:0:0:0:
64,192,140527,128,0,140767:0:0:0:0:
320,192,140767,1,0,0:0:0:0:
192,192,141199,1,0,0:0:0:0:
64,192,141199,1,0,0:0:0:0:
320,192,141199,1,0,0:0:0:0:
448,192,141199,1,0,0:0:0:0:
448,192,141390,1,0,0:0:0:0:
64,192,141390,1,0,0:0:0:0:
448,192,141486,1,0,0:0:0:0:
64,192,141486,1,0,0:0:0:0:
320,192,141630,1,0,0:0:0:0:
192,192,141630,1,0,0:0:0:0:
192,192,141918,1,0,0:0:0:0:
320,192,141918,1,0,0:0:0:0:
192,192,142206,1,0,0:0:0:0:
64,192,142206,1,0,0:0:0:0:
448,192,142302,1,0,0:0:0:0:
320,192,142302,1,0,0:0:0:0:
192,192,142398,1,0,0:0:0:0:
64,192,142398,1,0,0:0:0:0:
192,192,142541,1,0,0:0:0:0:
320,192,142541,1,0,0:0:0:0:
192,192,142829,1,0,0:0:0:0:
320,192,142829,1,0,0:0:0:0:
448,192,143021,1,0,0:0:0:0:
320,192,143021,1,0,0:0:0:0:
64,192,143117,1,0,0:0:0:0:
192,192,143117,1,0,0:0:0:0:
448,192,143213,1,0,0:0:0:0:
320,192,143213,1,0,0:0:0:0:
320,192,143357,1,0,0:0:0:0:
64,192,143357,1,0,0:0:0:0:
448,192,143597,1,0,0:0:0:0:
192,192,143597,1,0,0:0:0:0:
64,192,143836,1,0,0:0:0:0:
448,192,143836,1,0,0:0:0:0:
192,192,144028,1,0,0:0:0:0:
320,192,144028,1,0,0:0:0:0:
448,192,144124,1,0,0:0:0:0:
192,192,144124,1,0,0:0:0:0:
64,192,144412,1,0,0:0:0:0:
192,192,144412,1,0,0:0:0:0:
320,192,144652,1,0,0:0:0:0:
192,192,144652,1,0,0:0:0:0:
448,192,144892,1,0,0:0:0:0:
320,192,144892,1,0,0:0:0:0:
192,192,145083,128,0,145995:0:0:0:0:
448,192,145179,1,0,0:0:0:0:
64,192,145179,1,0,0:0:0:0:
448,192,145419,1,0,0:0:0:0:
64,192,145659,1,0,0:0:0:0:
320,192,145755,1,0,0:0:0:0:
64,192,145995,128,0,146810:0:0:0:0:
320,192,146187,1,0,0:0:0:0:
448,192,146378,1,0,0:0:0:0:
192,192,146378,1,0,0:0:0:0:
192,192,146618,1,0,0:0:0:0:
448,192,146618,1,0,0:0:0:0:
320,192,146810,128,0,147721:0:0:0:0:
448,192,146906,1,0,0:0:0:0:
64,192,147146,128,0,147386:0:0:0:0:
448,192,147386,1,0,0:0:0:0:
192,192,147482,1,0,0:0:0:0:
448,192,147721,128,0,148537:0:0:0:0:
64,192,147913,1,0,0:0:0:0:
64,192,148105,1,0,0:0:0:0:
192,192,148105,1,0,0:0:0:0:
320,192,148345,1,0,0:0:0:0:
192,192,148345,1,0,0:0:0:0:
320,192,148537,1,0,0:0:0:0:
192,192,148537,1,0,0:0:0:0:
64,192,148537,1,0,0:0:0:0:
320,192,148776,128,0,148872:0:0:0:0:
448,192,148872,128,0,149208:0:0:0:0:
192,192,148872,1,0,0:0:0:0:
64,192,149208,128,0,149304:0:0:0:0:
320,192,149208,1,0,0:0:0:0:
448,192,149304,128,0,149400:0:0:0:0:
320,192,149400,1,0,0:0:0:0:
192,192,149400,128,0,149640:0:0:0:0:
320,192,149640,128,0,149736:0:0:0:0:
64,192,149640,1,0,0:0:0:0:
192,192,149736,1,0,0:0:0:0:
448,192,149736,128,0,149832:0:0:0:0:
192,192,149832,128,0,149928:0:0:0:0:
448,192,149928,1,0,0:0:0:0:
64,192,149928,128,0,150023:0:0:0:0:
320,192,150023,128,0,150119:0:0:0:0:
448,192,150119,128,0,150263:0:0:0:0:
192,192,150119,1,0,0:0:0:0:
64,192,150263,128,0,150503:0:0:0:0:
320,192,150263,1,0,0:0:0:0:
320,192,150503,128,0,150599:0:0:0:0:
192,192,150503,1,0,0:0:0:0:
64,192,150599,128,0,150791:0:0:0:0:
448,192,150791,1,0,0:0:0:0:
320,192,150791,128,0,151031:0:0:0:0:
448,192,151031,128,0,151127:0:0:0:0:
192,192,151031,1,0,0:0:0:0:
192,192,151127,128,0,151318:0:0:0:0:
64,192,151127,1,0,0:0:0:0:
64,192,151318,128,0,151462:0:0:0:0:
320,192,151318,1,0,0:0:0:0:
448,192,151462,1,0,0:0:0:0:
192,192,151750,1,12,0:0:0:0:
320,192,151750,1,12,0:0:0:0:
64,192,151990,128,0,153717:0:0:0:0:
448,192,151990,128,0,153717:0:0:0:0:
320,192,152182,1,0,0:0:0:0:
192,192,152422,1,0,0:0:0:0:
320,192,152661,1,0,0:0:0:0:
192,192,153045,1,0,0:0:0:0:
320,192,153285,1,0,0:0:0:0:
192,192,153525,1,0,0:0:0:0:
192,192,153717,128,0,155443:0:0:0:0:
320,192,153717,128,0,155443:0:0:0:0:
64,192,154148,1,0,0:0:0:0:
448,192,154148,1,0,0:0:0:0:
64,192,154388,1,0,0:0:0:0:
448,192,154388,1,0,0:0:0:0:
448,192,154820,1,0,0:0:0:0:
64,192,154820,1,0,0:0:0:0:
64,192,155059,1,0,0:0:0:0:
448,192,155059,1,0,0:0:0:0:
448,192,155443,128,0,156354:0:0:0:0:
64,192,155875,1,0,0:0:0:0:
192,192,155875,1,0,0:0:0:0:
320,192,155875,1,0,0:0:0:0:
192,192,156354,128,0,157170:0:0:0:0:
64,192,156786,1,0,0:0:0:0:
448,192,156786,1,0,0:0:0:0:
320,192,156786,1,0,0:0:0:0:
64,192,157170,128,0,158081:0:0:0:0:
192,192,157649,1,0,0:0:0:0:
320,192,157649,1,0,0:0:0:0:
448,192,157649,1,0,0:0:0:0:
448,192,158081,1,0,0:0:0:0:
448,192,158465,1,0,0:0:0:0:
320,192,158513,1,0,0:0:0:0:
192,192,158561,1,0,0:0:0:0:
64,192,158609,1,0,0:0:0:0:
192,192,158896,1,0,0:0:0:0:
320,192,158896,1,0,0:0:0:0:
192,192,159760,1,0,0:0:0:0:
448,192,159760,1,0,0:0:0:0:
64,192,160623,1,0,0:0:0:0:
320,192,160623,1,0,0:0:0:0:
64,192,161486,1,0,0:0:0:0:
448,192,161486,1,0,0:0:0:0:
448,192,162350,1,0,0:0:0:0:
320,192,162350,1,0,0:0:0:0:
64,192,162781,1,0,0:0:0:0:
192,192,162781,1,0,0:0:0:0:
448,192,163213,1,0,0:0:0:0:
320,192,163213,1,0,0:0:0:0:
64,192,163645,1,0,0:0:0:0:
448,192,163836,1,0,0:0:0:0:
192,192,164076,1,0,0:0:0:0:
64,192,164076,1,0,0:0:0:0:
448,192,164076,1,4,0:0:0:0:
320,192,164076,1,4,0:0:0:0:
64,192,165371,1,0,0:0:0:0:
320,192,165371,1,0,0:0:0:0:
448,192,165803,1,0,0:0:0:0:
320,192,165803,1,0,0:0:0:0:
192,192,165803,1,0,0:0:0:0:
320,192,166043,1,0,0:0:0:0:
320,192,166235,1,0,0:0:0:0:
192,192,166235,1,0,0:0:0:0:
64,192,166235,1,0,0:0:0:0:
448,192,166426,1,0,0:0:0:0:
320,192,166570,1,0,0:0:0:0:
448,192,166714,1,0,0:0:0:0:
64,192,166714,1,0,0:0:0:0:
320,192,166714,1,0,0:0:0:0:
448,192,166906,1,0,0:0:0:0:
192,192,167098,1,0,0:0:0:0:
448,192,167098,1,0,0:0:0:0:
64,192,167098,1,0,0:0:0:0:
192,192,167290,1,0,0:0:0:0:
320,192,167529,1,0,0:0:0:0:
448,192,167529,1,0,0:0:0:0:
64,192,167530,1,0,0:0:0:0:
320,192,167769,1,0,0:0:0:0:
320,192,167961,1,0,0:0:0:0:
192,192,167961,1,0,0:0:0:0:
64,192,167961,1,0,0:0:0:0:
64,192,168105,1,0,0:0:0:0:
192,192,168249,1,0,0:0:0:0:
448,192,168393,1,0,0:0:0:0:
192,192,168393,1,0,0:0:0:0:
320,192,168393,1,0,0:0:0:0:
64,192,168633,1,0,0:0:0:0:
192,192,168729,1,0,0:0:0:0:
320,192,168824,1,0,0:0:0:0:
448,192,168920,1,0,0:0:0:0:
192,192,169064,1,0,0:0:0:0:
320,192,169256,1,0,0:0:0:0:
64,192,169496,1,0,0:0:0:0:
448,192,169496,1,0,0:0:0:0:
320,192,169592,1,0,0:0:0:0:
192,192,169688,1,0,0:0:0:0:
64,192,169784,1,0,0:0:0:0:
448,192,169928,1,0,0:0:0:0:
192,192,169928,1,0,0:0:0:0:
64,192,170071,1,0,0:0:0:0:
192,192,170167,1,0,0:0:0:0:
320,192,170263,1,0,0:0:0:0:
448,192,170359,1,0,0:0:0:0:
320,192,170455,1,0,0:0:0:0:
192,192,170551,1,0,0:0:0:0:
320,192,170647,1,0,0:0:0:0:
448,192,170743,1,0,0:0:0:0:
320,192,170839,1,0,0:0:0:0:
448,192,170983,1,0,0:0:0:0:
192,192,170983,1,0,0:0:0:0:
64,192,171079,1,0,0:0:0:0:
192,192,171175,1,0,0:0:0:0:
320,192,171270,1,0,0:0:0:0:
192,192,171414,128,0,171798:0:0:0:0:
448,192,171415,128,0,171798:0:0:0:0:
320,192,171606,1,0,0:0:0:0:
64,192,171798,1,0,0:0:0:0:
320,192,171798,1,0,0:0:0:0:
448,192,172278,1,0,0:0:0:0:
192,192,172278,1,0,0:0:0:0:
320,192,172709,1,0,0:0:0:0:
64,192,172709,128,0,172901:0:0:0:0:
192,192,172709,1,0,0:0:0:0:
448,192,172805,1,0,0:0:0:0:
320,192,172901,1,0,0:0:0:0:
192,192,172901,1,0,0:0:0:0:
192,192,173189,1,0,0:0:0:0:
64,192,173285,1,0,0:0:0:0:
192,192,173381,1,0,0:0:0:0:
448,192,173381,1,0,0:0:0:0:
320,192,173381,1,0,0:0:0:0:
64,192,173573,1,8,0:0:0:0:
448,192,173573,1,8,0:0:0:0:
448,192,173812,1,0,0:0:0:0:
192,192,173812,1,0,0:0:0:0:
320,192,173908,1,0,0:0:0:0:
64,192,174004,1,0,0:0:0:0:
448,192,174004,1,0,0:0:0:0:
320,192,174148,1,0,0:0:0:0:
192,192,174148,1,0,0:0:0:0:
192,192,174436,1,0,0:0:0:0:
448,192,174436,128,0,174628:0:0:0:0:
320,192,174436,1,0,0:0:0:0:
64,192,174532,1,0,0:0:0:0:
192,192,174628,1,0,0:0:0:0:
320,192,174628,1,0,0:0:0:0:
448,192,174868,1,0,0:0:0:0:
320,192,174964,1,0,0:0:0:0:
64,192,175059,1,0,0:0:0:0:
192,192,175059,1,0,0:0:0:0:
448,192,175059,1,0,0:0:0:0:
448,192,175300,1,8,0:0:0:0:
64,192,175300,1,8,0:0:0:0:
64,192,175539,1,0,0:0:0:0:
448,192,175539,1,0,0:0:0:0:
448,192,175731,1,0,0:0:0:0:
64,192,175731,1,0,0:0:0:0:
320,192,175923,1,0,0:0:0:0:
192,192,175923,1,0,0:0:0:0:
448,192,176163,1,0,0:0:0:0:
320,192,176402,1,0,0:0:0:0:
448,192,176402,1,0,0:0:0:0:
64,192,176402,1,0,0:0:0:0:
320,192,176594,1,0,0:0:0:0:
448,192,176594,1,0,0:0:0:0:
192,192,176594,1,0,0:0:0:0:
64,192,176786,1,0,0:0:0:0:
192,192,176786,1,0,0:0:0:0:
448,192,176786,1,0,0:0:0:0:
64,192,177026,128,0,177218:0:0:0:0:
448,192,177026,1,0,0:0:0:0:
192,192,177026,1,0,0:0:0:0:
320,192,177026,128,0,177218:0:0:0:0:
192,192,177218,1,0,0:0:0:0:
448,192,177218,1,0,0:0:0:0:
320,192,177314,1,0,0:0:0:0:
192,192,177410,1,0,0:0:0:0:
64,192,177649,1,0,0:0:0:0:
448,192,177650,1,0,0:0:0:0:
64,192,177889,1,0,0:0:0:0:
192,192,177889,1,0,0:0:0:0:
448,192,178081,1,0,0:0:0:0:
192,192,178081,1,0,0:0:0:0:
320,192,178321,1,0,0:0:0:0:
64,192,178321,128,0,178752:0:0:0:0:
320,192,178513,1,0,0:0:0:0:
448,192,178609,1,0,0:0:0:0:
320,192,178752,1,0,0:0:0:0:
192,192,178752,1,0,0:0:0:0:
192,192,178992,1,0,0:0:0:0:
448,192,179184,1,0,0:0:0:0:
64,192,179184,1,0,0:0:0:0:
320,192,179376,1,0,0:0:0:0:
192,192,179376,1,0,0:0:0:0:
320,192,179616,1,0,0:0:0:0:
192,192,179616,1,0,0:0:0:0:
64,192,179712,128,0,180239:0:0:0:0:
448,192,179712,128,0,180239:0:0:0:0:
320,192,179808,1,0,0:0:0:0:
192,192,179808,1,0,0:0:0:0:
320,192,180047,1,0,0:0:0:0:
192,192,180239,1,0,0:0:0:0:
448,192,180479,1,0,0:0:0:0:
192,192,180479,1,0,0:0:0:0:
64,192,180719,1,0,0:0:0:0:
192,192,180719,1,0,0:0:0:0:
448,192,180911,1,0,0:0:0:0:
192,192,181103,1,0,0:0:0:0:
320,192,181103,1,0,0:0:0:0:
64,192,181151,1,0,0:0:0:0:
448,192,181151,1,0,0:0:0:0:
448,192,181342,1,0,0:0:0:0:
64,192,181342,1,0,0:0:0:0:
192,192,181438,128,0,182014:0:0:0:0:
320,192,181438,128,0,182014:0:0:0:0:
64,192,181582,1,0,0:0:0:0:
448,192,181582,1,0,0:0:0:0:
64,192,181774,1,0,0:0:0:0:
448,192,181822,1,0,0:0:0:0:
64,192,182014,1,0,0:0:0:0:
448,192,182014,1,0,0:0:0:0:
448,192,182206,1,0,0:0:0:0:
64,192,182206,1,0,0:0:0:0:
192,192,182206,1,0,0:0:0:0:
320,192,182206,1,0,0:0:0:0:
320,192,182446,1,0,0:0:0:0:
448,192,182446,1,0,0:0:0:0:
64,192,182637,1,0,0:0:0:0:
192,192,182637,1,0,0:0:0:0:
192,192,182877,128,0,183069:0:0:0:0:
320,192,182877,128,0,183069:0:0:0:0:
64,192,183069,1,0,0:0:0:0:
448,192,183069,1,0,0:0:0:0:
192,192,183309,1,0,0:0:0:0:
320,192,183357,1,0,0:0:0:0:
448,192,183357,1,0,0:0:0:0:
320,192,183501,1,0,0:0:0:0:
64,192,183549,1,0,0:0:0:0:
192,192,183549,1,0,0:0:0:0:
192,192,183693,1,0,0:0:0:0:
320,192,183741,1,0,0:0:0:0:
448,192,183741,1,0,0:0:0:0:
320,192,183884,1,0,0:0:0:0:
64,192,183932,128,0,184124:0:0:0:0:
192,192,183933,1,0,0:0:0:0:
320,192,184124,1,0,0:0:0:0:
448,192,184172,1,0,0:0:0:0:
192,192,184316,1,0,0:0:0:0:
320,192,184364,1,0,0:0:0:0:
64,192,184556,1,0,0:0:0:0:
320,192,184556,1,0,0:0:0:0:
448,192,184796,1,0,0:0:0:0:
320,192,184892,1,0,0:0:0:0:
192,192,184988,1,0,0:0:0:0:
64,192,185084,1,0,0:0:0:0:
192,192,185179,1,0,0:0:0:0:
448,192,185419,128,0,185611:0:0:0:0:
320,192,185611,1,0,0:0:0:0:
64,192,185659,1,0,0:0:0:0:
192,192,185707,1,0,0:0:0:0:
448,192,186091,128,0,186522:0:0:0:0:
64,192,186091,1,0,0:0:0:0:
192,192,186282,1,0,0:0:0:0:
192,192,186522,128,0,186714:0:0:0:0:
320,192,186522,1,0,0:0:0:0:
448,192,186714,128,0,187434:0:0:0:0:
64,192,186714,1,0,0:0:0:0:
320,192,186954,1,0,0:0:0:0:
64,192,187146,128,0,187434:0:0:0:0:
320,192,187434,128,0,187865:0:0:0:0:
192,192,187434,1,0,0:0:0:0:
448,192,187673,1,0,0:0:0:0:
192,192,187865,128,0,188249:0:0:0:0:
64,192,187865,1,0,0:0:0:0:
320,192,188249,128,0,188441:0:0:0:0:
448,192,188249,1,0,0:0:0:0:
64,192,188441,128,0,188872:0:0:0:0:
192,192,188441,1,0,0:0:0:0:
320,192,188585,1,0,0:0:0:0:
448,192,188681,1,0,0:0:0:0:
320,192,188776,1,0,0:0:0:0:
192,192,188872,128,0,189112:0:0:0:0:
448,192,189112,1,0,0:0:0:0:
320,192,189112,1,0,0:0:0:0:
64,192,189112,1,0,0:0:0:0:
320,192,189352,1,0,0:0:0:0:
448,192,189352,1,0,0:0:0:0:
192,192,189544,1,0,0:0:0:0:
320,192,189544,1,0,0:0:0:0:
64,192,189736,1,0,0:0:0:0:
192,192,189736,1,0,0:0:0:0:
192,192,189976,1,0,0:0:0:0:
448,192,189976,1,0,0:0:0:0:
320,192,190215,1,0,0:0:0:0:
448,192,190215,1,0,0:0:0:0:
64,192,190455,1,0,0:0:0:0:
448,192,190455,1,0,0:0:0:0:
64,192,190647,1,0,0:0:0:0:
320,192,190647,1,0,0:0:0:0:
320,192,190839,1,0,0:0:0:0:
448,192,190839,1,0,0:0:0:0:
320,192,191079,1,0,0:0:0:0:
64,192,191079,1,0,0:0:0:0:
320,192,191271,1,0,0:0:0:0:
192,192,191271,1,0,0:0:0:0:
64,192,191462,1,0,0:0:0:0:
448,192,191462,1,0,0:0:0:0:
448,192,191702,1,0,0:0:0:0:
192,192,191702,1,0,0:0:0:0:
448,192,191942,1,0,0:0:0:0:
64,192,191942,1,0,0:0:0:0:
192,192,192182,1,0,0:0:0:0:
320,192,192182,1,0,0:0:0:0:
320,192,192540,1,0,0:0:0:0:
448,192,192540,128,0,193260:0:0:0:0:
192,192,192636,1,0,0:0:0:0:
64,192,192732,1,0,0:0:0:0:
192,192,192828,1,0,0:0:0:0:
320,192,192924,1,0,0:0:0:0:
192,192,193020,1,0,0:0:0:0:
64,192,193116,1,0,0:0:0:0:
192,192,193212,1,0,0:0:0:0:
320,192,193260,1,0,0:0:0:0:
320,192,193429,1,4,0:0:0:0:
192,192,193429,1,4,0:0:0:0:
448,192,207242,5,0,0:0:0:0:
192,192,207242,1,0,0:0:0:0:
64,192,207242,1,0,0:0:0:0:
320,192,207242,1,0,0:0:0:0:
192,192,207434,128,0,207865:0:0:0:0:
64,192,207673,1,0,0:0:0:0:
448,192,207673,1,0,0:0:0:0:
320,192,207769,1,0,0:0:0:0:
448,192,207865,1,0,0:0:0:0:
64,192,207865,1,0,0:0:0:0:
64,192,208105,128,0,208345:0:0:0:0:
448,192,208105,128,0,208345:0:0:0:0:
192,192,208345,1,0,0:0:0:0:
320,192,208345,1,0,0:0:0:0:
64,192,208537,128,0,208776:0:0:0:0:
448,192,208537,128,0,208776:0:0:0:0:
320,192,208776,1,0,0:0:0:0:
192,192,208776,1,0,0:0:0:0:
448,192,208968,1,0,0:0:0:0:
320,192,209064,1,0,0:0:0:0:
192,192,209160,1,0,0:0:0:0:
320,192,209256,1,0,0:0:0:0:
192,192,209352,1,0,0:0:0:0:
64,192,209448,1,0,0:0:0:0:
192,192,209544,1,0,0:0:0:0:
448,192,209640,1,0,0:0:0:0:
320,192,209736,128,0,210455:0:0:0:0:
64,192,210071,1,0,0:0:0:0:
192,192,210263,1,0,0:0:0:0:
64,192,210455,1,0,0:0:0:0:
448,192,210695,1,0,0:0:0:0:
320,192,210791,1,0,0:0:0:0:
448,192,210887,1,0,0:0:0:0:
320,192,210983,1,0,0:0:0:0:
192,192,211079,1,0,0:0:0:0:
64,192,211175,1,0,0:0:0:0:
192,192,211270,1,0,0:0:0:0:
320,192,211366,1,0,0:0:0:0:
64,192,211510,1,0,0:0:0:0:
448,192,211510,1,0,0:0:0:0:
64,192,211606,1,0,0:0:0:0:
448,192,211606,1,0,0:0:0:0:
320,192,211894,128,0,212086:0:0:0:0:
192,192,211894,128,0,212086:0:0:0:0:
448,192,212086,1,0,0:0:0:0:
64,192,212086,1,0,0:0:0:0:
320,192,212182,1,0,0:0:0:0:
192,192,212182,1,0,0:0:0:0:
320,192,212278,1,0,0:0:0:0:
192,192,212278,1,0,0:0:0:0:
192,192,212422,1,0,0:0:0:0:
64,192,212422,128,0,212613:0:0:0:0:
192,192,212613,128,0,212853:0:0:0:0:
320,192,212613,1,0,0:0:0:0:
320,192,212853,128,0,213045:0:0:0:0:
448,192,212853,1,0,0:0:0:0:
448,192,213045,128,0,213189:0:0:0:0:
64,192,213045,1,0,0:0:0:0:
192,192,213189,1,0,0:0:0:0:
448,192,213525,1,0,0:0:0:0:
320,192,213525,1,0,0:0:0:0:
64,192,213717,1,0,0:0:0:0:
192,192,213717,1,0,0:0:0:0:
448,192,213908,1,0,0:0:0:0:
320,192,213908,1,0,0:0:0:0:
192,192,214148,1,8,0:0:0:0:
64,192,214148,1,0,0:0:0:0:
448,192,214148,1,0,0:0:0:0:
320,192,214148,1,8,0:0:0:0:
320,192,214340,128,0,214628:0:0:0:0:
448,192,214340,128,0,214628:0:0:0:0:
64,192,214340,128,0,214628:0:0:0:0:
192,192,214340,128,0,214628:0:0:0:0:
64,192,214724,1,0,0:0:0:0:
320,192,214724,1,0,0:0:0:0:
192,192,214820,1,0,0:0:0:0:
448,192,214820,1,0,0:0:0:0:
320,192,214964,1,0,0:0:0:0:
64,192,214964,1,0,0:0:0:0:
448,192,214964,1,0,0:0:0:0:
192,192,215203,1,0,0:0:0:0:
64,192,215203,1,0,0:0:0:0:
448,192,215203,1,0,0:0:0:0:
64,192,215443,1,0,0:0:0:0:
320,192,215443,1,0,0:0:0:0:
448,192,215443,1,0,0:0:0:0:
192,192,215658,1,0,0:0:0:0:
64,192,215658,1,0,0:0:0:0:
448,192,215658,1,0,0:0:0:0:
448,192,215875,1,0,0:0:0:0:
320,192,215875,1,0,0:0:0:0:
192,192,215875,1,0,0:0:0:0:
64,192,216067,1,0,0:0:0:0:
192,192,216067,1,0,0:0:0:0:
320,192,216067,1,0,0:0:0:0:
448,192,216306,1,0,0:0:0:0:
320,192,216306,1,0,0:0:0:0:
192,192,216306,1,0,0:0:0:0:
320,192,216546,1,0,0:0:0:0:
192,192,216546,1,0,0:0:0:0:
64,192,216738,1,0,0:0:0:0:
448,192,216738,1,0,0:0:0:0:
64,192,217170,128,0,217601:0:0:0:0:
448,192,217170,128,0,217601:0:0:0:0:
320,192,217601,128,0,217841:0:0:0:0:
192,192,217601,1,0,0:0:0:0:
64,192,217841,128,0,218033:0:0:0:0:
192,192,217841,1,0,0:0:0:0:
320,192,218033,128,0,218225:0:0:0:0:
448,192,218033,1,0,0:0:0:0:
448,192,218225,128,0,218465:0:0:0:0:
64,192,218225,1,0,0:0:0:0:
192,192,218465,128,0,218657:0:0:0:0:
320,192,218465,1,0,0:0:0:0:
320,192,218657,128,0,218896:0:0:0:0:
64,192,218657,1,0,0:0:0:0:
64,192,218896,128,0,219088:0:0:0:0:
192,192,218896,1,0,0:0:0:0:
448,192,219088,128,0,219520:0:0:0:0:
320,192,219088,1,0,0:0:0:0:
64,192,219520,128,0,219952:0:0:0:0:
192,192,219520,1,0,0:0:0:0:
320,192,219952,1,0,0:0:0:0:
448,192,219952,1,0,0:0:0:0:
448,192,220191,1,0,0:0:0:0:
320,192,220191,1,0,0:0:0:0:
448,192,220287,1,0,0:0:0:0:
320,192,220287,1,0,0:0:0:0:
448,192,220527,1,0,0:0:0:0:
320,192,220527,1,0,0:0:0:0:
320,192,221055,1,0,0:0:0:0:
448,192,221055,1,0,0:0:0:0:
64,192,221055,1,0,0:0:0:0:
192,192,221055,1,0,0:0:0:0:
448,192,221269,1,0,0:0:0:0:
192,192,221269,1,0,0:0:0:0:
64,192,221269,1,0,0:0:0:0:
320,192,221726,1,0,0:0:0:0:
64,192,221726,1,0,0:0:0:0:
448,192,221726,1,0,0:0:0:0:
448,192,221918,1,0,0:0:0:0:
320,192,221918,1,0,0:0:0:0:
64,192,222014,1,0,0:0:0:0:
192,192,222014,1,0,0:0:0:0:
448,192,222110,1,0,0:0:0:0:
320,192,222110,1,0,0:0:0:0:
320,192,222372,1,0,0:0:0:0:
192,192,222372,1,0,0:0:0:0:
64,192,222372,1,0,0:0:0:0:
320,192,222781,1,0,0:0:0:0:
448,192,222781,1,0,0:0:0:0:
64,192,222781,1,0,0:0:0:0:
192,192,222781,1,0,0:0:0:0:
192,192,222996,1,0,0:0:0:0:
320,192,222996,1,0,0:0:0:0:
448,192,222996,1,0,0:0:0:0:
320,192,223453,1,0,0:0:0:0:
64,192,223453,1,0,0:0:0:0:
192,192,223453,1,0,0:0:0:0:
64,192,223645,1,0,0:0:0:0:
192,192,223645,1,0,0:0:0:0:
320,192,223741,1,0,0:0:0:0:
448,192,223741,1,0,0:0:0:0:
64,192,223836,1,0,0:0:0:0:
192,192,223836,1,0,0:0:0:0:
192,192,224099,1,0,0:0:0:0:
320,192,224099,1,0,0:0:0:0:
448,192,224099,1,0,0:0:0:0:
320,192,224508,1,0,0:0:0:0:
448,192,224508,1,0,0:0:0:0:
64,192,224508,1,0,0:0:0:0:
192,192,224508,1,0,0:0:0:0:
448,192,224722,1,0,0:0:0:0:
192,192,224722,1,0,0:0:0:0:
64,192,224722,1,0,0:0:0:0:
448,192,225179,1,0,0:0:0:0:
320,192,225179,1,0,0:0:0:0:
192,192,225179,1,0,0:0:0:0:
448,192,225371,1,0,0:0:0:0:
320,192,225371,1,0,0:0:0:0:
64,192,225467,1,0,0:0:0:0:
192,192,225467,1,0,0:0:0:0:
448,192,225563,1,0,0:0:0:0:
320,192,225563,1,0,0:0:0:0:
320,192,225826,1,0,0:0:0:0:
448,192,225826,1,0,0:0:0:0:
64,192,225826,1,0,0:0:0:0:
448,192,226235,1,0,0:0:0:0:
64,192,226235,1,0,0:0:0:0:
192,192,226235,1,0,0:0:0:0:
320,192,226235,1,0,0:0:0:0:
320,192,226449,1,0,0:0:0:0:
192,192,226449,1,0,0:0:0:0:
64,192,226449,1,0,0:0:0:0:
448,192,226906,1,0,0:0:0:0:
64,192,226906,1,0,0:0:0:0:
192,192,226906,1,0,0:0:0:0:
320,192,226906,1,0,0:0:0:0:
320,192,227242,1,0,0:0:0:0:
192,192,227242,1,0,0:0:0:0:
448,192,227338,1,0,0:0:0:0:
64,192,227338,1,0,0:0:0:0:
320,192,227529,1,0,0:0:0:0:
192,192,227529,1,0,0:0:0:0:
192,192,227721,1,0,0:0:0:0:
320,192,227769,1,0,0:0:0:0:
448,192,227817,1,0,0:0:0:0:
320,192,227865,1,0,0:0:0:0:
192,192,227913,1,0,0:0:0:0:
320,192,227961,1,0,0:0:0:0:
448,192,227961,1,0,0:0:0:0:
64,192,227961,1,0,0:0:0:0:
192,192,227961,1,0,0:0:0:0:
448,192,228176,1,0,0:0:0:0:
192,192,228176,1,0,0:0:0:0:
64,192,228176,1,0,0:0:0:0:
64,192,228633,1,0,0:0:0:0:
320,192,228633,1,0,0:0:0:0:
192,192,228633,1,0,0:0:0:0:
448,192,228824,1,0,0:0:0:0:
64,192,228824,1,0,0:0:0:0:
448,192,228920,1,0,0:0:0:0:
64,192,228920,1,0,0:0:0:0:
448,192,229016,1,0,0:0:0:0:
64,192,229016,1,0,0:0:0:0:
448,192,229279,1,0,0:0:0:0:
320,192,229279,1,0,0:0:0:0:
192,192,229279,1,0,0:0:0:0:
64,192,229687,1,0,0:0:0:0:
448,192,229688,1,0,0:0:0:0:
320,192,229688,1,0,0:0:0:0:
192,192,229688,1,0,0:0:0:0:
448,192,229902,1,0,0:0:0:0:
320,192,229902,1,0,0:0:0:0:
64,192,229902,1,0,0:0:0:0:
448,192,230359,1,0,0:0:0:0:
64,192,230359,1,0,0:0:0:0:
192,192,230359,1,0,0:0:0:0:
320,192,230551,1,0,0:0:0:0:
192,192,230551,1,0,0:0:0:0:
320,192,230647,1,0,0:0:0:0:
192,192,230647,1,0,0:0:0:0:
192,192,230742,1,0,0:0:0:0:
320,192,230743,1,0,0:0:0:0:
192,192,231005,1,0,0:0:0:0:
320,192,231005,1,0,0:0:0:0:
448,192,231005,1,0,0:0:0:0:
320,192,231414,1,0,0:0:0:0:
448,192,231414,1,0,0:0:0:0:
64,192,231414,1,0,0:0:0:0:
192,192,231414,1,0,0:0:0:0:
320,192,231629,1,0,0:0:0:0:
192,192,231629,1,0,0:0:0:0:
64,192,231629,1,0,0:0:0:0:
448,192,232086,1,0,0:0:0:0:
320,192,232086,1,0,0:0:0:0:
192,192,232086,1,0,0:0:0:0:
448,192,232278,1,0,0:0:0:0:
64,192,232278,1,0,0:0:0:0:
448,192,232374,1,0,0:0:0:0:
64,192,232374,1,0,0:0:0:0:
448,192,232470,1,0,0:0:0:0:
64,192,232470,1,0,0:0:0:0:
448,192,232732,1,0,0:0:0:0:
192,192,232732,1,0,0:0:0:0:
64,192,232732,1,0,0:0:0:0:
448,192,233141,1,0,0:0:0:0:
64,192,233141,1,0,0:0:0:0:
192,192,233141,1,0,0:0:0:0:
320,192,233141,1,0,0:0:0:0:
448,192,233355,1,0,0:0:0:0:
320,192,233355,1,0,0:0:0:0:
64,192,233355,1,0,0:0:0:0:
448,192,233812,1,0,0:0:0:0:
64,192,233812,1,0,0:0:0:0:
192,192,233812,1,0,0:0:0:0:
320,192,233812,1,0,0:0:0:0:
448,192,234148,1,0,0:0:0:0:
320,192,234148,1,0,0:0:0:0:
192,192,234148,1,0,0:0:0:0:
320,192,234244,1,0,0:0:0:0:
64,192,234244,1,0,0:0:0:0:
192,192,234244,1,0,0:0:0:0:
448,192,234436,1,0,0:0:0:0:
64,192,234436,1,0,0:0:0:0:
320,192,234628,1,0,0:0:0:0:
192,192,234676,1,0,0:0:0:0:
64,192,234724,1,0,0:0:0:0:
192,192,234772,1,0,0:0:0:0:
320,192,234820,1,0,0:0:0:0:
192,192,234868,1,0,0:0:0:0:
64,192,234868,1,0,0:0:0:0:
448,192,234868,1,0,0:0:0:0:
320,192,234868,1,0,0:0:0:0:
448,192,235082,1,0,0:0:0:0:
320,192,235082,1,0,0:0:0:0:
192,192,235082,1,0,0:0:0:0:
448,192,235539,1,0,0:0:0:0:
64,192,235539,1,0,0:0:0:0:
320,192,235539,1,0,0:0:0:0:
320,192,235731,1,0,0:0:0:0:
192,192,235732,1,0,0:0:0:0:
64,192,235827,1,0,0:0:0:0:
448,192,235827,1,0,0:0:0:0:
320,192,235923,1,0,0:0:0:0:
192,192,235923,1,0,0:0:0:0:
448,192,236185,1,0,0:0:0:0:
192,192,236185,1,0,0:0:0:0:
64,192,236185,1,0,0:0:0:0:
320,192,236594,1,0,0:0:0:0:
448,192,236594,1,0,0:0:0:0:
64,192,236594,1,0,0:0:0:0:
192,192,236594,1,0,0:0:0:0:
320,192,236809,1,0,0:0:0:0:
192,192,236809,1,0,0:0:0:0:
64,192,236809,1,0,0:0:0:0:
64,192,237266,1,0,0:0:0:0:
448,192,237266,1,0,0:0:0:0:
192,192,237266,1,0,0:0:0:0:
64,192,237458,1,0,0:0:0:0:
448,192,237458,1,0,0:0:0:0:
320,192,237553,1,0,0:0:0:0:
192,192,237553,1,0,0:0:0:0:
448,192,237649,1,0,0:0:0:0:
64,192,237649,1,0,0:0:0:0:
320,192,237912,1,0,0:0:0:0:
448,192,237912,1,0,0:0:0:0:
64,192,237912,1,0,0:0:0:0:
320,192,238321,1,0,0:0:0:0:
448,192,238321,1,0,0:0:0:0:
64,192,238321,1,0,0:0:0:0:
192,192,238321,1,0,0:0:0:0:
448,192,238535,1,0,0:0:0:0:
320,192,238535,1,0,0:0:0:0:
192,192,238535,1,0,0:0:0:0:
448,192,238992,1,0,0:0:0:0:
64,192,238992,1,0,0:0:0:0:
192,192,238992,1,0,0:0:0:0:
320,192,239184,1,0,0:0:0:0:
192,192,239185,1,0,0:0:0:0:
64,192,239280,1,0,0:0:0:0:
448,192,239280,1,0,0:0:0:0:
320,192,239376,1,0,0:0:0:0:
192,192,239376,1,0,0:0:0:0:
448,192,239638,1,0,0:0:0:0:
320,192,239638,1,0,0:0:0:0:
192,192,239638,1,0,0:0:0:0:
448,192,240047,1,0,0:0:0:0:
64,192,240047,1,0,0:0:0:0:
320,192,240047,1,0,0:0:0:0:
192,192,240048,1,0,0:0:0:0:
320,192,240262,1,0,0:0:0:0:
448,192,240262,1,0,0:0:0:0:
64,192,240262,1,0,0:0:0:0:
64,192,240719,1,0,0:0:0:0:
448,192,240719,1,0,0:0:0:0:
192,192,240719,1,0,0:0:0:0:
320,192,240719,1,0,0:0:0:0:
320,192,241055,1,0,0:0:0:0:
64,192,241055,1,0,0:0:0:0:
192,192,241055,1,0,0:0:0:0:
448,192,241151,1,0,0:0:0:0:
192,192,241151,1,0,0:0:0:0:
320,192,241151,1,0,0:0:0:0:
320,192,241342,1,0,0:0:0:0:
192,192,241342,1,0,0:0:0:0:
192,192,241534,1,0,0:0:0:0:
320,192,241582,1,0,0:0:0:0:
192,192,241630,1,0,0:0:0:0:
320,192,241678,1,0,0:0:0:0:
192,192,241726,1,0,0:0:0:0:
320,192,241774,1,0,0:0:0:0:
448,192,241774,1,0,0:0:0:0:
64,192,241774,1,0,0:0:0:0:
192,192,241774,1,0,0:0:0:0:
448,192,241989,1,0,0:0:0:0:
192,192,241989,1,0,0:0:0:0:
64,192,241989,1,0,0:0:0:0:
448,192,242446,1,0,0:0:0:0:
320,192,242446,1,0,0:0:0:0:
192,192,242446,1,0,0:0:0:0:
64,192,242637,1,0,0:0:0:0:
448,192,242637,1,0,0:0:0:0:
192,192,242638,1,0,0:0:0:0:
320,192,242733,1,0,0:0:0:0:
64,192,242829,1,0,0:0:0:0:
448,192,242829,1,0,0:0:0:0:
192,192,242829,1,0,0:0:0:0:
320,192,243092,1,0,0:0:0:0:
192,192,243092,1,0,0:0:0:0:
64,192,243092,1,0,0:0:0:0:
64,192,243500,1,0,0:0:0:0:
448,192,243501,1,0,0:0:0:0:
320,192,243501,1,0,0:0:0:0:
192,192,243501,1,0,0:0:0:0:
448,192,243715,1,0,0:0:0:0:
192,192,243715,1,0,0:0:0:0:
64,192,243715,1,0,0:0:0:0:
192,192,244172,1,0,0:0:0:0:
64,192,244172,1,0,0:0:0:0:
448,192,244172,1,0,0:0:0:0:
448,192,244364,1,0,0:0:0:0:
320,192,244364,1,0,0:0:0:0:
64,192,244364,1,0,0:0:0:0:
192,192,244460,1,0,0:0:0:0:
64,192,244556,1,0,0:0:0:0:
448,192,244556,1,0,0:0:0:0:
320,192,244556,1,0,0:0:0:0:
320,192,244818,1,0,0:0:0:0:
448,192,244818,1,0,0:0:0:0:
64,192,244818,1,0,0:0:0:0:
320,192,245227,1,0,0:0:0:0:
448,192,245227,1,0,0:0:0:0:
64,192,245227,1,0,0:0:0:0:
192,192,245227,1,0,0:0:0:0:
448,192,245442,1,0,0:0:0:0:
192,192,245442,1,0,0:0:0:0:
64,192,245442,1,0,0:0:0:0:
448,192,245899,1,0,0:0:0:0:
320,192,245899,1,0,0:0:0:0:
192,192,245899,1,0,0:0:0:0:
448,192,246091,1,0,0:0:0:0:
64,192,246091,1,0,0:0:0:0:
192,192,246091,1,0,0:0:0:0:
320,192,246187,1,0,0:0:0:0:
64,192,246282,1,0,0:0:0:0:
448,192,246282,1,0,0:0:0:0:
192,192,246282,1,0,0:0:0:0:
320,192,246545,1,0,0:0:0:0:
192,192,246545,1,0,0:0:0:0:
64,192,246545,1,0,0:0:0:0:
448,192,246954,1,0,0:0:0:0:
64,192,246954,1,0,0:0:0:0:
192,192,246954,1,0,0:0:0:0:
320,192,246954,1,0,0:0:0:0:
320,192,247168,1,0,0:0:0:0:
192,192,247168,1,0,0:0:0:0:
64,192,247168,1,0,0:0:0:0:
448,192,247625,1,0,0:0:0:0:
64,192,247625,1,0,0:0:0:0:
192,192,247625,1,0,0:0:0:0:
320,192,247625,1,0,0:0:0:0:
192,192,247961,1,0,0:0:0:0:
320,192,248057,1,0,0:0:0:0:
320,192,248249,1,0,0:0:0:0:
192,192,248440,1,0,0:0:0:0:
448,192,248633,1,0,0:0:0:0:
320,192,248633,1,0,0:0:0:0:
64,192,248633,1,0,0:0:0:0:
192,192,248729,1,0,0:0:0:0:
320,192,248824,1,0,0:0:0:0:
192,192,248920,1,0,0:0:0:0:
64,192,248920,1,0,0:0:0:0:
448,192,248920,1,0,0:0:0:0:
320,192,249016,1,0,0:0:0:0:
192,192,249112,1,0,0:0:0:0:
320,192,249208,1,0,0:0:0:0:
448,192,249208,1,0,0:0:0:0:
64,192,249208,1,0,0:0:0:0:
192,192,249304,1,0,0:0:0:0:
320,192,249400,1,0,0:0:0:0:
192,192,249496,1,0,0:0:0:0:
64,192,249496,1,0,0:0:0:0:
448,192,249496,1,0,0:0:0:0:
320,192,249592,1,0,0:0:0:0:
192,192,249688,1,0,0:0:0:0:
448,192,249784,1,0,0:0:0:0:
320,192,249784,1,0,0:0:0:0:
64,192,249784,1,0,0:0:0:0:
320,192,250263,1,0,0:0:0:0:
192,192,250311,1,0,0:0:0:0:
64,192,250359,1,0,0:0:0:0:
192,192,250455,1,0,0:0:0:0:
320,192,250551,1,0,0:0:0:0:
64,192,250647,1,0,0:0:0:0:
192,192,250647,1,0,0:0:0:0:
448,192,250647,1,0,0:0:0:0:
320,192,250743,1,0,0:0:0:0:
192,192,250839,1,0,0:0:0:0:
448,192,250935,1,0,0:0:0:0:
320,192,250935,1,0,0:0:0:0:
64,192,250935,1,0,0:0:0:0:
192,192,251031,1,0,0:0:0:0:
320,192,251079,1,0,0:0:0:0:
64,192,251175,1,0,0:0:0:0:
192,192,251175,1,0,0:0:0:0:
448,192,251175,1,0,0:0:0:0:
320,192,251270,1,0,0:0:0:0:
192,192,251366,1,0,0:0:0:0:
448,192,251462,1,0,0:0:0:0:
320,192,251462,1,0,0:0:0:0:
64,192,251462,1,0,0:0:0:0:
192,192,251558,1,0,0:0:0:0:
320,192,251990,1,0,0:0:0:0:
192,192,252038,1,0,0:0:0:0:
64,192,252086,1,0,0:0:0:0:
192,192,252182,1,0,0:0:0:0:
320,192,252278,1,0,0:0:0:0:
448,192,252374,1,0,0:0:0:0:
320,192,252422,1,0,0:0:0:0:
192,192,252470,1,0,0:0:0:0:
64,192,252517,1,0,0:0:0:0:
192,192,252613,1,0,0:0:0:0:
320,192,252709,1,0,0:0:0:0:
448,192,252805,1,0,0:0:0:0:
320,192,252853,1,0,0:0:0:0:
192,192,252901,1,0,0:0:0:0:
64,192,252949,1,0,0:0:0:0:
192,192,253045,1,0,0:0:0:0:
320,192,253141,1,0,0:0:0:0:
448,192,253237,1,0,0:0:0:0:
320,192,253285,1,0,0:0:0:0:
192,192,253333,1,0,0:0:0:0:
64,192,253381,1,0,0:0:0:0:
192,192,253477,1,0,0:0:0:0:
320,192,253573,1,0,0:0:0:0:
448,192,253669,1,0,0:0:0:0:
320,192,253717,1,0,0:0:0:0:
192,192,253764,1,0,0:0:0:0:
64,192,253812,1,0,0:0:0:0:
192,192,253908,1,0,0:0:0:0:
320,192,254004,1,0,0:0:0:0:
448,192,254100,1,0,0:0:0:0:
320,192,254148,1,0,0:0:0:0:
192,192,254196,1,0,0:0:0:0:
64,192,254244,1,0,0:0:0:0:
192,192,254340,1,0,0:0:0:0:
320,192,254436,1,0,0:0:0:0:
448,192,254532,1,0,0:0:0:0:
320,192,254580,1,0,0:0:0:0:
192,192,254628,1,0,0:0:0:0:
64,192,254676,1,0,0:0:0:0:
192,192,254772,1,0,0:0:0:0:
320,192,254868,1,0,0:0:0:0:
448,192,254964,1,0,0:0:0:0:
320,192,255011,1,0,0:0:0:0:
192,192,255059,1,0,0:0:0:0:
64,192,255107,1,0,0:0:0:0:
192,192,255203,1,0,0:0:0:0:
320,192,255299,1,0,0:0:0:0:
448,192,255395,1,0,0:0:0:0:
320,192,255491,1,0,0:0:0:0:
192,192,255587,1,0,0:0:0:0:
64,192,255635,1,0,0:0:0:0:
320,192,255731,1,0,0:0:0:0:
448,192,255779,1,0,0:0:0:0:
192,192,255875,1,0,0:0:0:0:
64,192,255923,1,0,0:0:0:0:
320,192,256019,1,0,0:0:0:0:
448,192,256067,1,0,0:0:0:0:
192,192,256163,1,0,0:0:0:0:
64,192,256211,1,0,0:0:0:0:
320,192,256306,1,0,0:0:0:0:
448,192,256354,1,0,0:0:0:0:
192,192,256450,1,0,0:0:0:0:
64,192,256498,1,0,0:0:0:0:
320,192,256594,1,0,0:0:0:0:
448,192,256642,1,0,0:0:0:0:
192,192,256738,1,0,0:0:0:0:
64,192,256786,1,0,0:0:0:0:
320,192,256882,1,0,0:0:0:0:
448,192,256930,1,0,0:0:0:0:
192,192,257026,1,0,0:0:0:0:
64,192,257074,1,0,0:0:0:0:
448,192,257314,1,0,0:0:0:0:
320,192,257362,1,0,0:0:0:0:
64,192,257458,1,0,0:0:0:0:
192,192,257505,1,0,0:0:0:0:
448,192,257601,1,0,0:0:0:0:
320,192,257649,1,0,0:0:0:0:
64,192,257745,1,0,0:0:0:0:
192,192,257793,1,0,0:0:0:0:
448,192,257889,1,0,0:0:0:0:
320,192,257937,1,0,0:0:0:0:
64,192,258033,1,0,0:0:0:0:
192,192,258081,1,0,0:0:0:0:
448,192,258177,1,0,0:0:0:0:
320,192,258225,1,0,0:0:0:0:
64,192,258321,1,0,0:0:0:0:
192,192,258369,1,0,0:0:0:0:
448,192,258465,1,0,0:0:0:0:
320,192,258513,1,0,0:0:0:0:
64,192,258609,1,0,0:0:0:0:
192,192,258657,1,0,0:0:0:0:
192,192,259040,1,0,0:0:0:0:
64,192,259136,1,0,0:0:0:0:
192,192,259232,1,0,0:0:0:0:
64,192,259328,1,0,0:0:0:0:
192,192,259424,1,0,0:0:0:0:
64,192,259520,1,0,0:0:0:0:
192,192,259616,1,0,0:0:0:0:
320,192,259712,1,0,0:0:0:0:
448,192,259808,1,0,0:0:0:0:
320,192,259904,1,0,0:0:0:0:
448,192,260000,1,0,0:0:0:0:
320,192,260095,1,0,0:0:0:0:
448,192,260191,1,0,0:0:0:0:
320,192,260287,1,0,0:0:0:0:
192,192,260383,1,0,0:0:0:0:
64,192,260479,1,0,0:0:0:0:
192,192,260527,1,0,0:0:0:0:
320,192,260575,1,0,0:0:0:0:
448,192,260623,1,0,0:0:0:0:
320,192,260719,1,0,0:0:0:0:
192,192,260815,1,0,0:0:0:0:
64,192,260911,1,0,0:0:0:0:
192,192,260959,1,0,0:0:0:0:
320,192,261007,1,0,0:0:0:0:
448,192,261055,1,0,0:0:0:0:
320,192,261151,1,0,0:0:0:0:
192,192,261247,1,0,0:0:0:0:
64,192,261342,1,0,0:0:0:0:
192,192,261390,1,0,0:0:0:0:
320,192,261438,1,0,0:0:0:0:
448,192,261486,1,0,0:0:0:0:
320,192,261582,1,0,0:0:0:0:
192,192,261678,1,0,0:0:0:0:
64,192,261774,1,0,0:0:0:0:
192,192,261822,1,0,0:0:0:0:
320,192,261870,1,0,0:0:0:0:
448,192,261918,1,0,0:0:0:0:
320,192,262014,1,0,0:0:0:0:
192,192,262110,1,0,0:0:0:0:
64,192,262206,1,0,0:0:0:0:
192,192,262254,1,0,0:0:0:0:
320,192,262302,1,0,0:0:0:0:
448,192,262350,1,0,0:0:0:0:
320,192,262446,1,0,0:0:0:0:
320,192,262541,128,4,263645:0:0:0:0:
448,192,262541,128,4,263453:0:0:0:0:
64,192,262541,128,0,264028:0:0:0:0:
192,192,262541,128,0,263836:0:0:0:0:
320,192,264220,1,0,0:0:0:0:
448,192,264220,1,0,0:0:0:0:
64,192,264460,1,0,0:0:0:0:
192,192,264460,1,0,0:0:0:0:
192,192,264892,128,0,265515:0:0:0:0:
320,192,264892,1,8,0:0:0:0:
448,192,265131,1,0,0:0:0:0:
320,192,265227,1,0,0:0:0:0:
64,192,265323,1,0,0:0:0:0:
320,192,265419,1,0,0:0:0:0:
448,192,265515,1,0,0:0:0:0:
192,192,265947,1,0,0:0:0:0:
64,192,265947,1,0,0:0:0:0:
448,192,266187,1,0,0:0:0:0:
320,192,266187,1,0,0:0:0:0:
64,192,266618,128,0,267242:0:0:0:0:
192,192,266618,1,8,0:0:0:0:
448,192,266858,1,0,0:0:0:0:
320,192,266954,1,0,0:0:0:0:
192,192,267050,1,0,0:0:0:0:
320,192,267146,1,0,0:0:0:0:
448,192,267242,128,0,267434:0:0:0:0:
320,192,267434,128,0,267673:0:0:0:0:
448,192,267673,1,0,0:0:0:0:
64,192,267673,1,0,0:0:0:0:
192,192,267673,1,0,0:0:0:0:
448,192,267913,1,0,0:0:0:0:
320,192,267913,1,0,0:0:0:0:
192,192,268105,1,0,0:0:0:0:
320,192,268105,1,0,0:0:0:0:
64,192,268297,1,0,0:0:0:0:
192,192,268297,1,0,0:0:0:0:
192,192,268537,1,0,0:0:0:0:
320,192,268537,1,0,0:0:0:0:
64,192,268968,1,0,0:0:0:0:
448,192,268968,1,0,0:0:0:0:
192,192,269160,1,0,0:0:0:0:
320,192,269160,1,0,0:0:0:0:
64,192,269400,1,0,0:0:0:0:
448,192,269400,1,0,0:0:0:0:
192,192,269592,1,0,0:0:0:0:
64,192,269592,1,0,0:0:0:0:
64,192,269784,1,0,0:0:0:0:
192,192,269832,1,0,0:0:0:0:
320,192,269880,1,0,0:0:0:0:
448,192,269928,1,0,0:0:0:0:
64,192,270071,1,0,0:0:0:0:
192,192,270071,1,0,0:0:0:0:
448,192,270215,1,0,0:0:0:0:
320,192,270263,1,0,0:0:0:0:
192,192,270311,1,0,0:0:0:0:
64,192,270359,1,0,0:0:0:0:
448,192,270695,1,0,0:0:0:0:
64,192,270695,1,0,0:0:0:0:
64,192,271126,1,0,0:0:0:0:
192,192,271127,128,0,271366:0:0:0:0:
448,192,271366,128,0,271558:0:0:0:0:
320,192,271366,1,0,0:0:0:0:
192,192,271558,1,0,0:0:0:0:
64,192,271558,128,0,271750:0:0:0:0:
448,192,271750,128,0,271990:0:0:0:0:
320,192,271750,1,0,0:0:0:0:
320,192,271990,1,0,0:0:0:0:
64,192,271990,1,8,0:0:0:0:
192,192,271990,1,8,0:0:0:0:
448,192,272421,1,0,0:0:0:0:
192,192,272422,128,0,272613:0:0:0:0:
448,192,272613,128,0,272853:0:0:0:0:
320,192,272613,1,0,0:0:0:0:
64,192,272853,128,0,273045:0:0:0:0:
320,192,273045,128,0,273237:0:0:0:0:
192,192,273045,1,0,0:0:0:0:
448,192,273237,1,0,0:0:0:0:
192,192,273237,128,0,273525:0:0:0:0:
448,192,273525,128,0,273717:0:0:0:0:
64,192,273525,1,0,0:0:0:0:
192,192,273717,1,8,0:0:0:0:
64,192,273717,1,8,0:0:0:0:
320,192,273717,1,0,0:0:0:0:
192,192,273956,1,0,0:0:0:0:
320,192,273956,1,0,0:0:0:0:
448,192,274148,1,0,0:0:0:0:
64,192,274148,1,0,0:0:0:0:
320,192,274340,1,0,0:0:0:0:
192,192,274340,1,0,0:0:0:0:
448,192,274579,1,0,0:0:0:0:
64,192,274579,1,0,0:0:0:0:
192,192,274579,1,0,0:0:0:0:
320,192,274580,1,0,0:0:0:0:
192,192,274820,1,0,0:0:0:0:
448,192,274820,1,0,0:0:0:0:
448,192,275011,1,0,0:0:0:0:
192,192,275011,1,0,0:0:0:0:
320,192,275203,1,0,0:0:0:0:
64,192,275203,1,0,0:0:0:0:
64,192,275443,128,0,275875:0:0:0:0:
448,192,275443,128,0,275875:0:0:0:0:
192,192,275779,1,0,0:0:0:0:
320,192,275875,1,0,0:0:0:0:
192,192,276066,1,0,0:0:0:0:
448,192,276067,1,0,0:0:0:0:
320,192,276306,1,0,0:0:0:0:
64,192,276306,1,0,0:0:0:0:
448,192,276546,1,0,0:0:0:0:
320,192,276546,1,0,0:0:0:0:
64,192,276738,1,0,0:0:0:0:
192,192,276738,1,0,0:0:0:0:
192,192,276978,1,0,0:0:0:0:
320,192,276978,1,0,0:0:0:0:
64,192,277074,1,0,0:0:0:0:
448,192,277074,1,0,0:0:0:0:
192,192,277170,1,0,0:0:0:0:
320,192,277170,1,0,0:0:0:0:
448,192,277601,1,0,0:0:0:0:
64,192,277601,1,0,0:0:0:0:
192,192,278033,1,0,0:0:0:0:
448,192,278033,1,0,0:0:0:0:
192,192,278273,1,0,0:0:0:0:
448,192,278273,1,0,0:0:0:0:
192,192,278657,1,0,0:0:0:0:
448,192,278657,1,0,0:0:0:0:
192,192,279376,1,0,0:0:0:0:
448,192,279376,1,0,0:0:0:0:
64,192,279766,1,0,0:0:0:0:
320,192,279766,1,0,0:0:0:0:
64,192,280000,1,0,0:0:0:0:
320,192,280000,1,0,0:0:0:0:
320,192,280386,1,0,0:0:0:0:
64,192,280386,1,0,0:0:0:0:
320,192,280863,1,0,0:0:0:0:
192,192,280863,1,0,0:0:0:0:
448,192,280863,1,0,0:0:0:0:
320,192,281077,1,0,0:0:0:0:
192,192,281077,1,0,0:0:0:0:
64,192,281077,1,0,0:0:0:0:
192,192,281534,1,0,0:0:0:0:
448,192,281534,1,0,0:0:0:0:
64,192,281534,1,0,0:0:0:0:
320,192,281534,1,0,0:0:0:0:
320,192,281726,1,0,0:0:0:0:
192,192,281918,1,0,0:0:0:0:
64,192,282110,1,0,0:0:0:0:
64,192,282350,1,0,0:0:0:0:
448,192,282350,128,0,282781:0:0:0:0:
192,192,282350,128,0,282781:0:0:0:0:
320,192,282781,1,0,0:0:0:0:
64,192,282973,1,0,0:0:0:0:
448,192,282973,1,0,0:0:0:0:
448,192,283213,1,0,0:0:0:0:
320,192,283213,1,0,0:0:0:0:
448,192,283453,1,0,0:0:0:0:
192,192,283453,1,0,0:0:0:0:
64,192,283645,1,0,0:0:0:0:
320,192,283645,1,0,0:0:0:0:
448,192,283884,1,0,0:0:0:0:
320,192,283884,1,0,0:0:0:0:
64,192,284124,1,0,0:0:0:0:
192,192,284124,1,0,0:0:0:0:
448,192,284556,1,0,0:0:0:0:
64,192,284556,1,0,0:0:0:0:
448,192,284940,1,0,0:0:0:0:
64,192,284940,1,0,0:0:0:0:
320,192,284940,1,0,0:0:0:0:
192,192,284940,1,0,0:0:0:0:
192,192,285179,1,0,0:0:0:0:
320,192,285179,1,0,0:0:0:0:
320,192,285611,1,0,0:0:0:0:
64,192,285611,1,0,0:0:0:0:
448,192,285611,1,0,0:0:0:0:
192,192,285851,1,0,0:0:0:0:
64,192,285851,1,8,0:0:0:0:
448,192,285851,1,8,0:0:0:0:
192,192,286235,1,0,0:0:0:0:
320,192,286235,1,0,0:0:0:0:
64,192,286666,1,0,0:0:0:0:
448,192,286666,1,0,0:0:0:0:
64,192,286906,1,0,0:0:0:0:
448,192,286906,1,0,0:0:0:0:
192,192,287098,1,0,0:0:0:0:
320,192,287098,1,0,0:0:0:0:
320,192,287338,1,0,0:0:0:0:
192,192,287338,1,0,0:0:0:0:
64,192,287386,1,0,0:0:0:0:
448,192,287386,1,0,0:0:0:0:
192,192,287434,1,0,0:0:0:0:
320,192,287434,1,0,0:0:0:0:
64,192,287577,1,8,0:0:0:0:
448,192,287577,1,8,0:0:0:0:
64,192,287961,1,0,0:0:0:0:
320,192,287961,1,0,0:0:0:0:
448,192,288153,1,0,0:0:0:0:
320,192,288153,1,0,0:0:0:0:
64,192,288393,1,0,0:0:0:0:
320,192,288393,1,0,0:0:0:0:
64,192,288633,1,0,0:0:0:0:
448,192,288633,1,0,0:0:0:0:
192,192,288872,1,0,0:0:0:0:
64,192,288872,1,0,0:0:0:0:
448,192,289064,1,0,0:0:0:0:
192,192,289064,1,0,0:0:0:0:
64,192,289256,1,0,0:0:0:0:
448,192,289256,1,0,0:0:0:0:
192,192,289496,1,0,0:0:0:0:
320,192,289496,1,0,0:0:0:0:
448,192,289736,1,0,0:0:0:0:
192,192,289736,1,0,0:0:0:0:
192,192,289928,1,8,0:0:0:0:
320,192,289928,1,8,0:0:0:0:
448,192,289928,1,8,0:0:0:0:
64,192,289928,1,8,0:0:0:0:
