osu file format v14

[General]
AudioFilename: buyobuyo_sketch.mp3
AudioLeadIn: 0
PreviewTime: 15040
Countdown: 1
SampleSet: Normal
StackLeniency: 0.7
Mode: 1
LetterboxInBreaks: 0
WidescreenStoryboard: 1

[Editor]
DistanceSpacing: 1.6
BeatDivisor: 4
GridSize: 8
TimelineZoom: 1.7

[Metadata]
Title:Igomoyos=Omul no Thema ni yoru Buyobuyo Sketch no Kokoromi
TitleUnicode:イゴモヨス=オムルのテーマによるブヨブヨ・スケッチの試み
Artist:Nippon Gakuon Noise Kyoukai
ArtistUnicode:日本楽音ノイズ協会
Creator:uone
Version:yassu-'s Futsuu
Source:SOUND VOLTEX II -infinite infection-
Tags:Soyomogi Lumo theme Tokyo Θinema Paradiso コードなき時代の楽団 nihon Independent Research Original Song Contest 夏だ!休みだ!自由研究オリジナル楽曲コンテスト yassu- komasy
BeatmapID:1460859
BeatmapSetID:690019

[Difficulty]
HPDrainRate:6
CircleSize:5
OverallDifficulty:4
ApproachRate:5
SliderMultiplier:1.4
SliderTickRate:1

[Events]
//Background and Video events
0,0,"buyobuyo19201080.jpg",0,0
//Break Periods
//Storyboard Layer 0 (Background)
//Storyboard Layer 1 (Fail)
//Storyboard Layer 2 (Pass)
//Storyboard Layer 3 (Foreground)
//Storyboard Sound Samples

[TimingPoints]
640,300,3,1,0,70,1,0
2440,-100,3,1,0,90,0,0
4840,-100,3,1,0,80,0,0
7840,-100,3,1,0,90,0,0
29940,-100,3,1,0,80,0,0
30340,300,4,1,0,80,1,0
30340,-100,4,1,0,80,0,0
32740,300,3,1,0,80,1,0
32740,-100,3,1,0,80,0,0
33040,-100,3,1,0,90,0,0
36640,-100,3,1,0,90,0,0
38740,-100,3,1,0,80,0,0
41740,-100,3,1,0,90,0,0
45340,300,4,1,0,90,1,0
54940,300,3,1,0,90,1,0
88240,-100,3,1,0,90,0,1
95440,-100,3,1,0,90,0,0
96790,-100,3,1,0,90,0,0
100840,-100,3,1,0,90,0,1
107890,-100,3,1,0,90,0,0
112240,-100,3,1,0,50,0,0

[HitObjects]
256,192,640,5,2,0:0:0:0:
256,192,1090,1,2,0:0:0:0:
256,192,1540,1,2,0:0:0:0:
256,192,2440,1,0,0:0:0:0:
256,192,2740,1,0,0:0:0:0:
256,192,3040,1,2,0:0:0:0:
256,192,3340,1,0,0:0:0:0:
256,192,3640,1,0,0:0:0:0:
256,192,3790,1,0,0:0:0:0:
256,192,3940,1,2,0:0:0:0:
256,192,4240,1,6,0:0:0:0:
256,192,5140,1,2,0:0:0:0:
256,192,6040,1,0,0:0:0:0:
256,192,6640,1,0,0:0:0:0:
256,192,6940,1,2,0:0:0:0:
256,192,7540,1,2,0:0:0:0:
256,192,7840,1,4,0:0:0:0:
256,192,8290,1,0,0:0:0:0:
256,192,8740,1,0,0:0:0:0:
256,192,9190,1,0,0:0:0:0:
256,192,9640,1,2,0:0:0:0:
256,192,10090,1,2,0:0:0:0:
256,192,10540,1,2,0:0:0:0:
256,192,10990,1,2,0:0:0:0:
256,192,11440,1,4,0:0:0:0:
256,192,11890,1,0,0:0:0:0:
256,192,12340,1,0,0:0:0:0:
256,192,12790,1,0,0:0:0:0:
256,192,13240,1,2,0:0:0:0:
256,192,13690,1,2,0:0:0:0:
256,192,14140,1,2,0:0:0:0:
256,192,14590,1,2,0:0:0:0:
256,192,14740,1,2,0:0:0:0:
256,192,15040,1,4,0:0:0:0:
256,192,15490,1,0,0:0:0:0:
256,192,15790,1,2,0:0:0:0:
256,192,15940,1,0,0:0:0:0:
256,192,16240,1,2,0:0:0:0:
256,192,16390,1,0,0:0:0:0:
256,192,16840,1,2,0:0:0:0:
256,192,17290,1,2,0:0:0:0:
256,192,17440,1,0,0:0:0:0:
256,192,17740,1,2,0:0:0:0:
256,192,18040,1,0,0:0:0:0:
256,192,18190,1,2,0:0:0:0:
256,192,18640,1,4,0:0:0:0:
256,192,19090,1,2,0:0:0:0:
256,192,19390,1,0,0:0:0:0:
256,192,19540,1,2,0:0:0:0:
256,192,19840,1,0,0:0:0:0:
256,192,19990,1,2,0:0:0:0:
256,192,20440,1,2,0:0:0:0:
256,192,20890,1,2,0:0:0:0:
256,192,21040,1,0,0:0:0:0:
256,192,21340,1,2,0:0:0:0:
256,192,21640,1,0,0:0:0:0:
264,184,21790,1,2,0:0:0:0:
256,192,21940,1,2,0:0:0:0:
256,192,22240,1,4,0:0:0:0:
256,192,22690,1,0,0:0:0:0:
256,192,22840,1,0,0:0:0:0:
256,192,23140,1,2,0:0:0:0:
256,192,23590,1,2,0:0:0:0:
256,192,24040,1,0,0:0:0:0:
256,192,24640,1,2,0:0:0:0:
256,192,24940,1,0,0:0:0:0:
256,192,25540,1,2,0:0:0:0:
256,192,25840,1,0,0:0:0:0:
256,192,26290,1,0,0:0:0:0:
256,192,26740,1,0,0:0:0:0:
256,192,26890,1,2,0:0:0:0:
256,192,27190,1,0,0:0:0:0:
256,192,27340,1,2,0:0:0:0:
256,192,27640,1,0,0:0:0:0:
256,192,27940,5,0,0:0:0:0:
256,192,28240,1,2,0:0:0:0:
256,192,28540,1,4,0:0:0:0:
256,192,28990,1,4,0:0:0:0:
256,192,29440,1,4,0:0:0:0:
256,192,30340,1,0,0:0:0:0:
256,192,30940,1,2,0:0:0:0:
256,192,31540,1,0,0:0:0:0:
256,192,31740,1,0,0:0:0:0:
256,192,32140,1,2,0:0:0:0:
256,192,32740,1,0,0:0:0:0:
256,192,33190,1,0,0:0:0:0:
256,192,33640,1,2,0:0:0:0:
256,192,33940,1,0,0:0:0:0:
256,192,34240,1,2,0:0:0:0:
256,192,34390,1,2,0:0:0:0:
256,192,34540,1,0,0:0:0:0:
256,192,34990,1,0,0:0:0:0:
256,192,35440,1,2,0:0:0:0:
256,192,35740,1,0,0:0:0:0:
256,192,35890,1,0,0:0:0:0:
256,192,36040,1,2,0:0:0:0:
256,192,36340,1,0,0:0:0:0:
256,192,36640,1,0,0:0:0:0:
256,192,36940,1,2,0:0:0:0:
256,192,37240,1,0,0:0:0:0:
256,192,37540,1,0,0:0:0:0:
256,192,37690,1,0,0:0:0:0:
256,192,37840,1,0,0:0:0:0:
256,192,38140,1,6,0:0:0:0:
256,192,39040,1,2,0:0:0:0:
256,192,39940,1,0,0:0:0:0:
256,192,40540,1,0,0:0:0:0:
256,192,40840,1,2,0:0:0:0:
256,192,41440,1,2,0:0:0:0:
256,192,41740,1,0,0:0:0:0:
256,192,42340,1,0,0:0:0:0:
256,192,42640,1,2,0:0:0:0:
256,192,43240,1,2,0:0:0:0:
256,192,43540,1,0,0:0:0:0:
256,200,43840,1,0,0:0:0:0:
256,192,44140,1,0,0:0:0:0:
256,192,44440,1,2,0:0:0:0:
256,192,44740,1,0,0:0:0:0:
256,192,45040,1,2,0:0:0:0:
256,192,45340,1,4,0:0:0:0:
256,192,45940,1,2,0:0:0:0:
256,192,46440,1,0,0:0:0:0:
256,192,47040,1,2,0:0:0:0:
256,192,47740,1,0,0:0:0:0:
256,192,48240,1,2,0:0:0:0:
256,192,48940,1,0,0:0:0:0:
256,192,49240,1,0,0:0:0:0:
256,192,49540,1,2,0:0:0:0:
256,192,49840,1,2,0:0:0:0:
256,192,50140,1,0,0:0:0:0:
256,192,50740,1,0,0:0:0:0:
256,192,51040,1,2,0:0:0:0:
256,192,51340,1,0,0:0:0:0:
256,192,51640,1,2,0:0:0:0:
256,192,51940,1,0,0:0:0:0:
256,200,52090,1,0,0:0:0:0:
256,200,52240,1,2,0:0:0:0:
256,192,52540,1,0,0:0:0:0:
256,192,52840,1,2,0:0:0:0:
256,192,52990,1,2,0:0:0:0:
256,192,53140,1,0,0:0:0:0:
256,192,53290,1,0,0:0:0:0:
256,192,53440,1,2,0:0:0:0:
256,192,53740,2,0,L|224:168,12,35
256,192,54940,1,4,0:0:0:0:
256,192,55240,1,2,0:0:0:0:
256,192,55390,1,0,0:0:0:0:
256,192,55840,1,0,0:0:0:0:
256,192,56140,1,2,0:0:0:0:
256,192,56290,1,0,0:0:0:0:
248,192,56440,1,0,0:0:0:0:
256,192,56740,1,2,0:0:0:0:
256,192,57040,1,0,0:0:0:0:
256,192,57190,1,2,0:0:0:0:
256,192,57640,1,2,0:0:0:0:
256,192,57940,1,0,0:0:0:0:
256,192,58090,1,2,0:0:0:0:
256,192,58240,1,2,0:0:0:0:
256,192,58540,1,4,0:0:0:0:
256,192,58990,1,0,0:0:0:0:
256,192,59290,1,2,0:0:0:0:
256,192,59440,1,0,0:0:0:0:
256,192,59740,1,2,0:0:0:0:
256,192,59890,1,0,0:0:0:0:
256,192,60040,1,2,0:0:0:0:
256,192,60340,1,4,0:0:0:0:
256,192,60790,1,4,0:0:0:0:
256,192,61240,1,6,0:0:0:0:
256,192,61690,1,6,0:0:0:0:
256,192,62140,1,0,0:0:0:0:
256,192,63040,1,2,0:0:0:0:
256,192,63640,1,2,0:0:0:0:
256,192,63940,1,0,0:0:0:0:
256,192,64840,1,2,0:0:0:0:
256,200,65140,1,2,0:0:0:0:
256,192,65440,1,2,0:0:0:0:
256,192,65740,1,0,0:0:0:0:
256,192,66340,1,0,0:0:0:0:
256,192,66640,1,2,0:0:0:0:
256,192,67240,1,2,0:0:0:0:
256,192,67540,1,0,0:0:0:0:
256,192,68440,1,2,0:0:0:0:
256,192,68740,1,2,0:0:0:0:
256,192,69040,1,2,0:0:0:0:
256,192,69340,1,4,0:0:0:0:
256,192,69640,1,0,0:0:0:0:
256,192,69940,1,0,0:0:0:0:
256,192,70240,1,2,0:0:0:0:
256,192,70840,1,2,0:0:0:0:
256,192,71140,1,4,0:0:0:0:
256,192,71590,1,4,0:0:0:0:
256,192,72040,1,6,0:0:0:0:
256,192,72490,1,6,0:0:0:0:
256,192,72940,1,4,0:0:0:0:
256,192,73840,1,0,0:0:0:0:
256,192,74290,1,0,0:0:0:0:
256,192,74740,1,2,0:0:0:0:
256,192,75040,1,2,0:0:0:0:
256,192,75340,1,2,0:0:0:0:
256,192,75490,1,2,0:0:0:0:
256,192,75640,1,0,0:0:0:0:
256,192,76090,1,2,0:0:0:0:
256,192,76540,1,0,0:0:0:0:
256,192,76690,1,0,0:0:0:0:
256,192,76840,1,2,0:0:0:0:
256,192,77140,1,0,0:0:0:0:
256,192,77590,1,2,0:0:0:0:
256,192,78040,1,2,0:0:0:0:
256,192,78340,1,0,0:0:0:0:
256,192,78940,1,0,0:0:0:0:
256,192,79240,1,2,0:0:0:0:
256,192,79690,1,0,0:0:0:0:
256,192,80140,1,2,0:0:0:0:
256,192,80440,1,0,0:0:0:0:
248,192,80740,1,2,0:0:0:0:
256,192,80890,1,2,0:0:0:0:
256,192,81040,1,0,0:0:0:0:
256,192,81340,1,2,0:0:0:0:
256,192,81640,1,0,0:0:0:0:
256,192,81790,1,0,0:0:0:0:
256,192,81940,1,2,0:0:0:0:
256,192,82240,1,2,0:0:0:0:
256,192,82690,1,0,0:0:0:0:
256,192,83140,1,0,0:0:0:0:
256,192,83740,1,0,0:0:0:0:
256,192,84190,1,0,0:0:0:0:
256,192,84640,1,2,0:0:0:0:
256,192,86440,1,4,0:0:0:0:
256,192,86890,1,4,0:0:0:0:
256,192,87340,1,6,0:0:0:0:
256,192,87790,1,6,0:0:0:0:
256,192,88240,1,0,0:0:0:0:
256,192,88690,1,2,0:0:0:0:
256,192,89140,1,0,0:0:0:0:
256,192,89590,1,2,0:0:0:0:
256,192,89890,1,2,0:0:0:0:
256,192,90040,1,0,0:0:0:0:
256,192,90490,1,2,0:0:0:0:
256,192,90940,1,0,0:0:0:0:
256,192,91090,1,2,0:0:0:0:
256,192,91390,1,2,0:0:0:0:
256,192,91840,1,4,0:0:0:0:
256,192,92290,1,4,0:0:0:0:
256,192,92740,1,6,0:0:0:0:
256,192,93190,1,6,0:0:0:0:
256,192,93640,1,0,0:0:0:0:
256,192,94090,1,2,0:0:0:0:
256,192,94390,1,2,0:0:0:0:
256,192,94540,1,0,0:0:0:0:
256,192,94840,1,0,0:0:0:0:
256,192,94990,1,2,0:0:0:0:
256,192,95290,1,2,0:0:0:0:
256,192,95440,1,0,0:0:0:0:
256,192,96340,1,0,0:0:0:0:
256,192,96790,1,6,0:0:0:0:
256,192,97240,1,4,0:0:0:0:
256,192,97690,1,2,0:0:0:0:
256,192,98140,1,0,0:0:0:0:
256,192,98290,1,0,0:0:0:0:
256,192,98440,1,0,0:0:0:0:
256,192,98590,1,2,0:0:0:0:
256,192,99040,1,0,0:0:0:0:
256,192,99490,1,2,0:0:0:0:
256,192,99940,1,0,0:0:0:0:
256,192,100390,1,2,0:0:0:0:
256,192,100540,1,2,0:0:0:0:
256,192,100690,1,2,0:0:0:0:
256,192,100840,1,0,0:0:0:0:
256,192,101290,1,0,0:0:0:0:
256,192,101740,1,2,0:0:0:0:
256,192,102190,1,2,0:0:0:0:
256,192,102640,1,0,0:0:0:0:
256,192,102940,1,0,0:0:0:0:
256,192,103090,1,2,0:0:0:0:
256,192,103540,1,0,0:0:0:0:
248,192,103840,1,0,0:0:0:0:
248,192,103990,1,2,0:0:0:0:
256,192,104440,1,0,0:0:0:0:
256,192,104740,1,0,0:0:0:0:
256,192,104890,1,2,0:0:0:0:
256,192,105190,1,2,0:0:0:0:
256,192,105340,1,0,0:0:0:0:
256,192,105640,1,0,0:0:0:0:
256,192,105790,1,2,0:0:0:0:
256,192,106240,1,0,0:0:0:0:
256,192,106540,1,2,0:0:0:0:
256,192,106690,1,0,0:0:0:0:
256,192,106990,1,0,0:0:0:0:
256,192,107140,1,2,0:0:0:0:
256,192,107440,1,2,0:0:0:0:
256,192,107590,1,0,0:0:0:0:
256,192,107740,1,0,0:0:0:0:
256,192,107890,1,2,0:0:0:0:
256,192,110140,1,4,0:0:0:0:
256,192,112240,12,4,115240,0:0:0:0:
