osu file format v14

[General]
AudioFilename: audio.mp3
AudioLeadIn: 0
PreviewTime: 3920
Countdown: 0
SampleSet: Soft
StackLeniency: 0.2
Mode: 0
LetterboxInBreaks: 0
WidescreenStoryboard: 0

[Editor]
Bookmarks: 12926,13551
DistanceSpacing: 2.5
BeatDivisor: 16
GridSize: 4
TimelineZoom: 1

[Metadata]
Title:StreetPass Mii Plaza
TitleUnicode:StreetPass Mii Plaza
Artist:Nintendo 3DS Music
ArtistUnicode:Nintendo 3DS Music
Creator:phaZ
Version:
Source:
Tags:
BeatmapID:1500510
BeatmapSetID:709774

[Difficulty]
HPDrainRate:5
CircleSize:5.7
OverallDifficulty:5
ApproachRate:8
SliderMultiplier:1
SliderTickRate:1

[Events]
//Background and Video events
0,0,"Streetpass_Tags.png",0,0
//Break Periods
//Storyboard Layer 0 (Background)
//Storyboard Layer 1 (Fail)
//Storyboard Layer 2 (Pass)
//Storyboard Layer 3 (Foreground)
//Storyboard Layer 4 (Overlay)
//Storyboard Sound Samples

[TimingPoints]
51,500,4,2,0,25,1,0
1551,-100,4,2,0,25,0,0
1926,-100,4,2,0,5,0,0
2051,-50,4,2,0,25,0,0
2113,-50,4,2,0,5,0,0
2301,-50,4,2,0,25,0,0
2363,-50,4,2,0,5,0,0
2551,-50,4,2,0,25,0,0
2613,-50,4,2,0,5,0,0
2801,-50,4,2,0,25,0,0
4801,-100,4,2,0,25,0,0
6051,-50,4,2,0,25,0,0
8801,-66.6666666666667,4,2,0,25,0,0
9301,-50,4,2,0,25,0,0
14051,-66.6666666666667,4,2,0,25,0,0
18051,-50,4,2,0,25,0,0
18551,-66.6666666666667,4,2,0,25,0,0
20051,-50,4,2,0,25,0,0
20801,-100,4,2,0,25,0,0
22051,-50,4,2,0,25,0,0
22551,-66.6666666666667,4,2,0,25,0,0
23551,-50,4,2,0,25,0,0
24801,-66.6666666666667,4,2,0,25,0,0
25301,-50,4,2,0,25,0,0
36551,-66.6666666666667,4,2,0,25,0,0
41051,-50,4,2,0,25,0,0
42051,-22.2222222222222,4,2,0,25,0,0
44551,-44.4444444444445,4,2,0,25,0,0
45551,-200,4,2,0,25,0,0
46551,-66.6666666666667,4,2,0,25,0,0
47051,-50,4,2,0,25,0,0
47384,-40,4,2,0,25,0,0
47717,-33.3333333333333,4,2,0,25,0,0
48051,-33.3333333333333,4,2,0,25,0,0
48551,-40,4,2,0,25,0,0
49051,-50,4,2,0,25,0,0

[Colours]
Combo1 : 255,192,0
Combo2 : 33,169,166
Combo3 : 158,210,62
Combo4 : 225,40,96

[HitObjects]
407,263,550,5,0,0:0:0:0:
412,251,1050,1,0,0:0:0:0:
416,240,1550,2,0,L|425:158,1,75
412,95,2051,6,0,L|387:101,1,25
387,101,2300,2,0,L|362:107,1,25
362,107,2550,2,0,L|337:113,1,25
300,176,2925,6,0,L|327:179,1,25
210,218,3175,2,0,L|193:240,1,25
218,119,3425,2,0,L|206:93,1,25
211,88,3550,1,0,0:0:0:0:
243,171,3800,1,0,0:0:0:0:
125,215,4050,6,0,L|100:209,1,25
100,209,4300,2,0,L|75:203,1,25
75,203,4550,2,0,L|50:197,1,25
47,96,4801,6,0,L|44:114,2,16.6666666666667
112,36,5051,1,0,0:0:0:0:
248,96,5176,1,0,0:0:0:0:
216,8,5301,1,0,0:0:0:0:
144,120,5426,1,0,0:0:0:0:
160,240,5551,1,0,0:0:0:0:
24,300,5676,1,0,0:0:0:0:
56,212,5801,1,0,0:0:0:0:
128,324,5926,1,0,0:0:0:0:
288,16,6051,6,0,L|313:22,1,25
313,22,6301,2,0,L|338:28,1,25
338,28,6551,2,0,L|363:34,1,25
478,280,6926,6,0,P|475:268|470:257,1,25
405,215,7175,2,0,P|392:213|380:215,1,25
316,260,7425,1,0,0:0:0:0:
316,260,7550,2,0,L|284:255,1,25
200,212,7800,2,0,L|224:208,1,25
285,132,8050,6,0,L|295:7,1,125
294,7,8425,2,0,L|316:-5,1,25
204,16,8800,2,0,L|194:141,1,125
112,220,9301,5,0,0:0:0:0:
121,233,9551,1,0,0:0:0:0:
136,243,9800,1,0,0:0:0:0:
154,246,10050,6,0,L|189:245,1,25
179,245,10300,2,0,L|214:244,1,25
204,244,10550,2,0,L|239:243,1,25
300,214,10925,6,0,L|296:189,1,25
367,287,11175,2,0,L|394:296,1,25
271,308,11425,2,0,L|250:327,1,25
245,334,11550,1,0,0:0:0:0:
312,269,11800,1,0,0:0:0:0:
460,357,12050,6,0,L|425:358,1,25
435,358,12300,2,0,L|400:359,1,25
410,359,12550,2,0,L|375:360,1,25
385,359,12925,6,0,L|484:355,1,100,2|0,0:0|0:0,0:0:0:0:
485,356,13300,2,0,L|442:357,1,25,2|0,0:0|0:0,0:0:0:0:
385,359,13550,2,0,L|428:358,1,25,2|0,0:0|0:0,0:0:0:0:
92,56,14051,6,0,P|145:63|201:39,1,112.500004291535
260,36,14550,5,0,0:0:0:0:
318,49,14675,1,0,0:0:0:0:
367,89,14800,1,0,0:0:0:0:
393,151,14926,2,0,P|395:175|388:200,1,37.5000014305115
365,253,15175,1,0,0:0:0:0:
304,297,15300,1,0,0:0:0:0:
225,300,15426,2,0,P|204:293|185:282,1,37.5000014305115
136,224,15676,1,0,0:0:0:0:
129,138,15801,1,0,0:0:0:0:
178,63,15925,1,0,0:0:0:0:
268,36,16050,5,0,0:0:0:0:
512,384,16175,1,0,0:0:0:0:
493,384,16425,1,0,0:0:0:0:
510,318,16550,1,0,0:0:0:0:
412,251,17300,5,0,0:0:0:0:
416,240,17550,2,0,L|425:158,1,75.0000028610231
344,60,18051,6,0,L|339:97,1,25
341,85,18301,2,0,L|336:122,1,25
337,109,18551,6,0,B|334:134|334:134|308:116|272:112|247:123,1,112.500004291535
187,189,19051,1,0,0:0:0:0:
210,179,19176,2,0,P|213:216|233:248,1,75.0000028610231
311,263,19551,2,0,P|341:240|359:208,1,75.0000028610231
334,134,20051,6,0,B|337:109,1,25
311,263,20301,2,0,B|331:278,1,25
210,179,20551,2,0,B|186:188,1,25
63,229,20801,5,0,0:0:0:0:
7,129,21050,2,0,L|80:141,1,75
80,141,21801,1,0,0:0:0:0:
182,35,22051,6,0,L|207:31,1,25
207,31,22301,2,0,L|230:28,1,25
231,27,22551,6,0,B|254:25|254:25|246:56|253:86|282:104,1,112.500004291535
313,194,23051,1,0,0:0:0:0:
299,174,23176,2,0,P|346:137|350:122,1,75.0000028610231
412,52,23551,2,0,L|401:74,1,25
333,53,23801,2,0,L|331:28,1,25
183,197,24051,6,0,L|173:72,1,125
173,72,24425,2,0,L|151:60,1,25
93,91,24801,2,0,L|103:216,1,125
83,284,25300,5,0,0:0:0:0:
114,289,25550,1,0,0:0:0:0:
143,277,25800,1,0,0:0:0:0:
162,252,26050,1,0,0:0:0:0:
171,138,26301,5,0,0:0:0:0:
80,97,26551,2,0,L|63:198,1,100
0,71,27051,2,0,P|92:39|133:110,1,175
172,11,27551,2,0,P|232:67|305:29,1,175
329,102,28051,6,0,P|357:151|418:162,1,100
464,175,28426,1,0,0:0:0:0:
504,119,28551,1,0,0:0:0:0:
410,47,28801,1,0,0:0:0:0:
332,86,28926,1,0,0:0:0:0:
331,94,28988,1,0,0:0:0:0:
329,102,29051,6,0,P|301:151|240:162,1,100
185,82,29551,2,0,P|213:33|274:22,1,100
416,81,30051,1,0,0:0:0:0:
216,303,30301,6,0,L|159:280,1,50
184,167,30551,2,0,L|165:213,1,50
48,199,30801,2,0,L|94:217,1,50
98,287,31051,6,0,P|80:317|92:378,1,100
155,357,31426,1,0,0:0:0:0:
155,357,31551,2,0,P|194:374|266:339,1,100
338,323,32051,6,0,L|483:283,1,150
467,216,32551,1,0,0:0:0:0:
467,216,33051,1,0,0:0:0:0:
417,263,33301,5,0,0:0:0:0:
402,253,33551,1,0,0:0:0:0:
393,240,33800,1,0,0:0:0:0:
397,215,34051,6,0,L|393:240,1,25
400,191,34301,2,0,L|397:215,1,25
403,167,34551,2,0,L|400:191,1,25
234,16,34926,6,0,L|237:40,1,25
331,128,35176,2,0,L|307:118,1,25
186,155,35426,2,0,L|205:140,1,25
178,152,35551,1,0,0:0:0:0:
248,98,35801,1,0,0:0:0:0:
303,257,36051,6,0,L|299:233,1,25
308,282,36301,2,0,L|304:258,1,25
311,304,36551,2,0,B|308:282|308:282|312:306|312:306|299:337|261:346,1,112.500004291535
119,341,37176,1,0,0:0:0:0:
119,341,37301,2,0,L|116:383,1,37.5000014305115
15,336,37551,2,0,L|17:298,1,37.5000014305115
74,219,37801,2,0,L|77:261,1,37.5000014305115
10,182,38051,6,0,B|10:129|10:129|14:125|14:125|14:64,1,112.500004291535
79,35,38801,1,0,0:0:0:0:
171,167,39051,2,0,B|126:193|126:193|120:192|120:192|74:219,1,112.500004291535
10,182,39801,1,0,0:0:0:0:
79,35,40051,2,0,B|124:61|124:61|126:66|126:66|179:97,1,112.500004291535
172,167,40801,1,0,0:0:0:0:
262,299,41051,6,0,P|348:343|388:282,1,175
430,247,41551,2,0,P|494:175|446:120,1,175
432,46,42051,6,0,L|487:34,1,56.2500021457673
377,58,42301,2,0,L|432:46,1,56.2500021457673
321,69,42551,2,0,L|377:58,1,56.2500021457673
175,176,42926,6,0,L|170:105,1,56.2500021457673
264,0,43176,2,0,L|205:40,1,56.2500021457673
68,12,43426,2,0,L|131:42,1,56.2500021457673
56,16,43551,1,0,0:0:0:0:
169,62,43801,1,0,0:0:0:0:
200,212,44051,6,0,L|144:223,1,56.2500021457673
255,201,44301,2,0,L|199:212,1,56.2500021457673
310,190,44551,2,0,B|255:201|255:201|310:190|310:190|345:208|346:258,1,168.750006437302
263,360,45176,1,0,0:0:0:0:
256,365,45301,2,0,B|208:376|208:376|177:356,1,84.3750032186509
144,308,45551,6,0,L|119:306,1,25
29,345,46051,2,0,L|27:341,1,4.16666666666667
14,39,46551,6,0,P|47:79|104:81,1,112.500004291535
162,117,47051,2,0,P|181:71|226:51,1,100
284,17,47384,2,0,P|329:35|349:132,1,125
416,131,47717,2,0,P|397:185|457:251,1,150.000005722046
471,181,48051,6,0,L|209:204,1,262.500010013581
209,210,48551,6,0,L|444:230,1,218.75
427,234,49051,6,0,L|399:236,1,25
402,235,49801,6,0,P|374:246|351:287,1,75
328,352,50051,2,0,L|251:369,1,75
194,386,50301,2,0,L|185:352,1,25
160,255,50551,2,0,L|193:246,1,25
292,222,50801,2,0,L|300:255,1,25
