osu file format v14

[General]
AudioFilename: audio.mp3
AudioLeadIn: 0
PreviewTime: 510
Countdown: 1
SampleSet: Normal
StackLeniency: 0.3
Mode: 0
LetterboxInBreaks: 0
WidescreenStoryboard: 1

[Editor]
Bookmarks: 575,2123,8316,20704,26897,33091,45478,57865,59413
DistanceSpacing: 1.5
BeatDivisor: 3
GridSize: 16
TimelineZoom: 1.050005

[Metadata]
Title:Thwomp Ruins
TitleUnicode:Thwomp Ruins
Artist:Nintendo
ArtistUnicode:Nintendo
Creator:frogyfro
Version:Expert
Source:Mario Kart 8
Tags:
BeatmapID:2246714
BeatmapSetID:695360

[Difficulty]
HPDrainRate:5
CircleSize:4.6
OverallDifficulty:8.7
ApproachRate:9.4
SliderMultiplier:1.7
SliderTickRate:1

[Events]
//Background and Video events
0,0,"MK8-Course-ThwompRuins.png",0,0
//Break Periods
//Storyboard Layer 0 (Background)
//Storyboard Layer 1 (Fail)
//Storyboard Layer 2 (Pass)
//Storyboard Layer 3 (Foreground)
//Storyboard Layer 4 (Overlay)
//Storyboard Sound Samples

[TimingPoints]
575,387.096774193548,4,1,1,40,1,0
2123,-100,4,1,1,40,0,0
12187,-133.333333333333,4,1,1,40,0,0
14510,-100,4,1,1,40,0,0
18768,-133.333333333333,4,1,1,40,0,0
20704,-133.333333333333,4,2,1,40,0,0
26897,-133.333333333333,4,1,1,40,0,0
33091,-66.6666666666667,4,1,1,40,0,1
57865,-66.6666666666667,4,1,1,40,0,0

[Colours]
Combo1 : 162,202,0
Combo2 : 255,225,155
Combo3 : 156,180,174

[HitObjects]
140,362,575,5,4,0:2:0:0:
68,377,704,1,0,0:2:0:0:
10,336,833,1,0,0:2:0:0:
24,156,962,5,4,0:2:0:0:
21,223,1091,1,0,0:2:0:0:
69,267,1220,1,0,0:2:0:0:
208,384,1349,5,4,0:2:0:0:
232,318,1478,1,0,0:2:0:0:
302,306,1607,1,0,0:2:0:0:
508,306,1736,5,4,0:2:0:0:
476,371,1865,1,0,0:2:0:0:
406,384,1994,1,0,0:2:0:0:
461,193,2123,6,0,L|486:10,1,170,4|2,0:3|0:0,0:0:0:0:
421,316,2768,1,2,0:0:0:0:
486,372,2897,2,0,L|346:363,2,113.333333333333,2|0|0,0:0|0:0|0:0,0:0:0:0:
278,318,3671,6,0,L|94:348,1,170,2|2,0:0|0:0,0:0:0:0:
10,103,4316,1,2,0:0:0:0:
65,161,4445,2,0,L|41:287,1,113.333333333333,2|2,0:0|0:0,0:0:0:0:
112,12,4962,2,0,L|-13:27,1,113.333333333333,2|2,0:0|0:0,0:0:0:0:
479,124,5607,6,0,L|468:10,1,113.333333333333,6|2,0:0|0:0,0:0:0:0:
492,202,5994,2,0,L|431:315,2,113.333333333333,2|0|0,0:0|0:0|0:0,0:0:0:0:
331,29,6768,5,8,0:2:0:0:
398,58,6897,2,8,L|471:39,1,56.6666666666667,8|8,0:2|0:2,0:2:0:0:
224,37,7155,1,8,0:2:0:0:
291,66,7284,2,8,L|364:47,1,56.6666666666667,8|8,0:2|0:2,0:2:0:0:
144,17,7542,5,8,0:2:0:0:
290,377,7800,1,8,0:2:0:0:
386,33,8058,1,8,0:2:0:0:
486,0,8187,1,0,0:0:0:0:
486,0,8252,1,0,0:0:0:0:
486,0,8316,2,0,L|461:117,1,113.333333333333,4|0,0:3|0:0,0:0:0:0:
512,337,8833,5,0,0:0:0:0:
445,302,8962,1,2,0:0:0:0:
355,314,9091,1,2,0:0:0:0:
250,362,9220,1,0,0:0:0:0:
72,281,9349,2,0,L|2:298,1,56.6666666666667,0|2,0:0|0:0,0:0:0:0:
61,384,9736,5,2,0:0:0:0:
19,325,9865,1,2,0:0:0:0:
4,4,10252,2,0,L|49:108,1,113.333333333333,2|2,0:0|0:0,0:0:0:0:
104,5,10639,1,2,0:0:0:0:
151,72,10768,2,0,L|211:63,1,56.6666666666667,2|0,0:0|0:0,0:0:0:0:
292,5,11026,1,2,0:0:0:0:
407,81,11284,5,2,0:0:0:0:
377,11,11413,1,2,0:0:0:0:
475,48,11542,1,0,0:0:0:0:
449,152,11671,1,0,0:0:0:0:
498,273,11800,1,2,0:0:0:0:
421,334,12058,5,2,0:0:0:0:
475,384,12187,2,0,L|378:373,1,85.0000032424928,2|0,0:0|0:0,0:0:0:0:
316,308,12574,2,0,L|266:379,1,85.0000032424928,2|2,0:0|0:0,0:0:0:0:
191,349,12962,6,8,L|173:304,2,42.5000016212464,8|8|8,0:2|0:2|0:2,0:2:0:0:
104,375,13349,2,8,L|62:381,2,42.5000016212464,8|8|8,0:2|0:2|0:2,0:2:0:0:
0,315,13736,2,0,L|45:281,1,42.5000016212464,8|0,0:2|0:2,0:2:0:0:
36,171,13994,2,0,L|29:213,1,42.5000016212464,8|0,0:2|0:2,0:2:0:0:
1,111,14252,2,0,L|-13:59,1,42.5000016212464,8|0,0:2|0:2,0:2:0:0:
332,0,14510,5,6,0:2:0:0:
62,284,14768,1,4,0:2:0:0:
485,384,15026,5,4,0:2:0:0:
451,302,15155,1,6,0:2:0:0:
512,176,15284,2,0,L|501:231,1,56.6666666666667,6|0,0:2|0:2,0:2:0:0:
306,80,15542,6,0,L|364:61,1,56.6666666666667,8|2,0:3|0:3,0:3:0:0:
230,0,15800,2,0,L|311:21,1,56.6666666666667,8|2,0:3|0:3,0:3:0:0:
144,68,16058,2,0,L|209:74,2,56.6666666666667,2|2|8,0:3|0:1|0:3,0:3:0:0:
0,9,16445,6,0,L|20:133,1,113.333333333333,2|2,0:0|0:0,0:0:0:0:
0,333,16833,1,2,0:0:0:0:
66,285,16962,2,0,L|91:342,1,56.6666666666667,2|0,0:0|0:0,0:0:0:0:
235,340,17220,1,2,0:0:0:0:
310,384,17478,5,0,0:0:0:0:
236,353,17607,1,2,0:0:0:0:
331,307,17736,1,0,0:0:0:0:
437,350,17865,1,0,0:0:0:0:
499,235,17994,1,2,0:0:0:0:
450,145,18381,5,2,0:0:0:0:
450,145,18510,1,0,0:0:0:0:
450,145,18639,1,0,0:0:0:0:
496,75,18768,2,0,L|407:51,1,85.0000032424928,2|2,0:0|0:0,0:0:0:0:
248,68,19155,5,10,0:2:0:0:
161,12,19284,1,0,0:0:0:0:
46,71,19413,1,0,0:0:0:0:
153,80,19542,1,10,0:2:0:0:
68,28,19800,5,2,0:0:0:0:
60,107,19929,1,2,0:3:0:0:
0,181,20187,5,2,0:0:0:0:
198,384,20316,1,8,0:0:0:0:
119,346,20445,1,8,0:2:0:0:
0,383,20704,6,0,L|43:351,2,42.5000016212464,6|0|0,0:1|0:0|0:0,0:0:0:0:
176,339,21220,2,0,L|86:318,1,85.0000032424928,4|2,0:0|0:0,0:0:0:0:
35,277,21865,1,2,0:0:0:0:
270,349,22252,6,0,L|362:370,1,85.0000032424928,2|0,0:0|0:0,0:0:0:0:
440,221,22768,2,0,L|461:306,1,85.0000032424928,4|2,0:0|0:0,0:0:0:0:
421,373,23413,1,2,0:0:0:0:
506,134,23800,5,2,0:0:0:0:
354,23,24058,1,4,0:0:0:0:
232,69,24316,1,0,0:0:0:0:
120,30,24574,1,2,0:0:0:0:
50,63,24962,5,2,0:0:0:0:
369,22,25349,5,4,0:0:0:0:
302,46,25478,1,4,0:0:0:0:
372,32,25607,1,4,0:0:0:0:
484,143,25865,2,0,L|461:46,1,85.0000032424928,2|4,0:0|0:0,0:0:0:0:
445,209,26510,2,0,L|456:346,1,127.500004863739,4|4,0:0|0:3,0:0:0:0:
318,335,27155,5,2,0:0:0:0:
260,373,27284,2,0,L|170:336,1,85.0000032424928,4|2,0:0|0:0,0:0:0:0:
117,378,27671,1,2,0:0:0:0:
61,339,28058,1,2,0:0:0:0:
43,154,28316,5,2,0:0:0:0:
72,214,28445,2,0,L|51:266,2,42.5000016212464,2|0|0,0:0|0:0|0:0,0:0:0:0:
90,93,28833,2,0,L|35:11,1,85.0000032424928,8|2,0:0|0:0,0:0:0:0:
132,25,29220,2,0,L|261:13,1,127.500004863739,2|2,0:0|0:0,0:0:0:0:
403,47,29994,6,0,L|415:2,2,42.5000016212464,2|0|0,0:0|0:0|0:0,0:0:0:0:
328,79,30381,1,2,0:0:0:0:
249,49,30639,5,2,0:0:0:0:
177,68,30768,1,2,0:0:0:0:
93,15,31155,5,2,0:0:0:0:
50,145,31413,5,2,0:3:0:0:
21,65,31542,1,4,0:3:0:0:
153,46,31800,5,2,0:3:0:0:
309,25,31929,1,4,0:3:0:0:
238,79,32187,5,2,0:3:0:0:
10,32,32316,1,4,0:3:0:0:
42,157,32575,5,2,0:3:0:0:
90,357,32704,1,4,0:3:0:0:
28,315,32833,1,8,0:3:0:0:
257,308,32962,1,2,0:3:0:0:
470,291,33091,6,0,L|498:111,1,170.000006484986,6|2,0:0|0:0,0:0:0:0:
495,373,33478,1,8,0:0:0:0:
185,359,33736,1,2,0:0:0:0:
279,327,33865,2,0,L|371:332,1,85.0000032424928,2|0,0:0|0:0,0:0:0:0:
61,171,34252,2,0,L|20:-2,1,170.000006484986,2|2,0:0|0:0,0:0:0:0:
0,256,34639,5,2,0:0:0:0:
276,374,34897,1,2,0:0:0:0:
512,198,35155,1,2,0:0:0:0:
440,143,35284,1,2,0:0:0:0:
512,384,35413,1,8,0:0:0:0:
406,353,35671,5,2,0:0:0:0:
311,374,35800,2,0,L|401:385,1,85.0000032424928,2|0,0:0|0:0,0:0:0:0:
151,324,36058,5,0,0:0:0:0:
0,384,36187,2,0,L|51:191,1,170.000006484986,2|0,0:0|0:0,0:0:0:0:
65,0,36574,2,0,L|99:130,1,85.0000032424928,8|0,0:0|0:0,0:0:0:0:
346,33,36833,1,8,0:3:0:0:
414,21,36897,1,8,0:3:0:0:
482,9,36962,1,8,0:3:0:0:
168,366,37349,6,0,L|-24:338,1,170.000006484986,6|2,0:0|0:0,0:0:0:0:
243,384,37736,1,2,0:0:0:0:
512,299,37994,1,2,0:0:0:0:
430,0,38252,1,2,0:0:0:0:
487,67,38381,1,2,0:0:0:0:
123,16,38510,1,8,0:0:0:0:
53,133,38768,5,2,0:3:0:0:
12,38,38897,1,8,0:3:0:0:
12,38,39026,1,8,0:3:0:0:
69,258,39155,5,2,0:3:0:0:
33,350,39284,2,0,L|210:321,1,170,2|2,0:0|0:0,0:0:0:0:
0,277,39671,1,8,0:0:0:0:
106,20,39929,1,2,0:0:0:0:
158,78,40058,2,0,L|250:73,1,85.0000032424928,2|0,0:0|0:0,0:0:0:0:
434,338,40445,2,0,L|475:165,1,170.000006484986,2|2,0:0|0:0,0:0:0:0:
512,384,40832,5,2,0:0:0:0:
200,314,41090,1,2,0:0:0:0:
0,384,41348,1,2,0:0:0:0:
73,326,41477,1,2,0:0:0:0:
5,128,41607,1,8,0:0:0:0:
83,54,41864,5,2,0:0:0:0:
1,1,41993,2,0,L|56:72,1,85.0000032424928,2|0,0:0|0:0,0:0:0:0:
151,324,42251,5,0,0:0:0:0:
0,384,42380,2,0,L|51:191,1,170.000006484986,2|2,0:0|0:0,0:0:0:0:
332,368,42767,2,0,L|202:334,1,85.0000032424928,8|0,0:0|0:0,0:0:0:0:
446,295,43026,1,2,0:0:0:0:
495,366,43155,2,0,L|504:177,1,170.000006484986,2|0,0:0|0:0,0:0:0:0:
505,35,43542,1,2,0:0:0:0:
351,71,43800,5,2,0:3:0:0:
226,35,43929,1,4,0:3:0:0:
40,53,44187,5,2,0:3:0:0:
67,222,44316,1,8,0:1:0:0:
0,292,44574,5,2,0:3:0:0:
113,76,44704,1,4,0:3:0:0:
1,20,44962,5,2,0:3:0:0:
75,296,45091,1,8,0:1:0:0:
110,363,45220,1,2,0:1:0:0:
18,352,45349,1,8,0:1:0:0:
436,320,45478,5,8,0:3:0:0:
512,312,45607,1,2,0:3:0:0:
464,223,45736,1,8,0:3:0:0:
512,0,45865,1,6,0:0:0:0:
445,112,46123,5,2,0:0:0:0:
420,4,46252,2,0,L|490:56,1,85.0000032424928,2|0,0:0|0:0,0:0:0:0:
257,25,46639,2,0,L|87:85,1,170.000006484986,2|2,0:0|0:0,0:0:0:0:
20,283,47026,2,0,L|70:188,1,85.0000032424928,2|0,0:0|0:0,0:0:0:0:
0,0,47413,1,8,0:0:0:0:
337,70,47671,1,2,0:0:0:0:
293,49,47736,1,0,0:0:0:0:
302,1,47800,2,0,L|475:32,1,170.000006484986,2|0,0:0|0:0,0:0:0:0:
446,266,48187,1,2,0:0:0:0:
209,345,48445,5,2,0:0:0:0:
512,355,48574,2,0,L|438:184,1,170.000006484986,2|0,0:0|0:0,0:0:0:0:
291,362,48962,1,8,0:0:0:0:
28,0,49220,5,2,0:0:0:0:
224,54,49349,2,0,L|414:-4,1,170.000006484986,2|0,0:0|0:0,0:0:0:0:
457,79,49736,1,2,0:0:0:0:
482,155,49994,5,2,0:0:0:0:
446,231,50123,1,2,0:3:0:0:
489,311,50381,5,2,0:0:0:0:
317,315,50510,1,8,0:0:0:0:
187,384,50768,5,2,0:0:0:0:
269,376,50897,1,2,0:3:0:0:
137,307,51155,5,2,0:0:0:0:
151,76,51284,1,8,0:0:0:0:
93,22,51413,1,2,0:3:0:0:
51,247,51671,6,0,L|10:365,1,85.0000032424928,2|0,0:0|0:0,0:0:0:0:
499,165,52058,2,0,L|452:-31,1,170.000006484986,6|2,0:0|0:0,0:0:0:0:
453,247,52445,2,0,L|438:366,1,85.0000032424928,2|0,0:0|0:0,0:0:0:0:
11,364,52833,2,0,L|111:366,1,85.0000032424928,2|0,0:0|0:0,0:0:0:0:
338,308,53091,5,2,0:0:0:0:
442,358,53220,2,0,L|502:159,1,170.000006484986,2|0,0:0|0:0,0:0:0:0:
512,384,53607,1,8,0:0:0:0:
177,310,53865,1,2,0:0:0:0:
219,334,53930,1,0,0:0:0:0:
209,382,53994,2,0,L|46:309,1,170.000006484986,2|0,0:0|0:0,0:0:0:0:
0,384,54381,1,2,0:0:0:0:
61,308,54639,5,2,0:0:0:0:
28,166,54768,2,0,L|80:-18,1,170.000006484986,2|0,0:0|0:0,0:0:0:0:
432,338,55155,2,0,L|535:374,1,85.0000032424928,8|0,0:0|0:0,0:0:0:0:
492,52,55413,1,2,0:0:0:0:
366,81,55542,2,0,L|181:23,1,170.000006484986,2|0,0:0|0:0,0:0:0:0:
125,79,55929,1,2,0:0:0:0:
36,22,56187,5,2,0:0:0:0:
67,108,56316,1,2,0:0:0:0:
0,336,56445,1,8,0:0:0:0:
84,315,56574,1,2,0:3:0:0:
353,366,56704,1,4,0:3:0:0:
280,327,56962,5,8,0:1:0:0:
482,82,57091,1,4,0:3:0:0:
437,163,57349,5,2,0:1:0:0:
512,294,57478,1,2,0:3:0:0:
431,312,57736,1,2,0:0:0:0:
372,362,57865,5,4,0:2:0:0:
444,377,57994,1,0,0:2:0:0:
502,336,58123,1,0,0:2:0:0:
488,156,58252,5,4,0:2:0:0:
491,223,58381,1,0,0:2:0:0:
443,267,58510,1,0,0:2:0:0:
304,384,58639,5,4,0:2:0:0:
280,318,58768,1,0,0:2:0:0:
210,306,58897,1,0,0:2:0:0:
5,306,59026,5,4,0:2:0:0:
36,371,59155,1,0,0:2:0:0:
106,384,59284,1,0,0:2:0:0:
52,228,59413,5,4,0:2:0:0:
