osu file format v14

[General]
AudioFilename: audio.mp3
AudioLeadIn: 0
PreviewTime: 15000
Countdown: 0
SampleSet: Soft
StackLeniency: 1
Mode: 0
LetterboxInBreaks: 0
WidescreenStoryboard: 1

[Editor]
Bookmarks: 600,29475
DistanceSpacing: 1.5
BeatDivisor: 4
GridSize: 4
TimelineZoom: 2.4

[Metadata]
Title:Merry Go Round
TitleUnicode:Merry Go Round
Artist:Nintendo
ArtistUnicode:Nintendo
Creator:gamescreator
Version:Insane
Source:Super Mario 64
Tags:videogame n64 boo mansion ost
BeatmapID:950014
BeatmapSetID:441694

[Difficulty]
HPDrainRate:5
CircleSize:5.5
OverallDifficulty:7
ApproachRate:9.5
SliderMultiplier:1.4
SliderTickRate:1

[Events]
//Background and Video events
0,0,"bdc077c8b4bbbd099eeb421963c7f90d_3jtp.1920.jpg",0,0
//Break Periods
//Storyboard Layer 0 (Background)
//Storyboard Layer 1 (Fail)
//Storyboard Layer 2 (Pass)
//Storyboard Layer 3 (Foreground)
//Storyboard Sound Samples

[TimingPoints]
600,300,3,2,0,70,1,0
19425,-200,3,2,0,70,0,0
22200,-100,3,2,0,70,0,0
27600,-200,3,2,0,70,0,0
28500,-100,3,2,0,70,0,0
29475,300,3,2,0,70,1,0
49275,-200,4,2,0,70,0,0
51075,-100,4,2,0,70,0,0

[Colours]
Combo1 : 255,0,0
Combo2 : 255,128,0
Combo3 : 0,128,192
Combo4 : 255,255,0

[HitObjects]
52,56,600,5,2,0:0:0:0:
84,192,750,1,0,0:0:0:0:
224,192,900,1,0,0:0:0:0:
256,56,1050,1,2,0:0:0:0:
396,56,1200,1,0,0:0:0:0:
432,192,1350,1,0,0:0:0:0:
404,328,1500,6,2,L|256:328,1,140
256,328,2100,1,0,0:0:0:0:
52,328,2400,5,2,0:0:0:0:
84,192,2550,1,0,0:0:0:0:
224,192,2700,1,0,0:0:0:0:
256,328,2850,1,2,0:0:0:0:
396,328,3000,1,0,0:0:0:0:
432,192,3150,1,0,0:0:0:0:
404,56,3300,6,2,L|256:56,1,140
256,56,3900,1,0,0:0:0:0:
256,268,4200,5,2,0:0:0:0:
256,128,4350,1,0,0:0:0:0:
202,245,4500,1,0,0:0:0:0:
301,146,4650,1,2,0:0:0:0:
180,192,4800,1,0,0:0:0:0:
320,192,4950,1,0,0:0:0:0:
204,144,5100,6,2,L|304:256,1,140
297,248,5700,1,0,0:0:0:0:
24,192,6000,6,2,L|164:192,1,140
160,192,6600,1,0,0:0:0:0:
488,192,6900,6,2,L|348:192,1,140
352,192,7500,1,0,0:0:0:0:
256,312,7800,5,2,0:0:0:0:
160,208,7950,1,0,0:0:0:0:
256,108,8100,1,0,0:0:0:0:
352,208,8250,1,2,0:0:0:0:
256,312,8400,1,0,0:0:0:0:
160,208,8550,1,0,0:0:0:0:
256,108,8700,6,2,L|256:252,1,140
256,240,9300,1,0,0:0:0:0:
256,72,9600,5,2,0:0:0:0:
160,176,9750,1,0,0:0:0:0:
256,276,9900,1,0,0:0:0:0:
352,176,10050,1,2,0:0:0:0:
256,72,10200,1,0,0:0:0:0:
160,176,10350,1,0,0:0:0:0:
256,276,10500,6,2,L|256:132,1,140
256,144,11100,1,0,0:0:0:0:
408,192,11400,5,2,0:0:0:0:
268,192,11550,1,0,0:0:0:0:
128,192,11700,1,0,0:0:0:0:
268,192,11850,1,2,0:0:0:0:
408,192,12000,1,0,0:0:0:0:
336,312,12150,1,0,0:0:0:0:
196,312,12300,6,2,L|272:188,1,140
480,192,12900,1,0,0:0:0:0:
472,32,13200,6,2,B|440:72|440:72|480:104|480:104|440:156,1,140
468,32,13800,1,0,0:0:0:0:
40,32,14100,6,2,B|72:72|72:72|32:104|32:104|72:156,1,140
44,32,14700,1,0,0:0:0:0:
256,304,15000,5,2,0:0:0:0:
172,192,15150,1,0,0:0:0:0:
296,256,15300,1,0,0:0:0:0:
156,248,15450,1,2,0:0:0:0:
288,196,15600,1,0,0:0:0:0:
192,296,15750,1,0,0:0:0:0:
236,164,15900,6,2,L|252:320,1,140
236,164,16500,1,0,0:0:0:0:
256,304,16800,5,2,0:0:0:0:
340,192,16950,1,0,0:0:0:0:
216,256,17100,1,0,0:0:0:0:
356,248,17250,1,2,0:0:0:0:
224,196,17400,1,0,0:0:0:0:
320,296,17550,1,0,0:0:0:0:
276,164,17700,6,2,L|260:320,1,140
276,164,18300,1,0,0:0:0:0:
256,32,18600,5,2,0:0:0:0:
128,92,18750,1,0,0:0:0:0:
128,232,18900,1,0,0:0:0:0:
256,292,19050,1,2,0:0:0:0:
384,232,19200,1,0,0:0:0:0:
384,92,19350,1,0,0:0:0:0:
256,32,19500,6,2,L|256:108,1,70
256,188,20100,1,0,0:0:0:0:
256,316,20400,2,2,B|272:252|272:252|236:192|236:192|256:104,2,210
256,328,22350,5,2,0:0:0:0:
392,292,22500,2,0,P|424:268|440:220,1,70
400,108,22800,1,0,0:0:0:0:
144,64,23100,2,2,P|208:124|268:128,1,140
452,192,23700,1,0,0:0:0:0:
452,192,24000,6,2,L|364:192,1,70
252,136,24300,2,0,L|328:136,1,70
452,88,24600,1,0,0:0:0:0:
176,136,24900,2,2,P|156:208|176:280,1,140
176,136,25500,1,0,0:0:0:0:
452,192,25800,6,2,L|376:192,1,70
244,192,26100,2,0,L|328:192,1,70
348,192,26400,1,0,0:0:0:0:
256,304,26700,5,2,0:0:0:0:
256,24,27000,1,0,0:0:0:0:
256,304,27300,1,0,0:0:0:0:
200,228,27600,6,2,B|220:172|220:172|256:200|256:200|292:172|292:172|312:232,1,210
256,32,29475,5,2,0:0:0:0:
296,128,29625,1,0,0:0:0:0:
340,32,29775,1,0,0:0:0:0:
380,128,29925,1,2,0:0:0:0:
424,32,30075,1,0,0:0:0:0:
464,128,30225,1,0,0:0:0:0:
464,232,30375,2,2,L|320:232,1,140
116,232,30975,1,0,0:0:0:0:
256,32,31275,5,2,0:0:0:0:
216,128,31425,1,0,0:0:0:0:
172,32,31575,1,0,0:0:0:0:
132,128,31725,1,2,0:0:0:0:
88,32,31875,1,0,0:0:0:0:
48,128,32025,1,0,0:0:0:0:
48,232,32175,2,2,L|192:232,1,140
396,232,32775,1,0,0:0:0:0:
256,252,33075,5,2,0:0:0:0:
256,148,33225,1,0,0:0:0:0:
280,248,33375,1,0,0:0:0:0:
228,156,33525,1,2,0:0:0:0:
304,228,33675,1,0,0:0:0:0:
208,180,33825,1,0,0:0:0:0:
324,204,33975,1,2,0:0:0:0:
352,204,34275,1,0,0:0:0:0:
380,204,34575,1,0,0:0:0:0:
412,204,34875,6,2,L|320:88,1,140
412,204,35475,1,0,0:0:0:0:
100,204,35775,6,2,L|192:88,1,140
100,204,36375,1,0,0:0:0:0:
256,344,36675,5,2,0:0:0:0:
332,272,36825,1,0,0:0:0:0:
256,200,36975,1,0,0:0:0:0:
188,120,37125,1,2,0:0:0:0:
256,40,37275,1,0,0:0:0:0:
324,120,37425,1,0,0:0:0:0:
256,200,37575,2,2,L|160:320,1,140
256,344,38175,1,0,0:0:0:0:
256,40,38475,5,2,0:0:0:0:
332,112,38625,1,0,0:0:0:0:
256,184,38775,1,0,0:0:0:0:
188,264,38925,1,2,0:0:0:0:
256,344,39075,1,0,0:0:0:0:
324,264,39225,1,0,0:0:0:0:
256,184,39375,2,2,L|160:64,1,140
256,40,39975,1,0,0:0:0:0:
400,192,40275,5,2,0:0:0:0:
400,296,40425,1,0,0:0:0:0:
296,296,40575,1,0,0:0:0:0:
296,192,40725,1,2,0:0:0:0:
296,88,40875,1,0,0:0:0:0:
400,88,41025,1,0,0:0:0:0:
400,192,41175,6,2,L|260:192,1,140
52,192,41775,1,0,0:0:0:0:
256,192,42075,6,2,L|256:48,1,140
256,192,42675,1,0,0:0:0:0:
256,192,42975,6,2,L|256:336,1,140
256,192,43575,1,0,0:0:0:0:
48,192,43875,5,2,0:0:0:0:
120,268,44025,1,0,0:0:0:0:
48,344,44175,1,0,0:0:0:0:
120,268,44325,1,2,0:0:0:0:
192,344,44475,1,0,0:0:0:0:
120,268,44625,1,0,0:0:0:0:
188,188,44775,2,2,L|92:296,1,140
280,192,45375,1,0,0:0:0:0:
464,192,45675,5,2,0:0:0:0:
392,268,45825,1,0,0:0:0:0:
464,344,45975,1,0,0:0:0:0:
392,268,46125,1,2,0:0:0:0:
320,344,46275,1,0,0:0:0:0:
392,268,46425,1,0,0:0:0:0:
324,188,46575,2,2,L|420:296,1,140
232,192,47175,1,0,0:0:0:0:
324,192,47475,5,2,0:0:0:0:
184,192,47625,1,0,0:0:0:0:
256,72,47775,1,0,0:0:0:0:
324,192,47925,1,2,0:0:0:0:
184,192,48075,1,0,0:0:0:0:
256,72,48225,1,0,0:0:0:0:
256,212,48375,2,2,L|256:64,1,140
256,212,48975,1,0,0:0:0:0:
240,144,49275,6,2,B|224:156|192:212|240:276|336:244|336:172|276:156|276:184,2,210
256,88,51225,5,2,0:0:0:0:
360,88,51375,2,0,P|388:116|400:152,1,70
400,248,51675,1,0,0:0:0:0:
476,52,51975,1,2,0:0:0:0:
468,260,52275,1,0,0:0:0:0:
280,352,52575,1,0,0:0:0:0:
364,192,52875,6,2,L|272:192,1,70
364,116,53175,2,0,L|284:116,1,70
220,192,53475,1,0,0:0:0:0:
428,192,53775,1,2,0:0:0:0:
256,316,54075,1,0,0:0:0:0:
84,192,54375,1,0,0:0:0:0:
256,192,54675,6,2,L|180:192,1,70
244,280,54975,6,0,L|319:280,1,70
372,192,55275,5,0,0:0:0:0:
160,192,55575,5,2,0:0:0:0:
372,192,55875,5,0,0:0:0:0:
160,192,56175,5,0,0:0:0:0:
256,192,56475,12,0,58275,0:0:0:0:
