osu file format v14

[General]
AudioFilename: audio.mp3
AudioLeadIn: 0
PreviewTime: 15000
Countdown: 0
SampleSet: Soft
StackLeniency: 1
Mode: 0
LetterboxInBreaks: 0
WidescreenStoryboard: 0

[Editor]
Bookmarks: 600,29475
DistanceSpacing: 1
BeatDivisor: 4
GridSize: 4
TimelineZoom: 2.4

[Metadata]
Title:Merry Go Round
TitleUnicode:Merry Go Round
Artist:Nintendo
ArtistUnicode:Nintendo
Creator:gamescreator
Version:Hard
Source:Super Mario 64
Tags:videogame n64 boo mansion ost
BeatmapID:950013
BeatmapSetID:441694

[Difficulty]
HPDrainRate:5
CircleSize:4.5
OverallDifficulty:7
ApproachRate:8
SliderMultiplier:1.4
SliderTickRate:1

[Events]
//Background and Video events
0,0,"bdc077c8b4bbbd099eeb421963c7f90d_3jtp.1920.jpg",0,0
//Break Periods
//Storyboard Layer 0 (Background)
//Storyboard Layer 1 (Fail)
//Storyboard Layer 2 (Pass)
//Storyboard Layer 3 (Foreground)
//Storyboard Sound Samples

[TimingPoints]
600,300,3,2,0,70,1,0
19425,-200,3,2,0,70,0,0
22200,-100,3,2,0,70,0,0
27600,-200,3,2,0,70,0,0
28500,-100,3,2,0,70,0,0
29475,300,3,2,0,70,1,0
49275,-200,4,2,0,70,0,0
51075,-100,4,2,0,70,0,0

[Colours]
Combo1 : 255,0,0
Combo2 : 255,128,0
Combo3 : 0,128,192
Combo4 : 255,255,0

[HitObjects]
48,36,600,6,2,L|124:64,1,70
112,132,900,2,0,L|188:104,1,70
176,36,1200,2,0,L|252:64,1,70
292,108,1500,1,2,0:0:0:0:
416,172,1800,1,0,0:0:0:0:
292,236,2100,1,0,0:0:0:0:
464,348,2400,6,2,L|388:320,1,70
400,252,2700,2,0,L|324:280,1,70
336,348,3000,2,0,L|260:320,1,70
220,276,3300,1,2,0:0:0:0:
96,212,3600,1,0,0:0:0:0:
220,148,3900,1,0,0:0:0:0:
316,44,4200,6,2,L|316:136,1,70
384,168,4500,2,0,L|384:76,1,70
452,140,4800,2,0,L|452:232,1,70
404,260,5100,1,2,0:0:0:0:
280,192,5400,1,0,0:0:0:0:
160,260,5700,1,0,0:0:0:0:
36,192,6000,6,2,L|120:72,1,140
256,84,6600,1,0,0:0:0:0:
476,192,6900,6,2,L|392:72,1,140
256,84,7500,1,0,0:0:0:0:
256,224,7800,6,2,L|328:224,1,70
328,152,8100,2,0,L|236:152,1,70
256,80,8400,2,0,L|332:80,1,70
396,80,8700,1,2,0:0:0:0:
256,80,9000,1,0,0:0:0:0:
116,80,9300,1,0,0:0:0:0:
196,192,9600,6,2,L|252:132,1,70
312,144,9900,2,0,L|256:204,1,70
336,192,10200,2,0,L|392:132,1,70
452,140,10500,1,2,0:0:0:0:
340,56,10800,1,0,0:0:0:0:
228,140,11100,1,0,0:0:0:0:
256,276,11400,6,2,L|256:200,1,70
256,136,11700,2,0,L|320:184,1,70
320,248,12000,2,0,L|320:328,1,70
388,316,12300,1,2,0:0:0:0:
452,192,12600,1,0,0:0:0:0:
392,64,12900,1,0,0:0:0:0:
256,96,13200,6,2,B|252:104|252:104|260:112|260:112|252:120|252:120|260:128|260:128|252:136|252:136|260:144|260:144|252:152|252:152|260:160|260:160|252:168|252:168|260:176|260:176|252:188|252:188|256:196|256:196|256:208,1,140
116,192,13800,1,0,0:0:0:0:
256,288,14100,6,2,B|260:280|260:280|252:272|252:272|260:264|260:264|252:256|252:256|260:248|260:248|252:240|252:240|260:232|260:232|252:224|252:224|260:216|260:216|252:208|252:208|260:196|260:196|256:188|256:188|256:176,1,140
396,192,14700,1,0,0:0:0:0:
396,52,15000,6,2,P|352:60|324:84,1,70
328,144,15300,2,0,P|284:136|256:112,1,70
248,52,15600,2,0,P|204:60|176:84,1,70
180,144,15900,1,2,0:0:0:0:
256,264,16200,1,0,0:0:0:0:
328,144,16500,1,0,0:0:0:0:
428,48,16800,6,2,P|405:86|406:123,1,70
454,159,17100,2,0,P|419:187|383:193,1,70
332,161,17400,2,0,P|309:199|310:236,1,70
256,268,17700,1,2,0:0:0:0:
116,268,18000,1,0,0:0:0:0:
256,268,18300,1,0,0:0:0:0:
396,268,18600,6,2,B|420:232|420:232|396:188,1,70
340,224,18900,2,0,B|316:188|316:188|340:144,1,70
396,148,19200,2,0,B|420:112|420:112|396:68,1,70
352,44,19500,2,2,P|312:56|272:52,1,70
256,192,20100,1,0,0:0:0:0:
256,332,20400,2,0,B|308:300|368:296|368:296|404:264|408:212,2,210
256,264,22350,5,0,0:0:0:0:
256,196,22500,2,0,L|332:196,1,70
396,196,22800,1,0,0:0:0:0:
396,56,23100,1,2,0:0:0:0:
396,196,23400,1,0,0:0:0:0:
396,336,23700,1,0,0:0:0:0:
256,336,24000,6,2,L|184:336,1,70
144,280,24300,2,0,L|88:216,1,70
156,192,24600,1,0,0:0:0:0:
256,96,24900,1,2,0:0:0:0:
256,236,25200,1,0,0:0:0:0:
388,192,25500,1,0,0:0:0:0:
308,308,25800,6,2,P|276:280|228:272,1,70
212,212,26100,2,0,P|180:240|132:248,1,70
148,180,26400,1,0,0:0:0:0:
256,92,26700,6,2,B|236:132|236:132|272:184|272:184|256:224,1,140
256,356,27300,5,0,0:0:0:0:
200,228,27600,6,2,B|220:172|220:172|256:200|256:200|292:172|292:172|312:232,1,210
44,36,29475,6,2,L|76:108,1,70
144,96,29775,2,0,L|112:168,1,70
48,168,30075,2,0,L|80:240,1,70
124,284,30375,2,2,P|184:328|256:340,1,140
364,264,30975,1,0,0:0:0:0:
484,192,31275,6,2,L|392:192,1,70
412,124,31575,2,0,L|504:124,1,70
484,56,31875,2,0,L|396:56,1,70
352,88,32175,2,2,B|332:136|332:136|304:116|304:116|264:184,1,140
256,300,32775,1,0,0:0:0:0:
156,204,33075,6,2,B|124:204|124:204|124:160,1,70
192,144,33375,2,0,B|224:144|224:144|224:100,1,70
156,88,33675,2,0,B|124:88|124:88|124:44,1,70
192,28,33975,2,2,P|248:80|328:92,1,140
408,192,34575,1,0,0:0:0:0:
320,300,34875,6,2,L|256:168,1,140
256,36,35475,1,0,0:0:0:0:
192,300,35775,6,2,L|256:168,1,140
256,36,36375,1,0,0:0:0:0:
256,176,36675,6,2,L|172:192,1,70
256,176,36975,6,0,L|256:256,1,70
256,176,37275,6,0,L|340:192,1,70
328,120,37575,5,2,0:0:0:0:
256,240,37875,1,0,0:0:0:0:
184,120,38175,1,0,0:0:0:0:
256,208,38475,6,2,L|172:192,1,70
256,208,38775,6,0,L|256:128,1,70
256,208,39075,6,0,L|340:192,1,70
328,264,39375,5,2,0:0:0:0:
256,144,39675,1,0,0:0:0:0:
184,264,39975,1,0,0:0:0:0:
64,192,40275,6,2,L|136:192,1,70
204,192,40575,2,0,L|288:192,1,70
344,192,40875,2,0,L|416:192,1,70
344,192,41175,1,2,0:0:0:0:
204,192,41475,1,0,0:0:0:0:
64,192,41775,1,0,0:0:0:0:
64,52,42075,6,2,B|76:72|76:72|108:56|108:56|136:100|136:100|100:120,1,140
228,192,42675,1,0,0:0:0:0:
448,52,42975,6,2,B|436:72|436:72|404:56|404:56|376:100|376:100|412:120,1,140
284,192,43575,1,0,0:0:0:0:
256,328,43875,6,2,B|256:288|256:288|216:264,1,70
256,208,44175,2,0,B|256:168|256:168|296:144,1,70
256,88,44475,2,0,B|256:48|256:48|216:24,1,70
160,32,44775,1,2,0:0:0:0:
160,172,45075,1,0,0:0:0:0:
300,172,45375,1,0,0:0:0:0:
300,312,45675,6,2,P|316:280|368:256,1,70
412,260,45975,2,0,P|396:228|344:204,1,70
300,196,46275,2,0,P|316:164|368:140,1,70
412,144,46575,1,2,0:0:0:0:
304,56,46875,1,0,0:0:0:0:
196,144,47175,1,0,0:0:0:0:
256,272,47475,6,2,P|216:256|188:296,1,70
188,340,47775,2,0,P|148:356|120:316,1,70
80,292,48075,2,0,P|120:276|148:316,1,70
208,272,48375,2,2,B|264:256|280:220|344:188,1,140
440,116,48975,1,0,0:0:0:0:
304,156,49275,6,2,B|288:168|256:224|304:288|400:256|400:184|340:168|340:196,2,210
256,104,51225,5,2,0:0:0:0:
208,152,51375,2,0,L|152:208,1,70
112,256,51675,1,0,0:0:0:0:
112,256,51975,2,2,P|176:280|252:256,1,140
256,320,52575,1,0,0:0:0:0:
256,180,52875,6,2,L|256:256,1,70
256,180,53175,2,0,L|256:104,1,70
256,180,53475,1,0,0:0:0:0:
396,192,53775,2,2,B|424:120|424:120|396:48,1,140
260,64,54375,1,0,0:0:0:0:
256,204,54675,6,2,L|180:192,1,70
256,204,54975,6,0,L|331:192,1,70
256,204,55275,5,0,0:0:0:0:
256,204,55575,5,2,0:0:0:0:
256,204,55875,5,0,0:0:0:0:
256,204,56175,5,0,0:0:0:0:
256,192,56475,12,0,58275,0:0:0:0:
