osu file format v14

[General]
AudioFilename: audio.mp3
AudioLeadIn: 0
PreviewTime: 87197
Countdown: 0
SampleSet: Normal
StackLeniency: 0
Mode: 1
LetterboxInBreaks: 0
WidescreenStoryboard: 0

[Editor]
Bookmarks: 21590,32950,54416,75828,87242,110092,121493,148675,171588,194375,217207,228623,251475,274332
DistanceSpacing: 0.1
BeatDivisor: 4
GridSize: 32
TimelineZoom: 2.194016

[Metadata]
Title:El sueno pesa (feat. Chini Ayarza)
TitleUnicode:El sueño pesa (feat. Chini Ayarza)
Artist:Ninos del Cerro
ArtistUnicode:Niños del Cerro
Creator:Genjuro
Version:Tanto como la muerte
Source:
Tags:spanish neo-psychedelia indie rock dream pop lance
BeatmapID:3215171
BeatmapSetID:1574691

[Difficulty]
HPDrainRate:5
CircleSize:2
OverallDifficulty:4
ApproachRate:10
SliderMultiplier:1.4
SliderTickRate:1

[Events]
//Background and Video events
0,0,"bg.jpg",0,-7
//Break Periods
//Storyboard Layer 0 (Background)
//Storyboard Layer 1 (Fail)
//Storyboard Layer 2 (Pass)
//Storyboard Layer 3 (Foreground)
//Storyboard Layer 4 (Overlay)
//Storyboard Sound Samples

[TimingPoints]
187,368.098159509202,4,1,0,25,1,0
187,-129.36507936508,4,1,0,25,0,0
1659,346.820809248555,4,1,0,25,1,0
1659,-137.301587301587,4,1,0,25,0,0
3046,370.37037037037,4,1,0,25,1,0
3046,-128.571428571429,4,1,0,25,0,0
4527,350.877192982456,4,1,0,25,1,0
4527,-135.714285714286,4,1,0,25,0,0
7334,363.636363636364,4,1,0,25,1,0
7334,-130.952380952381,4,1,0,25,0,0
8788,359.281437125749,4,1,0,25,1,0
8788,-132.539682539682,4,1,0,25,0,0
10225,342.857142857143,4,1,0,25,1,0
10225,-138.888888888889,4,1,0,25,0,0
11596,348.837209302326,4,1,0,25,1,0
11596,-136.507936507936,4,1,0,25,0,0
12991,357.142857142858,4,1,0,25,1,0
12991,-133.333333333333,4,1,0,25,0,0
14419,363.636363636365,4,1,0,25,1,0
14419,-130.95238095238,4,1,0,25,0,0
15873,379.746835443039,4,1,0,25,1,0
15873,-125.396825396825,4,1,0,25,0,0
17391,344.827586206897,4,1,0,25,1,0
17391,-138.095238095238,4,1,0,25,0,0
18770,337.078651685394,4,1,0,25,1,0
18770,-141.269841269841,4,1,0,25,0,0
20034,-141.269841269841,4,1,0,50,0,0
20118,368.098159509203,4,1,0,50,1,0
20118,-129.365079365079,4,1,0,50,0,0
20854,-114.302043149021,4,1,0,50,0,0
21590,347.826086956522,4,1,0,50,1,0
21590,-108.347961040862,4,1,0,50,0,0
22633,376.175548589342,4,1,0,50,1,8
22633,-94.9404761904761,4,1,0,50,0,8
23009,347.826086956522,4,1,0,50,1,0
23009,-102.678571428571,4,1,0,50,0,0
24052,380.952380952381,4,1,0,50,1,8
24052,-93.75,4,1,0,50,0,8
24432,347.826086956522,4,1,0,50,1,0
24432,-102.678571428571,4,1,0,50,0,0
25475,358.208955223881,4,1,0,50,1,8
25475,-99.7023809523809,4,1,0,50,0,8
25833,355.029585798817,4,1,0,50,1,0
25833,-100.595238095238,4,1,0,50,0,0
27253,347.826086956522,4,1,0,50,1,0
27253,-102.678571428571,4,1,0,50,0,0
28296,373.831775700935,4,1,0,50,1,8
28296,-95.5357142857142,4,1,0,50,0,8
28669,360.36036036036,4,1,0,50,1,0
28669,-99.107142857143,4,1,0,50,0,0
31551,349.854227405248,4,1,0,50,1,0
31551,-102.083333333333,4,1,0,50,0,0
32858,-102.083333333333,4,1,0,63,0,0
32950,365.296803652968,4,1,0,63,1,0
32950,-97.7678571428572,4,1,0,63,0,0
34045,377.358490566038,4,1,0,63,1,8
34045,-94.6428571428571,4,1,0,63,0,8
34422,352.941176470588,4,1,0,63,1,0
34422,-101.190476190476,4,1,0,63,0,0
35833,331.034482758621,4,1,0,63,1,0
35833,-107.886904761905,4,1,0,63,0,0
36329,463.320463320463,4,1,0,63,1,8
36329,-77.0833333333334,4,1,0,63,0,8
36560,324.763193504736,4,1,0,63,1,8
36560,-109.970238095238,4,1,0,63,0,8
36885,393.44262295082,4,1,0,63,1,8
36885,-90.7738095238094,4,1,0,63,0,8
37278,351.133869787857,4,1,0,63,1,0
37278,-101.711309523809,4,1,0,63,0,0
38331,393.44262295082,4,1,0,63,1,8
38331,-90.7738095238094,4,1,0,63,0,8
38724,341.880341880342,4,1,0,63,1,0
38724,-104.464285714286,4,1,0,63,0,0
39749,378.548895899054,4,1,0,63,1,8
39749,-94.345238095238,4,1,0,63,0,8
40127,340.425531914894,4,1,0,63,1,0
40127,-104.910714285714,4,1,0,63,0,0
40637,353.460972017673,4,1,0,63,1,8
40637,-101.041666666667,4,1,0,63,0,8
41167,365.296803652968,4,1,0,63,1,8
41167,-97.7678571428572,4,1,0,63,0,8
41531,360.36036036036,4,1,0,63,1,0
41531,-99.107142857143,4,1,0,63,0,0
43693,-108.116874341163,4,1,0,63,0,0
44053,-113.265291097461,4,1,0,63,0,0
44233,-105.71427967347,4,1,0,63,0,0
44413,352.941176470588,4,1,0,63,1,0
44413,-101.190506306698,4,1,0,63,0,0
45118,-110.389653398566,4,1,0,63,0,0
45471,-115.646242769219,4,1,0,63,0,0
45648,-108.083570216491,4,1,0,63,0,0
45824,348.837209302325,4,1,0,63,1,0
45824,-102.38097188209,4,1,0,63,0,0
46565,-112.326483664359,4,1,0,63,0,0
46870,399.334442595674,4,1,0,63,1,8
46870,-102.210924508033,4,1,0,63,0,8
47069,-95.3968173713788,4,1,0,63,0,8
47269,348.837209302326,4,1,0,63,1,0
47269,-102.38097188209,4,1,0,63,0,0
47966,-111.68829138135,4,1,0,63,0,0
48315,387.096774193549,4,1,0,63,1,8
48315,-105.442187630155,4,1,0,63,0,8
48508,-98.4127015369112,4,1,0,63,0,8
48702,345.970880784201,4,1,0,63,1,0
48702,-103.229216345727,4,1,0,63,0,0
49393,-112.613627149794,4,1,0,63,0,0
49739,396.235760277365,4,1,0,63,1,8
49739,-103.01016298268,4,1,0,63,0,8
49937,-96.142845193675,4,1,0,63,0,8
50135,342.857142857143,4,1,0,63,1,0
50135,-104.166666666667,4,1,0,63,0,0
50820,-113.636363636364,4,1,0,63,0,0
51163,379.746835443038,4,1,0,63,1,8
51163,-107.482963950214,4,1,0,63,0,8
51352,-100.317504903018,4,1,0,63,0,8
51542,359.281437125748,4,1,0,63,1,0
51542,-99.404764271542,4,1,0,63,0,0
52260,-108.441521824941,4,1,0,63,0,0
52619,-113.605380350813,4,1,0,63,0,0
52799,-106.176161115954,4,1,0,63,0,0
52979,355.029585798816,4,1,0,63,1,0
52979,-99.6589670148751,4,1,0,63,0,0
53689,333.333333333333,4,1,0,63,1,8
53689,-107.142857142857,4,1,0,63,0,8
54022,348.837209302325,4,1,0,63,1,8
54022,-102.380952380953,4,1,0,63,0,8
54254,487.80487804878,4,1,0,63,1,8
54254,-73.2142857142858,4,1,0,63,0,8
54416,363.636363636363,4,1,0,63,1,0
54416,-98.2142857142859,4,1,0,63,0,0
55870,351.906158357771,4,1,0,63,1,0
55870,-101.488095238095,4,1,0,63,0,0
58685,356.612184249629,4,1,0,63,1,0
58685,-100.148809523809,4,1,0,63,0,0
59754,376.766091051806,4,1,0,63,1,8
59754,-94.7916666666665,4,1,0,63,0,8
60130,355.029585798816,4,1,0,63,1,0
60130,-100.595238095238,4,1,0,63,0,0
61550,347.826086956522,4,1,0,63,1,0
61550,-102.678571428571,4,1,0,63,0,0
62941,347.826086956522,4,1,0,63,1,0
62941,-102.678571428571,4,1,0,63,0,0
63636,381.558028616852,4,1,0,63,1,8
63636,-93.6011904761905,4,1,0,63,0,8
64399,348.837209302326,4,1,0,63,1,0
64399,-102.38097188209,4,1,0,63,0,0
65140,-112.326483664359,4,1,0,63,0,0
65445,404.721753794266,4,1,0,63,1,8
65445,-100.85037032256,4,1,0,63,0,8
65647,-94.1269490161381,4,1,0,63,0,8
65849,355.029585798817,4,1,0,63,1,0
65849,-100.595221928149,4,1,0,63,0,0
66559,-109.740211996142,4,1,0,63,0,0
66914,-114.96605052528,4,1,0,63,0,0
67091,-107.301548468646,4,1,0,63,0,0
67269,351.906158357772,4,1,0,63,1,0
67269,-101.488120308077,4,1,0,63,0,0
67972,-110.714261989801,4,1,0,63,0,0
68324,377.358490566038,4,1,0,63,1,8
68324,-108.163300624751,4,1,0,63,0,8
68512,-100.952384798186,4,1,0,63,0,8
68701,358.476474981329,4,1,0,63,1,0
68701,-99.6279890887426,4,1,0,63,0,0
69417,-108.685019943701,4,1,0,63,0,0
69776,-113.860591369139,4,1,0,63,0,0
69955,-106.269812678201,4,1,0,63,0,0
70134,356.083086053412,4,1,0,63,1,0
70134,-100.297582928549,4,1,0,63,0,0
70846,-109.415535036496,4,1,0,63,0,0
71202,390.879478827361,4,1,0,63,1,8
71202,-104.421738517525,4,1,0,63,0,8
71397,-97.4602824983748,4,1,0,63,0,8
71592,344.827586206897,4,1,0,63,1,0
71592,-103.571454464292,4,1,0,63,0,0
72281,-112.987073148961,4,1,0,63,0,0
72626,386.473429951691,4,1,0,63,1,8
72626,-105.612234121201,4,1,0,63,0,8
72819,-98.5714046326589,4,1,0,63,0,8
73012,344.827586206897,4,1,0,63,1,0
73012,-103.571454464292,4,1,0,63,0,0
73701,-112.987073148961,4,1,0,63,0,0
74046,-118.367288962961,4,1,0,63,0,0
74218,-110.62668913126,4,1,0,63,0,0
74391,359.281437125749,4,1,0,63,1,0
74391,-99.4047619047618,4,1,0,63,0,0
75828,361.445783132531,4,1,0,63,1,0
75828,-98.8095238095236,4,1,0,63,0,0
76550,-131.746031746031,4,1,0,63,0,0
77273,346.820809248556,4,1,0,63,1,0
77273,-137.301587301587,4,1,0,63,0,0
78660,361.445783132531,4,1,0,63,1,0
78660,-131.746031746031,4,1,0,63,0,0
80105,346.820809248556,4,1,0,63,1,0
80105,-137.301587301587,4,1,0,63,0,0
80798,329.670329670331,4,1,0,63,1,8
80798,-144.444444444444,4,1,0,63,0,8
81127,365.853658536587,4,1,0,63,1,8
81127,-130.15873015873,4,1,0,63,0,8
81492,369.230769230769,4,1,0,63,1,0
81492,-128.968253968254,4,1,0,63,0,0
82968,361.44578313253,4,1,0,63,1,0
82968,-131.746031746032,4,1,0,63,0,0
84413,343.839541547278,4,1,0,63,1,0
84413,-138.492070636496,4,1,0,63,0,0
84642,-134.749097181049,4,1,0,63,0,0
84756,-132.952380445896,4,1,0,63,0,0
84871,-131.202947343009,4,1,0,63,0,0
85100,-127.838820814717,4,1,0,63,0,0
85329,-124.642898096952,4,1,0,63,0,0
85444,-123.104043844736,4,1,0,63,0,0
85559,-121.602723901015,4,1,0,63,0,0
85788,352.941176470589,4,1,0,63,1,0
85788,-115.646241589155,4,1,0,63,0,0
85964,-113.617357791586,4,1,0,63,0,0
86052,-112.629444730974,4,1,0,63,0,0
86140,-111.658435584464,4,1,0,63,0,0
86317,-109.765917594774,4,1,0,63,0,0
86493,-107.936483607967,4,1,0,63,0,0
86670,-106.167031128717,4,1,0,63,0,0
86846,-104.4546578229,4,1,0,63,0,0
87023,439.56043956044,4,1,0,63,1,8
87023,-82.5396595808052,4,1,0,63,0,0
87132,-82.5396595808052,4,1,0,88,0,0
87242,340.909090909092,4,1,0,88,1,1
87242,-91.0973351293967,4,1,0,88,0,1
88264,389.610389610391,4,1,0,88,1,9
88264,-79.710144927536,4,1,0,88,0,9
88653,353.200883002207,4,1,0,88,1,1
88653,-87.9270186335405,4,1,0,88,0,1
90065,363.636363636364,4,1,0,88,1,1
90065,-85.4037267080744,4,1,0,88,0,1
91519,353.982300884956,4,1,0,88,1,1
91519,-87.7329192546583,4,1,0,88,0,1
92934,355.029585798816,4,1,0,88,1,1
92934,-87.4741200828159,4,1,0,88,0,1
93999,379.14691943128,4,1,0,88,1,9
93999,-81.9099378881987,4,1,0,88,0,9
94379,355.029585798816,4,1,0,88,1,1
94379,-87.4741200828159,4,1,0,88,0,1
95799,348.837209302326,4,1,0,88,1,1
95799,-89.0269151138715,4,1,0,88,0,1
97194,368.098159509203,4,1,0,88,1,1
97194,-84.3685300207038,4,1,0,88,0,1
98666,352.941176470589,4,1,0,88,1,1
98666,-87.9917184265009,4,1,0,88,0,1
99724,405.405405405406,4,1,0,88,1,9
99724,-76.6045548654243,4,1,0,88,0,9
100129,347.826086956522,4,1,0,88,1,1
100129,-89.2857142857142,4,1,0,88,0,1
101520,346.820809248555,4,1,0,88,1,1
101520,-89.5445134575569,4,1,0,88,0,1
102560,397.350993377484,4,1,0,88,1,9
102560,-78.1573498964802,4,1,0,88,0,9
102957,352.941176470588,4,1,0,88,1,1
102957,-87.9917184265011,4,1,0,88,0,1
104368,342.857142857143,4,1,0,88,1,1
104368,-90.5797101449275,4,1,0,88,0,1
105396,384.615384615385,4,1,0,88,1,9
105396,-80.7453416149068,4,1,0,88,0,9
105780,353.200883002207,4,1,0,88,1,1
105780,-87.9270186335405,4,1,0,88,0,1
107192,362.537764350453,4,1,0,88,1,1
107192,-85.6625258799172,4,1,0,88,0,1
109367,326.975476839237,4,1,0,88,1,9
109367,-94.9792960662526,4,1,0,88,0,9
109857,470.588235294118,4,1,0,88,1,9
109857,-65.9937888198757,4,1,0,88,0,9
109974,-65.9937888198757,4,1,0,100,0,9
110092,362.537764350453,4,1,0,100,1,1
110092,-75.7783882783883,4,1,0,100,0,1
112992,357.142857142857,4,1,0,100,1,1
112992,-76.9230769230769,4,1,0,100,0,1
114420,350.877192982456,4,1,0,100,1,1
114420,-78.2967032967033,4,1,0,100,0,1
115823,353.982300884956,4,1,0,100,1,1
115823,-77.6098901098901,4,1,0,100,0,1
117238,358.208955223881,4,1,0,100,1,1
117238,-76.6941391941391,4,1,0,100,0,1
118670,357.142857142857,4,1,0,100,1,1
118670,-76.9230769230769,4,1,0,100,0,1
120098,348.837209302325,4,1,0,100,1,1
120098,-78.7545787545789,4,1,0,100,0,1
121493,363.636363636363,4,1,0,100,1,0
121493,-75.5494505494507,4,1,0,100,0,0
121947,-98.2142857142859,4,1,0,63,0,0
122947,352.941176470588,4,1,0,63,1,0
122947,-101.190476190476,4,1,0,63,0,0
124358,361.44578313253,4,1,0,63,1,0
124358,-98.8095238095239,4,1,0,63,0,0
128695,342.857142857143,4,1,0,63,1,0
128695,-104.166666666667,4,1,0,63,0,0
129723,392.156862745098,4,1,0,63,1,8
129723,-91.0714285714286,4,1,0,63,0,8
130115,355.029585798817,4,1,0,63,1,0
130115,-100.595238095238,4,1,0,63,0,0
131535,364.741641337386,4,1,0,63,1,0
131535,-97.9166666666667,4,1,0,63,0,0
132629,321.71581769437,4,1,0,63,1,8
132629,-111.011904761905,4,1,0,63,0,8
132950,364.741641337386,4,1,0,63,1,0
132950,-97.9166666666667,4,1,0,63,0,0
134408,357.142857142857,4,1,0,63,1,0
137265,350.877192982456,4,1,0,63,1,0
137265,-101.785714285714,4,1,0,63,0,0
138668,356.083086053412,4,1,0,63,1,0
138668,-100.297619047619,4,1,0,63,0,0
141516,345.821325648414,4,1,0,63,1,0
141516,-103.27380952381,4,1,0,63,0,0
142034,364.188163884674,4,1,0,63,1,8
142034,-98.0654761904761,4,1,0,63,0,8
142580,368.663594470046,4,1,0,63,1,8
142580,-96.875,4,1,0,63,0,8
142948,363.636363636364,4,1,0,63,1,0
142948,-98.2142857142856,4,1,0,63,0,0
144402,348.837209302326,4,1,0,63,1,0
144402,-102.380952380952,4,1,0,63,0,0
145448,372.670807453417,4,1,0,63,1,8
145448,-95.8333333333331,4,1,0,63,0,8
145820,354.505169867061,4,1,0,63,1,0
145820,-100.744047619047,4,1,0,63,0,0
147238,347.826086956522,4,1,0,63,1,0
147238,-102.678571428571,4,1,0,63,0,0
147933,371.114890985001,4,1,0,63,1,8
147933,-96.235119047619,4,1,0,63,0,8
148675,365.853658536585,4,1,0,63,1,0
148675,-97.6190476190477,4,1,0,63,0,0
149223,-130.15873015873,4,1,0,63,0,0
150138,353.982300884956,4,1,0,63,1,0
150138,-134.523809523809,4,1,0,63,0,0
154385,360.36036036036,4,1,0,63,1,0
154385,-132.142857142857,4,1,0,63,0,0
155826,355.029585798817,4,1,0,63,1,0
155826,-134.126984126984,4,1,0,63,0,0
157246,338.028169014084,4,1,0,63,1,0
157246,-140.873046619117,4,1,0,63,0,0
157471,-137.0657243855,4,1,0,63,0,0
157584,-135.238025687111,4,1,0,63,0,0
157696,-133.458606478615,4,1,0,63,0,0
157922,-130.036644326371,4,1,0,63,0,0
158147,-126.785777678603,4,1,0,63,0,0
158260,-125.220387882674,4,1,0,63,0,0
158372,-123.693334537282,4,1,0,63,0,0
158598,343.839541547278,4,1,0,63,1,0
158598,-118.707485012032,4,1,0,63,0,0
158827,-115.946888152465,4,1,0,63,0,0
158941,-114.614185498888,4,1,0,63,0,0
159113,-112.671536562922,4,1,0,63,0,0
159285,364.188163884674,4,1,0,63,1,8
159285,-104.603167961703,4,1,0,63,0,0
159467,-102.888331515509,4,1,0,63,0,0
159649,-101.228923742531,4,1,0,63,0,0
159831,-99.6220861106705,4,1,0,63,0,0
159922,-99.6220861106705,4,1,0,75,0,0
160013,343.839541547278,4,1,0,75,1,0
160013,-103.869033708016,4,1,0,75,0,0
160528,406.779661016949,4,1,0,75,1,8
160528,-87.7976190476191,4,1,0,75,0,8
160731,345.821325648415,4,1,0,75,1,8
160731,-103.27380952381,4,1,0,75,0,8
161076,374.414976599064,4,1,0,75,1,8
161076,-95.3869047619047,4,1,0,75,0,8
161450,369.230769230769,4,1,0,75,1,0
161450,-96.7261904761905,4,1,0,75,0,0
162926,365.853658536585,4,1,0,75,1,0
162926,-97.6190476190477,4,1,0,75,0,0
164389,359.281437125748,4,1,0,75,1,0
164389,-99.404761904762,4,1,0,75,0,0
165826,357.142857142857,4,1,0,75,1,0
167254,356.083086053412,4,1,0,75,1,0
167254,-100.297619047619,4,1,0,75,0,0
170102,363.636363636364,4,1,0,75,1,0
170102,-98.2142857142856,4,1,0,75,0,0
170829,340.909090909091,4,1,0,75,1,8
170829,-104.761904761905,4,1,0,75,0,8
171056,399.334442595674,4,1,0,75,1,8
171056,-89.4345238095238,4,1,0,75,0,8
171521,-89.4345238095238,4,1,0,88,0,8
171588,342.857142857143,4,1,0,88,1,1
171588,-90.5797101449275,4,1,0,88,0,1
172616,375,4,1,0,88,1,9
172616,-82.815734989648,4,1,0,88,0,9
172991,314.13612565445,4,1,0,88,1,1
172991,-98.8612836438924,4,1,0,88,0,1
173305,374.414976599064,4,1,0,88,1,9
173305,-82.9451345755693,4,1,0,88,0,9
174428,345.821325648415,4,1,0,88,1,1
174428,-89.8033126293996,4,1,0,88,0,1
175465,399.999999999999,4,1,0,88,1,9
175465,-77.6397515527952,4,1,0,88,0,9
175865,310.077519379845,4,1,0,88,1,1
175865,-100.155279503106,4,1,0,88,0,1
176175,355.029585798817,4,1,0,88,1,9
176175,-87.4741200828156,4,1,0,88,0,9
177240,354.505169867061,4,1,0,88,1,1
177240,-87.603519668737,4,1,0,88,0,1
178303,400,4,1,0,88,1,9
178303,-77.639751552795,4,1,0,88,0,9
178703,350.877192982456,4,1,0,88,1,1
178703,-88.5093167701864,4,1,0,88,0,1
181510,338.983050847458,4,1,0,88,1,1
181510,-91.614906832298,4,1,0,88,0,1
182187,390.879478827362,4,1,0,88,1,9
182187,-79.4513457556935,4,1,0,88,0,9
182968,347.826086956521,4,1,0,88,1,1
182968,-89.2857142857145,4,1,0,88,0,1
184011,381.558028616852,4,1,0,88,1,9
184011,-81.3923395445135,4,1,0,88,0,9
184392,337.078651685393,4,1,0,88,1,1
184392,-92.1325051759835,4,1,0,88,0,1
184729,362.537764350453,4,1,0,88,1,9
184729,-85.6625258799172,4,1,0,88,0,9
185816,348.837209302326,4,1,0,88,1,1
185816,-89.0269151138715,4,1,0,88,0,1
186862,378.548895899054,4,1,0,88,1,9
186862,-82.03933747412,4,1,0,88,0,9
187240,330.578512396694,4,1,0,88,1,1
187240,-93.9440993788821,4,1,0,88,0,1
187570,360.36036036036,4,1,0,88,1,9
187570,-86.1801242236026,4,1,0,88,0,9
188651,360.36036036036,4,1,0,88,1,1
188651,-86.1801242236026,4,1,0,88,0,1
189732,386.473429951691,4,1,0,88,1,9
189732,-80.3571428571428,4,1,0,88,0,9
190118,343.839541547278,4,1,0,88,1,1
190118,-90.3209109730849,4,1,0,88,0,1
191493,348.837209302326,4,1,0,88,1,1
191493,-89.0269151138715,4,1,0,88,0,1
192190,363.636363636364,4,1,0,88,1,9
192190,-85.4037267080744,4,1,0,88,0,9
192917,358.208955223881,4,1,0,88,1,1
192917,-86.6977225672877,4,1,0,88,0,1
193633,384,4,1,0,88,1,9
193633,-80.8747412008282,4,1,0,88,0,9
193889,364.741641337386,4,1,0,88,1,9
193889,-85.1449275362319,4,1,0,88,0,9
194314,-85.1449275362319,4,1,0,100,0,9
194375,363.636363636364,4,1,0,100,1,1
194375,-75.5494505494505,4,1,0,100,0,1
195829,355.029585798817,4,1,0,100,1,1
195829,-77.3809523809523,4,1,0,100,0,1
197249,360.36036036036,4,1,0,100,1,1
197249,-76.2362637362638,4,1,0,100,0,1
198690,349.854227405248,4,1,0,100,1,1
198690,-78.525641025641,4,1,0,100,0,1
200089,350.877192982456,4,1,0,100,1,1
200089,-78.2967032967033,4,1,0,100,0,1
201492,365.853658536585,4,1,0,100,1,1
201492,-75.0915750915752,4,1,0,100,0,1
202955,353.982300884956,4,1,0,100,1,1
202955,-77.6098901098901,4,1,0,100,0,1
205786,359.281437125748,4,1,0,100,1,1
205786,-76.4652014652016,4,1,0,100,0,1
207223,362.537764350453,4,1,0,100,1,1
207223,-75.7783882783883,4,1,0,100,0,1
208673,360.36036036036,4,1,0,100,1,1
208673,-76.2362637362638,4,1,0,100,0,1
210114,352.941176470588,4,1,0,100,1,1
210114,-77.8388278388279,4,1,0,100,0,1
214349,350.877192982456,4,1,0,100,1,1
214349,-78.2967032967033,4,1,0,100,0,1
215752,352.941176470588,4,1,0,100,1,1
215752,-77.8388207107307,4,1,0,100,0,1
215987,-80.9523886621323,4,1,0,100,0,1
216104,-82.6044864148662,4,1,0,100,0,1
216222,-84.3254219222486,4,1,0,100,0,1
216457,-87.9916865454552,4,1,0,100,0,1
216575,-89.9470661515698,4,1,0,100,0,1
216693,-91.991327057685,4,1,0,100,0,1
216810,397.350993377483,4,1,0,100,1,9
216810,-83.6101836317727,4,1,0,100,0,1
216942,-85.6009118821378,4,1,0,100,0,1
217074,-87.688749306983,4,1,0,100,0,1
217207,372.670807453416,4,1,0,100,1,0
217207,-95.8333618551672,4,1,0,100,0,0
217859,-127.777777777778,4,1,0,63,0,0
218697,352.941176470588,4,1,0,63,1,0
218697,-134.920634920635,4,1,0,63,0,0
219402,340.909090909091,4,1,0,63,1,8
219402,-139.68253968254,4,1,0,63,0,8
219742,366.97247706422,4,1,0,63,1,8
219742,-129.761904761905,4,1,0,63,0,8
220108,359.281437125748,4,1,0,63,1,0
220108,-132.539682539683,4,1,0,63,0,0
221545,345.821325648415,4,1,0,63,1,0
221545,-137.698412698413,4,1,0,63,0,0
222236,336.134453781513,4,1,0,63,1,8
222236,-141.666666666667,4,1,0,63,0,8
222572,356.083086053413,4,1,0,63,1,8
222572,-133.730158730159,4,1,0,63,0,8
222928,369.230769230769,4,1,0,63,1,0
222928,-128.968253968254,4,1,0,63,0,0
224404,352.941176470589,4,1,0,63,1,0
224404,-134.920634920635,4,1,0,63,0,0
225109,326.086956521739,4,1,0,63,1,8
225109,-146.031746031746,4,1,0,63,0,8
225435,348.837209302326,4,1,0,63,1,8
225435,-136.507936507936,4,1,0,63,0,8
225783,350.877192982457,4,1,0,63,1,0
225783,-135.714305102044,4,1,0,63,0,0
226016,-132.046321849705,4,1,0,63,0,0
226133,-130.285690462045,4,1,0,63,0,0
226250,-128.571391836745,4,1,0,63,0,0
226484,-125.27466470236,4,1,0,63,0,0
226718,-122.142924321466,4,1,0,63,0,0
226835,-120.634974250465,4,1,0,63,0,0
226952,-119.163803756281,4,1,0,63,0,0
227186,359.281437125749,4,1,0,63,1,0
227186,-113.605458406222,4,1,0,63,0,0
227425,-110.963449988411,4,1,0,63,0,0
227545,342.857142857143,4,1,0,63,1,8
227545,-114.942512881493,4,1,0,63,0,0
227716,-112.994319639959,4,1,0,63,0,0
227887,-111.111066666685,4,1,0,63,0,0
228059,-109.289560154111,4,1,0,63,0,0
228230,-107.526925325819,4,1,0,63,0,0
228402,442.80442804428,4,1,0,63,1,8
228402,-81.9350185159538,4,1,0,63,0,0
228512,-81.9350185159538,4,1,0,75,0,0
228623,350.877192982456,4,1,0,75,1,0
228623,-101.785728826533,4,1,0,75,0,0
229149,-101.785714285714,4,1,0,75,0,0
230026,360.36036036036,4,1,0,75,1,0
230026,-99.107142857143,4,1,0,75,0,0
231467,379.746835443038,4,1,0,75,1,0
231467,-94.0476190476191,4,1,0,75,0,0
232226,347.826086956522,4,1,0,75,1,8
232226,-102.678571428571,4,1,0,75,0,8
232921,365.853658536586,4,1,0,75,1,0
232921,-97.6190476190475,4,1,0,75,0,0
233652,355.029585798817,4,1,0,75,1,8
233652,-100.595238095238,4,1,0,75,0,8
234007,377.358490566038,4,1,0,75,1,8
234007,-94.6428571428571,4,1,0,75,0,8
234384,373.831775700934,4,1,0,75,1,0
234384,-95.5357142857144,4,1,0,75,0,0
235131,338.983050847458,4,1,0,75,1,8
235131,-105.357142857143,4,1,0,75,0,8
235808,349.854227405248,4,1,0,75,1,0
235808,-102.083333333333,4,1,0,75,0,0
236332,396.039603960396,4,1,0,75,1,8
236332,-90.1785714285714,4,1,0,75,0,8
236530,338.983050847458,4,1,0,75,1,8
236530,-105.357142857143,4,1,0,75,0,8
237207,351.906158357772,4,1,0,75,1,0
237207,-101.488095238095,4,1,0,75,0,0
238614,362.537764350454,4,1,0,75,1,0
238614,-98.5119047619045,4,1,0,75,0,0
239701,427.046263345197,4,1,0,75,1,8
239701,-83.6309523809521,4,1,0,75,0,8
240128,340.909090909091,4,1,0,75,1,0
240128,-104.761904761905,4,1,0,75,0,0
241491,341.880341880342,4,1,0,75,1,0
241491,-104.464285714286,4,1,0,75,0,0
242003,409.556313993174,4,1,0,75,1,8
242003,-87.202380952381,4,1,0,75,0,8
242207,347.826086956522,4,1,0,75,1,8
242207,-102.678571428571,4,1,0,75,0,8
242554,369.23076923077,4,1,0,75,1,8
242554,-96.7261904761903,4,1,0,75,0,8
242923,353.982300884956,4,1,0,75,1,0
242923,-100.892857142857,4,1,0,75,0,0
244338,370.37037037037,4,1,0,75,1,0
244338,-96.4285714285715,4,1,0,75,0,0
245078,346.820809248555,4,1,0,75,1,8
245078,-102.97619047619,4,1,0,75,0,8
245424,395.387149917628,4,1,0,75,1,8
245424,-90.3273809523809,4,1,0,75,0,8
245819,355.029585798817,4,1,0,75,1,0
245819,-100.595238095238,4,1,0,75,0,0
246529,337.078651685394,4,1,0,75,1,8
246529,-105.952380952381,4,1,0,75,0,8
246866,373.831775700935,4,1,0,75,1,8
246866,-95.5357142857142,4,1,0,75,0,8
247239,346.820809248555,4,1,0,75,1,0
247239,-102.97619047619,4,1,0,75,0,0
248626,361.44578313253,4,1,0,75,1,0
248626,-98.8095238095239,4,1,0,75,0,0
250071,329.67032967033,4,1,0,75,1,0
250071,-108.333333333333,4,1,0,75,0,0
251279,588.235294117648,4,1,0,75,1,8
251279,-60.7142857142856,4,1,0,75,0,8
251384,-60.7142857142856,4,1,0,100,0,8
251475,363.636363636364,4,1,0,100,1,1
251475,-75.5494505494505,4,1,0,100,0,1
252929,370.370370370371,4,1,0,100,1,1
252929,-74.175824175824,4,1,0,100,0,1
254410,343.839541547278,4,1,0,100,1,1
254410,-79.8992673992674,4,1,0,100,0,1
255785,358.208955223881,4,1,0,100,1,1
255785,-76.6941391941391,4,1,0,100,0,1
257217,356.083086053413,4,1,0,100,1,1
257217,-77.1520146520145,4,1,0,100,0,1
258641,359.281437125748,4,1,0,100,1,1
258641,-76.4652014652016,4,1,0,100,0,1
260078,353.982300884956,4,1,0,100,1,1
260078,-77.6098901098901,4,1,0,100,0,1
261493,357.142857142857,4,1,0,100,1,1
261493,-76.9230769230769,4,1,0,100,0,1
262921,361.990950226244,4,1,0,100,1,1
262921,-75.8928571428572,4,1,0,100,0,1
264368,359.281437125748,4,1,0,100,1,1
264368,-76.4652014652016,4,1,0,100,0,1
265805,355.029585798817,4,1,0,100,1,1
265805,-77.3809523809523,4,1,0,100,0,1
268645,353.982300884956,4,1,0,100,1,1
268645,-77.6098901098901,4,1,0,100,0,1
270060,356.083086053413,4,1,0,100,1,1
270060,-77.1520146520145,4,1,0,100,0,1
274332,385.852090032155,4,1,0,100,1,0
274332,-71.1996336996336,4,1,0,100,0,0
274814,-92.559511137686,4,1,0,50,0,0
275344,-92.559511137686,4,1,0,38,0,0
275875,362.537764350454,4,1,0,25,1,0
275875,-102.721789781763,4,1,0,25,0,0
277325,356.083086053413,4,1,0,25,1,0
277325,-112.259693593729,4,1,0,25,0,0
278749,-121.151551754732,4,1,0,25,0,0
280173,352.941176470588,4,1,0,25,1,0
280173,-132.744466905112,4,1,0,25,0,0
281584,359.281437125748,4,1,0,25,1,0
281584,-142.675041173283,4,1,0,25,0,0
283021,355.029585798816,4,1,0,25,1,0
283021,-159.384633471906,4,1,0,25,0,0
284441,-177.864015046075,4,1,0,25,0,0
285861,-201.190448646546,4,1,0,25,0,0

[HitObjects]
256,192,20118,5,8,0:0:0:0:
256,192,20854,1,8,0:0:0:0:
256,192,21590,1,4,0:0:0:0:
256,192,22285,1,0,0:0:0:0:
256,192,22633,1,8,0:0:0:0:
256,192,22821,1,8,0:0:0:0:
256,192,23009,1,0,0:0:0:0:
256,192,23704,1,0,0:0:0:0:
256,192,24052,1,8,0:0:0:0:
256,192,24242,1,0,0:0:0:0:
256,192,24432,1,0,0:0:0:0:
256,192,25127,1,0,0:0:0:0:
256,192,25475,1,8,0:0:0:0:
256,192,25654,1,8,0:0:0:0:
256,192,25833,1,0,0:0:0:0:
256,192,26010,1,8,0:0:0:0:
256,192,26188,1,8,0:0:0:0:
256,192,26365,1,8,0:0:0:0:
256,192,26543,1,0,0:0:0:0:
256,192,26898,1,0,0:0:0:0:
256,192,27075,1,8,0:0:0:0:
256,192,27253,1,0,0:0:0:0:
256,192,27774,1,0,0:0:0:0:
256,192,27948,1,0,0:0:0:0:
256,192,28296,1,8,0:0:0:0:
256,192,28482,1,8,0:0:0:0:
256,192,28669,1,0,0:0:0:0:
256,192,29209,1,0,0:0:0:0:
256,192,29389,1,0,0:0:0:0:
256,192,29750,1,8,0:0:0:0:
256,192,30110,1,0,0:0:0:0:
256,192,30650,1,0,0:0:0:0:
256,192,30831,1,0,0:0:0:0:
256,192,31191,1,8,0:0:0:0:
256,192,31551,1,0,0:0:0:0:
256,192,31725,1,8,0:0:0:0:
256,192,31900,1,8,0:0:0:0:
256,192,32075,1,8,0:0:0:0:
256,192,32250,1,0,0:0:0:0:
256,192,32600,1,0,0:0:0:0:
256,192,32775,1,8,0:0:0:0:
256,192,32950,1,4,0:0:0:0:
256,192,33497,1,8,0:0:0:0:
256,192,33680,1,0,0:0:0:0:
256,192,34045,1,0,0:0:0:0:
256,192,34422,1,8,0:0:0:0:
256,192,34951,1,0,0:0:0:0:
256,192,35480,1,8,0:0:0:0:
256,192,35657,1,8,0:0:0:0:
256,192,35833,1,0,0:0:0:0:
256,192,36329,1,8,0:0:0:0:
256,192,36560,1,8,0:0:0:0:
256,192,36885,1,0,0:0:0:0:
256,192,37278,1,8,0:0:0:0:
256,192,37804,1,0,0:0:0:0:
256,192,38331,1,8,0:0:0:0:
256,192,38527,1,8,0:0:0:0:
256,192,38724,1,0,0:0:0:0:
256,192,39236,1,8,0:0:0:0:
256,192,39407,1,0,0:0:0:0:
256,192,39749,1,0,0:0:0:0:
256,192,40127,1,8,0:0:0:0:
256,192,40637,1,0,0:0:0:0:
256,192,41167,1,8,0:0:0:0:
256,192,41349,1,0,0:0:0:0:
256,192,41531,1,8,0:0:0:0:
256,192,42071,1,0,0:0:0:0:
256,192,42251,1,8,0:0:0:0:
256,192,42612,1,8,0:0:0:0:
256,192,42972,1,4,0:0:0:0:
256,192,43693,1,0,0:0:0:0:
256,192,44053,1,8,0:0:0:0:
256,192,44233,1,8,0:0:0:0:
256,192,44413,1,0,0:0:0:0:
256,192,45118,1,0,0:0:0:0:
256,192,45471,1,8,0:0:0:0:
256,192,45648,1,0,0:0:0:0:
256,192,45824,1,0,0:0:0:0:
256,192,46565,1,0,0:0:0:0:
256,192,46870,1,8,0:0:0:0:
256,192,47069,1,8,0:0:0:0:
256,192,47269,1,0,0:0:0:0:
256,192,47966,1,0,0:0:0:0:
256,192,48315,1,0,0:0:0:0:
256,192,48508,1,8,0:0:0:0:
256,192,48702,1,0,0:0:0:0:
256,192,49393,1,0,0:0:0:0:
256,192,49739,1,8,0:0:0:0:
256,192,49937,1,8,0:0:0:0:
256,192,50135,1,0,0:0:0:0:
256,192,50820,1,0,0:0:0:0:
256,192,51163,1,8,0:0:0:0:
256,192,51352,1,0,0:0:0:0:
256,192,51542,1,0,0:0:0:0:
256,192,52260,1,0,0:0:0:0:
256,192,52619,1,8,0:0:0:0:
256,192,52799,1,8,0:0:0:0:
256,192,52979,1,0,0:0:0:0:
256,192,53097,1,0,0:0:0:0:
256,192,53215,1,8,0:0:0:0:
256,192,53334,1,8,0:0:0:0:
256,192,53689,1,0,0:0:0:0:
256,192,53800,1,0,0:0:0:0:
256,192,53911,1,0,0:0:0:0:
256,192,54022,1,8,0:0:0:0:
256,192,54254,1,8,0:0:0:0:
256,192,54416,1,4,0:0:0:0:
256,192,54916,1,8,0:0:0:0:
256,192,55143,1,0,0:0:0:0:
256,192,55461,1,0,0:0:0:0:
256,192,55870,1,8,0:0:0:0:
256,192,56397,1,0,0:0:0:0:
256,192,56925,1,8,0:0:0:0:
256,192,57101,1,8,0:0:0:0:
256,192,57277,1,0,0:0:0:0:
256,192,57805,1,8,0:0:0:0:
256,192,57981,1,8,0:0:0:0:
256,192,58333,1,0,0:0:0:0:
256,192,58685,1,8,0:0:0:0:
256,192,59219,1,0,0:0:0:0:
256,192,59754,1,8,0:0:0:0:
256,192,59942,1,8,0:0:0:0:
256,192,60130,1,0,0:0:0:0:
256,192,60662,1,8,0:0:0:0:
256,192,60840,1,0,0:0:0:0:
256,192,61195,1,0,0:0:0:0:
256,192,61550,1,8,0:0:0:0:
256,192,62071,1,0,0:0:0:0:
256,192,62593,1,8,0:0:0:0:
256,192,62767,1,0,0:0:0:0:
256,192,62941,1,8,0:0:0:0:
256,192,63172,1,0,0:0:0:0:
256,192,63288,1,0,0:0:0:0:
256,192,63520,1,8,0:0:0:0:
256,192,63636,1,0,0:0:0:0:
256,192,63763,1,8,0:0:0:0:
256,192,64017,1,8,0:0:0:0:
256,192,64144,1,8,0:0:0:0:
256,192,64271,1,8,0:0:0:0:
256,192,64399,1,4,0:0:0:0:
256,192,65140,1,0,0:0:0:0:
256,192,65445,1,8,0:0:0:0:
256,192,65647,1,8,0:0:0:0:
256,192,65849,1,0,0:0:0:0:
256,192,66559,1,0,0:0:0:0:
256,192,66914,1,8,0:0:0:0:
256,192,67091,1,0,0:0:0:0:
256,192,67269,1,0,0:0:0:0:
256,192,67972,1,0,0:0:0:0:
256,192,68324,1,8,0:0:0:0:
256,192,68512,1,8,0:0:0:0:
256,192,68701,1,0,0:0:0:0:
256,192,69417,1,0,0:0:0:0:
256,192,69776,1,0,0:0:0:0:
256,192,69955,1,8,0:0:0:0:
256,192,70134,1,0,0:0:0:0:
256,192,70846,1,0,0:0:0:0:
256,192,71202,1,8,0:0:0:0:
256,192,71397,1,8,0:0:0:0:
256,192,71592,1,0,0:0:0:0:
256,192,72281,1,0,0:0:0:0:
256,192,72626,1,8,0:0:0:0:
256,192,72819,1,0,0:0:0:0:
256,192,73012,1,0,0:0:0:0:
256,192,73701,1,0,0:0:0:0:
256,192,74046,1,8,0:0:0:0:
256,192,74218,1,8,0:0:0:0:
256,192,74391,1,0,0:0:0:0:
256,192,74510,1,0,0:0:0:0:
256,192,74630,1,0,0:0:0:0:
256,192,74750,1,8,0:0:0:0:
256,192,75109,1,8,0:0:0:0:
256,192,75229,1,8,0:0:0:0:
256,192,75349,1,0,0:0:0:0:
256,192,75468,1,8,0:0:0:0:
256,192,75588,1,0,0:0:0:0:
256,192,75708,1,0,0:0:0:0:
256,192,75828,1,12,0:0:0:0:
256,192,76550,1,0,0:0:0:0:
256,192,76912,1,8,0:0:0:0:
256,192,77273,1,0,0:0:0:0:
256,192,77446,1,0,0:0:0:0:
256,192,77619,1,8,0:0:0:0:
256,192,77793,1,0,0:0:0:0:
256,192,77966,1,0,0:0:0:0:
256,192,78313,1,8,0:0:0:0:
256,192,78660,1,0,0:0:0:0:
256,192,79021,1,8,0:0:0:0:
256,192,79202,1,8,0:0:0:0:
256,192,79382,1,0,0:0:0:0:
256,192,79744,1,8,0:0:0:0:
256,192,80105,1,0,0:0:0:0:
256,192,80278,1,0,0:0:0:0:
256,192,80451,1,8,0:0:0:0:
256,192,80625,1,8,0:0:0:0:
256,192,80798,1,0,0:0:0:0:
256,192,81127,1,8,0:0:0:0:
256,192,81492,1,0,0:0:0:0:
256,192,81861,1,8,0:0:0:0:
256,192,82045,1,0,0:0:0:0:
256,192,82230,1,0,0:0:0:0:
256,192,82599,1,8,0:0:0:0:
256,192,82968,1,0,0:0:0:0:
256,192,83148,1,0,0:0:0:0:
256,192,83329,1,8,0:0:0:0:
256,192,83510,1,0,0:0:0:0:
256,192,83690,1,0,0:0:0:0:
256,192,84052,1,8,0:0:0:0:
256,192,84413,1,0,0:0:0:0:
256,192,84642,1,8,0:0:0:0:
256,192,84756,1,8,0:0:0:0:
256,192,84871,1,0,0:0:0:0:
256,192,85100,1,8,0:0:0:0:
256,192,85329,1,0,0:0:0:0:
256,192,85444,1,0,0:0:0:0:
256,192,85559,1,8,0:0:0:0:
256,192,85788,1,0,0:0:0:0:
256,192,85964,1,8,0:0:0:0:
256,192,86052,1,8,0:0:0:0:
256,192,86140,1,8,0:0:0:0:
256,192,86317,1,8,0:0:0:0:
256,192,86493,1,0,0:0:0:0:
256,192,86670,1,0,0:0:0:0:
256,192,86846,1,8,0:0:0:0:
256,192,87023,1,8,0:0:0:0:
256,192,87242,1,4,0:0:0:0:
256,192,87582,1,8,0:0:0:0:
256,192,87753,1,8,0:0:0:0:
256,192,87838,1,8,0:0:0:0:
256,192,87923,1,0,0:0:0:0:
256,192,88094,1,0,0:0:0:0:
256,192,88264,1,8,0:0:0:0:
256,192,88653,1,0,0:0:0:0:
256,192,89006,1,8,0:0:0:0:
256,192,89182,1,0,0:0:0:0:
256,192,89271,1,0,0:0:0:0:
256,192,89359,1,8,0:0:0:0:
256,192,89536,1,0,0:0:0:0:
256,192,89712,1,8,0:0:0:0:
256,192,89800,1,8,0:0:0:0:
256,192,89889,1,8,0:0:0:0:
256,192,90065,1,0,0:0:0:0:
256,192,90428,1,8,0:0:0:0:
256,192,90610,1,0,0:0:0:0:
256,192,90701,1,8,0:0:0:0:
256,192,90792,1,0,0:0:0:0:
256,192,90974,1,0,0:0:0:0:
256,192,91155,1,8,0:0:0:0:
256,192,91519,1,0,0:0:0:0:
256,192,91872,1,8,0:0:0:0:
256,192,92049,1,0,0:0:0:0:
256,192,92138,1,0,0:0:0:0:
256,192,92226,1,8,0:0:0:0:
256,192,92403,1,0,0:0:0:0:
256,192,92580,1,8,0:0:0:0:
256,192,92669,1,8,0:0:0:0:
256,192,92757,1,8,0:0:0:0:
256,192,92846,1,8,0:0:0:0:
256,192,92934,1,0,0:0:0:0:
256,192,93289,1,8,0:0:0:0:
256,192,93466,1,8,0:0:0:0:
256,192,93555,1,0,0:0:0:0:
256,192,93644,1,8,0:0:0:0:
256,192,93821,1,0,0:0:0:0:
256,192,93999,1,8,0:0:0:0:
256,192,94379,1,0,0:0:0:0:
256,192,94734,1,8,0:0:0:0:
256,192,94911,1,0,0:0:0:0:
256,192,95000,1,0,0:0:0:0:
256,192,95089,1,8,0:0:0:0:
256,192,95266,1,0,0:0:0:0:
256,192,95444,1,8,0:0:0:0:
256,192,95532,1,8,0:0:0:0:
256,192,95621,1,8,0:0:0:0:
256,192,95799,1,0,0:0:0:0:
256,192,96147,1,8,0:0:0:0:
256,192,96322,1,0,0:0:0:0:
256,192,96409,1,8,0:0:0:0:
256,192,96496,1,8,0:0:0:0:
256,192,96671,1,0,0:0:0:0:
256,192,96845,1,8,0:0:0:0:
256,192,96932,1,8,0:0:0:0:
256,192,97019,1,0,0:0:0:0:
256,192,97107,1,0,0:0:0:0:
256,192,97194,1,8,0:0:0:0:
256,192,97378,1,0,0:0:0:0:
256,192,97562,1,8,0:0:0:0:
256,192,97654,1,0,0:0:0:0:
256,192,97746,1,0,0:0:0:0:
256,192,97930,1,12,0:0:0:0:
256,192,98298,1,8,0:0:0:0:
256,192,98482,1,8,0:0:0:0:
256,192,98666,1,4,0:0:0:0:
256,192,99018,1,8,0:0:0:0:
256,192,99195,1,8,0:0:0:0:
256,192,99283,1,8,0:0:0:0:
256,192,99371,1,0,0:0:0:0:
256,192,99548,1,0,0:0:0:0:
256,192,99724,1,8,0:0:0:0:
256,192,100129,1,0,0:0:0:0:
256,192,100476,1,8,0:0:0:0:
256,192,100650,1,0,0:0:0:0:
256,192,100737,1,0,0:0:0:0:
256,192,100824,1,8,0:0:0:0:
256,192,100998,1,0,0:0:0:0:
256,192,101172,1,8,0:0:0:0:
256,192,101259,1,8,0:0:0:0:
256,192,101346,1,8,0:0:0:0:
256,192,101520,1,0,0:0:0:0:
256,192,101866,1,8,0:0:0:0:
256,192,102040,1,0,0:0:0:0:
256,192,102126,1,8,0:0:0:0:
256,192,102213,1,0,0:0:0:0:
256,192,102387,1,0,0:0:0:0:
256,192,102560,1,8,0:0:0:0:
256,192,102957,1,0,0:0:0:0:
256,192,103309,1,8,0:0:0:0:
256,192,103486,1,0,0:0:0:0:
256,192,103574,1,0,0:0:0:0:
256,192,103662,1,8,0:0:0:0:
256,192,103839,1,0,0:0:0:0:
256,192,104015,1,8,0:0:0:0:
256,192,104104,1,0,0:0:0:0:
256,192,104192,1,8,0:0:0:0:
256,192,104280,1,8,0:0:0:0:
256,192,104368,1,0,0:0:0:0:
256,192,104710,1,8,0:0:0:0:
256,192,104882,1,8,0:0:0:0:
256,192,104968,1,0,0:0:0:0:
256,192,105053,1,8,0:0:0:0:
256,192,105225,1,0,0:0:0:0:
256,192,105396,1,8,0:0:0:0:
256,192,105780,1,0,0:0:0:0:
256,192,106133,1,8,0:0:0:0:
256,192,106309,1,0,0:0:0:0:
256,192,106398,1,0,0:0:0:0:
256,192,106486,1,8,0:0:0:0:
256,192,106663,1,0,0:0:0:0:
256,192,106839,1,8,0:0:0:0:
256,192,106927,1,8,0:0:0:0:
256,192,107016,1,8,0:0:0:0:
256,192,107192,1,4,0:0:0:0:
256,192,107554,1,8,0:0:0:0:
256,192,107735,1,0,0:0:0:0:
256,192,107917,1,12,0:0:0:0:
256,192,108098,1,0,0:0:0:0:
256,192,108279,1,0,0:0:0:0:
256,192,108370,1,0,0:0:0:0:
256,192,108460,1,8,0:0:0:0:
256,192,108642,1,4,0:0:0:0:
256,192,108823,1,8,0:0:0:0:
256,192,109004,1,8,0:0:0:0:
256,192,109095,1,8,0:0:0:0:
256,192,109185,1,0,0:0:0:0:
256,192,109367,1,12,0:0:0:0:
256,192,109584,1,0,0:0:0:0:
256,192,109693,1,8,0:0:0:0:
256,192,109857,1,8,0:0:0:0:
256,192,110092,1,4,0:0:0:0:
256,192,110454,1,0,0:0:0:0:
256,192,110635,1,8,0:0:0:0:
256,192,110817,1,4,0:0:0:0:
256,192,111179,1,8,0:0:0:0:
256,192,111360,1,8,0:0:0:0:
256,192,111542,1,4,0:0:0:0:
256,192,111904,1,8,0:0:0:0:
256,192,112085,1,0,0:0:0:0:
256,192,112267,1,12,0:0:0:0:
256,192,112629,1,8,0:0:0:0:
256,192,112992,1,4,0:0:0:0:
256,192,113349,1,8,0:0:0:0:
256,192,113527,1,0,0:0:0:0:
256,192,113706,1,4,0:0:0:0:
256,192,114063,1,8,0:0:0:0:
256,192,114242,1,8,0:0:0:0:
256,192,114420,1,4,0:0:0:0:
256,192,114770,1,8,0:0:0:0:
256,192,114946,1,8,0:0:0:0:
256,192,115121,1,12,0:0:0:0:
256,192,115472,1,8,0:0:0:0:
256,192,115823,1,4,0:0:0:0:
256,192,116176,1,0,0:0:0:0:
256,192,116353,1,8,0:0:0:0:
256,192,116530,1,4,0:0:0:0:
256,192,116884,1,8,0:0:0:0:
256,192,117061,1,8,0:0:0:0:
256,192,117238,1,4,0:0:0:0:
256,192,117476,1,4,0:0:0:0:
256,192,117715,1,12,0:0:0:0:
256,192,117954,1,4,0:0:0:0:
256,192,118193,1,12,0:0:0:0:
256,192,118432,1,12,0:0:0:0:
256,192,118670,1,4,0:0:0:0:
256,192,119027,1,0,0:0:0:0:
256,192,119205,1,8,0:0:0:0:
256,192,119384,1,4,0:0:0:0:
256,192,119741,1,8,0:0:0:0:
256,192,119920,1,8,0:0:0:0:
256,192,120098,1,4,0:0:0:0:
256,192,120446,1,8,0:0:0:0:
256,192,120621,1,0,0:0:0:0:
256,192,120795,1,12,0:0:0:0:
256,192,121144,1,8,0:0:0:0:
256,192,121493,1,4,0:0:0:0:
256,192,122038,1,8,0:0:0:0:
256,192,122220,1,0,0:0:0:0:
256,192,122583,1,0,0:0:0:0:
256,192,122947,1,8,0:0:0:0:
256,192,123476,1,0,0:0:0:0:
256,192,124005,1,8,0:0:0:0:
256,192,124182,1,8,0:0:0:0:
256,192,124358,1,0,0:0:0:0:
256,192,124900,1,8,0:0:0:0:
256,192,125442,1,0,0:0:0:0:
256,192,125803,1,8,0:0:0:0:
256,192,126345,1,0,0:0:0:0:
256,192,126888,1,8,0:0:0:0:
256,192,127068,1,8,0:0:0:0:
256,192,127249,1,0,0:0:0:0:
256,192,127791,1,8,0:0:0:0:
256,192,127972,1,0,0:0:0:0:
256,192,128333,1,0,0:0:0:0:
256,192,128695,1,8,0:0:0:0:
256,192,129209,1,0,0:0:0:0:
256,192,129723,1,8,0:0:0:0:
256,192,129919,1,0,0:0:0:0:
256,192,130115,1,8,0:0:0:0:
256,192,130647,1,0,0:0:0:0:
256,192,130825,1,8,0:0:0:0:
256,192,131180,1,8,0:0:0:0:
256,192,131535,1,4,0:0:0:0:
256,192,132264,1,8,0:0:0:0:
256,192,132629,1,0,0:0:0:0:
256,192,132789,1,0,0:0:0:0:
256,192,132870,1,0,0:0:0:0:
256,192,132950,1,0,0:0:0:0:
256,192,133679,1,8,0:0:0:0:
256,192,134044,1,0,0:0:0:0:
256,192,134408,1,8,0:0:0:0:
256,192,134943,1,0,0:0:0:0:
256,192,135479,1,8,0:0:0:0:
256,192,135658,1,8,0:0:0:0:
256,192,135836,1,0,0:0:0:0:
256,192,136372,1,8,0:0:0:0:
256,192,136550,1,8,0:0:0:0:
256,192,136908,1,0,0:0:0:0:
256,192,137265,1,8,0:0:0:0:
256,192,137791,1,0,0:0:0:0:
256,192,138317,1,8,0:0:0:0:
256,192,138493,1,8,0:0:0:0:
256,192,138668,1,0,0:0:0:0:
256,192,139202,1,8,0:0:0:0:
256,192,139380,1,0,0:0:0:0:
256,192,139736,1,0,0:0:0:0:
256,192,140092,1,8,0:0:0:0:
256,192,140626,1,0,0:0:0:0:
256,192,141160,1,8,0:0:0:0:
256,192,141338,1,0,0:0:0:0:
256,192,141516,1,8,0:0:0:0:
256,192,142034,1,0,0:0:0:0:
256,192,142580,1,8,0:0:0:0:
256,192,142948,1,4,0:0:0:0:
256,192,143493,1,8,0:0:0:0:
256,192,143675,1,0,0:0:0:0:
256,192,144038,1,8,0:0:0:0:
256,192,144402,1,0,0:0:0:0:
256,192,144576,1,0,0:0:0:0:
256,192,144750,1,0,0:0:0:0:
256,192,144925,1,8,0:0:0:0:
256,192,145099,1,0,0:0:0:0:
256,192,145448,1,8,0:0:0:0:
256,192,145820,1,0,0:0:0:0:
256,192,146174,1,0,0:0:0:0:
256,192,146351,1,8,0:0:0:0:
256,192,146529,1,0,0:0:0:0:
256,192,146883,1,8,0:0:0:0:
256,192,147238,1,0,0:0:0:0:
256,192,147469,1,8,0:0:0:0:
256,192,147585,1,8,0:0:0:0:
256,192,147701,1,8,0:0:0:0:
256,192,147933,1,0,0:0:0:0:
256,192,148056,1,0,0:0:0:0:
256,192,148180,1,8,0:0:0:0:
256,192,148304,1,0,0:0:0:0:
256,192,148427,1,8,0:0:0:0:
256,192,148551,1,8,0:0:0:0:
256,192,148675,1,4,0:0:0:0:
256,192,149223,1,8,0:0:0:0:
256,192,149406,1,0,0:0:0:0:
256,192,149772,1,8,0:0:0:0:
256,192,150138,1,0,0:0:0:0:
256,192,150491,1,8,0:0:0:0:
256,192,150668,1,0,0:0:0:0:
256,192,150845,1,0,0:0:0:0:
256,192,151199,1,8,0:0:0:0:
256,192,151553,1,0,0:0:0:0:
256,192,152084,1,0,0:0:0:0:
256,192,152261,1,0,0:0:0:0:
256,192,152615,1,8,0:0:0:0:
256,192,152969,1,0,0:0:0:0:
256,192,153323,1,8,0:0:0:0:
256,192,153500,1,8,0:0:0:0:
256,192,153677,1,0,0:0:0:0:
256,192,154031,1,8,0:0:0:0:
256,192,154385,1,0,0:0:0:0:
256,192,154745,1,8,0:0:0:0:
256,192,154925,1,0,0:0:0:0:
256,192,155105,1,0,0:0:0:0:
256,192,155466,1,8,0:0:0:0:
256,192,155826,1,0,0:0:0:0:
256,192,156181,1,0,0:0:0:0:
256,192,156358,1,8,0:0:0:0:
256,192,156536,1,0,0:0:0:0:
256,192,156891,1,8,0:0:0:0:
256,192,157246,1,0,0:0:0:0:
256,192,157471,1,8,0:0:0:0:
256,192,157584,1,8,0:0:0:0:
256,192,157696,1,0,0:0:0:0:
256,192,157922,1,8,0:0:0:0:
256,192,158147,1,0,0:0:0:0:
256,192,158260,1,0,0:0:0:0:
256,192,158372,1,8,0:0:0:0:
256,192,158598,1,0,0:0:0:0:
256,192,158827,1,8,0:0:0:0:
256,192,158941,1,8,0:0:0:0:
256,192,159113,1,8,0:0:0:0:
256,192,159285,1,0,0:0:0:0:
256,192,159467,1,0,0:0:0:0:
256,192,159649,1,8,0:0:0:0:
256,192,159831,1,8,0:0:0:0:
256,192,160013,1,4,0:0:0:0:
256,192,160528,1,8,0:0:0:0:
256,192,160731,1,0,0:0:0:0:
256,192,161076,1,8,0:0:0:0:
256,192,161450,1,4,0:0:0:0:
256,192,162003,1,8,0:0:0:0:
256,192,162188,1,4,0:0:0:0:
256,192,162557,1,8,0:0:0:0:
256,192,162742,1,8,0:0:0:0:
256,192,162926,1,4,0:0:0:0:
256,192,163474,1,8,0:0:0:0:
256,192,163657,1,0,0:0:0:0:
256,192,164023,1,8,0:0:0:0:
256,192,164389,1,4,0:0:0:0:
256,192,164927,1,8,0:0:0:0:
256,192,165107,1,4,0:0:0:0:
256,192,165287,1,8,0:0:0:0:
256,192,165466,1,8,0:0:0:0:
256,192,165646,1,8,0:0:0:0:
256,192,165826,1,4,0:0:0:0:
256,192,166361,1,8,0:0:0:0:
256,192,166540,1,0,0:0:0:0:
256,192,166897,1,8,0:0:0:0:
256,192,167254,1,4,0:0:0:0:
256,192,167788,1,8,0:0:0:0:
256,192,167966,1,4,0:0:0:0:
256,192,168322,1,8,0:0:0:0:
256,192,168500,1,8,0:0:0:0:
256,192,168678,1,4,0:0:0:0:
256,192,169212,1,8,0:0:0:0:
256,192,169390,1,0,0:0:0:0:
256,192,169746,1,8,0:0:0:0:
256,192,170102,1,4,0:0:0:0:
256,192,170344,1,8,0:0:0:0:
256,192,170465,1,8,0:0:0:0:
256,192,170586,1,8,0:0:0:0:
256,192,170708,1,8,0:0:0:0:
256,192,170829,1,0,0:0:0:0:
256,192,171056,1,0,0:0:0:0:
256,192,171189,1,0,0:0:0:0:
256,192,171322,1,8,0:0:0:0:
256,192,171455,1,8,0:0:0:0:
256,192,171588,1,4,0:0:0:0:
256,192,171930,1,8,0:0:0:0:
256,192,172102,1,8,0:0:0:0:
256,192,172188,1,8,0:0:0:0:
256,192,172273,1,0,0:0:0:0:
256,192,172445,1,0,0:0:0:0:
256,192,172616,1,8,0:0:0:0:
256,192,172991,1,0,0:0:0:0:
256,192,173305,1,8,0:0:0:0:
256,192,173492,1,0,0:0:0:0:
256,192,173585,1,0,0:0:0:0:
256,192,173679,1,8,0:0:0:0:
256,192,173866,1,0,0:0:0:0:
256,192,174053,1,8,0:0:0:0:
256,192,174147,1,8,0:0:0:0:
256,192,174241,1,8,0:0:0:0:
256,192,174428,1,0,0:0:0:0:
256,192,174773,1,8,0:0:0:0:
256,192,174946,1,0,0:0:0:0:
256,192,175033,1,8,0:0:0:0:
256,192,175119,1,0,0:0:0:0:
256,192,175292,1,0,0:0:0:0:
256,192,175465,1,8,0:0:0:0:
256,192,175865,1,0,0:0:0:0:
256,192,176175,1,8,0:0:0:0:
256,192,176352,1,0,0:0:0:0:
256,192,176441,1,0,0:0:0:0:
256,192,176530,1,8,0:0:0:0:
256,192,176707,1,0,0:0:0:0:
256,192,176885,1,8,0:0:0:0:
256,192,176973,1,8,0:0:0:0:
256,192,177062,1,8,0:0:0:0:
256,192,177151,1,8,0:0:0:0:
256,192,177240,1,0,0:0:0:0:
256,192,177594,1,8,0:0:0:0:
256,192,177771,1,8,0:0:0:0:
256,192,177860,1,0,0:0:0:0:
256,192,177949,1,8,0:0:0:0:
256,192,178126,1,0,0:0:0:0:
256,192,178303,1,8,0:0:0:0:
256,192,178703,1,0,0:0:0:0:
256,192,179053,1,8,0:0:0:0:
256,192,179229,1,0,0:0:0:0:
256,192,179317,1,0,0:0:0:0:
256,192,179404,1,8,0:0:0:0:
256,192,179580,1,0,0:0:0:0:
256,192,179755,1,8,0:0:0:0:
256,192,179843,1,8,0:0:0:0:
256,192,179931,1,8,0:0:0:0:
256,192,180106,1,4,0:0:0:0:
256,192,180457,1,0,0:0:0:0:
256,192,180632,1,0,0:0:0:0:
256,192,180808,1,12,0:0:0:0:
256,192,180983,1,0,0:0:0:0:
256,192,181159,1,8,0:0:0:0:
256,192,181334,1,8,0:0:0:0:
256,192,181510,1,4,0:0:0:0:
256,192,181848,1,8,0:0:0:0:
256,192,182018,1,0,0:0:0:0:
256,192,182187,1,12,0:0:0:0:
256,192,182577,1,8,0:0:0:0:
256,192,182675,1,8,0:0:0:0:
256,192,182773,1,8,0:0:0:0:
256,192,182871,1,8,0:0:0:0:
256,192,182968,1,4,0:0:0:0:
256,192,183315,1,8,0:0:0:0:
256,192,183489,1,8,0:0:0:0:
256,192,183576,1,8,0:0:0:0:
256,192,183663,1,0,0:0:0:0:
256,192,183837,1,0,0:0:0:0:
256,192,184011,1,8,0:0:0:0:
256,192,184392,1,0,0:0:0:0:
256,192,184729,1,8,0:0:0:0:
256,192,184910,1,0,0:0:0:0:
256,192,185000,1,0,0:0:0:0:
256,192,185091,1,8,0:0:0:0:
256,192,185272,1,0,0:0:0:0:
256,192,185454,1,8,0:0:0:0:
256,192,185544,1,8,0:0:0:0:
256,192,185635,1,8,0:0:0:0:
256,192,185816,1,4,0:0:0:0:
256,192,186164,1,8,0:0:0:0:
256,192,186339,1,0,0:0:0:0:
256,192,186426,1,8,0:0:0:0:
256,192,186513,1,0,0:0:0:0:
256,192,186688,1,0,0:0:0:0:
256,192,186862,1,8,0:0:0:0:
256,192,187240,1,0,0:0:0:0:
256,192,187570,1,8,0:0:0:0:
256,192,187750,1,0,0:0:0:0:
256,192,187840,1,0,0:0:0:0:
256,192,187930,1,8,0:0:0:0:
256,192,188110,1,0,0:0:0:0:
256,192,188290,1,8,0:0:0:0:
256,192,188380,1,0,0:0:0:0:
256,192,188470,1,8,0:0:0:0:
256,192,188560,1,8,0:0:0:0:
256,192,188651,1,4,0:0:0:0:
256,192,189011,1,8,0:0:0:0:
256,192,189191,1,8,0:0:0:0:
256,192,189281,1,0,0:0:0:0:
256,192,189371,1,8,0:0:0:0:
256,192,189551,1,0,0:0:0:0:
256,192,189732,1,8,0:0:0:0:
256,192,190118,1,0,0:0:0:0:
256,192,190461,1,8,0:0:0:0:
256,192,190633,1,0,0:0:0:0:
256,192,190719,1,0,0:0:0:0:
256,192,190805,1,8,0:0:0:0:
256,192,190977,1,0,0:0:0:0:
256,192,191149,1,8,0:0:0:0:
256,192,191235,1,8,0:0:0:0:
256,192,191321,1,8,0:0:0:0:
256,192,191493,1,4,0:0:0:0:
256,192,191841,1,8,0:0:0:0:
256,192,192016,1,0,0:0:0:0:
256,192,192190,1,12,0:0:0:0:
256,192,192371,1,0,0:0:0:0:
256,192,192553,1,0,0:0:0:0:
256,192,192644,1,0,0:0:0:0:
256,192,192735,1,8,0:0:0:0:
256,192,192917,1,4,0:0:0:0:
256,192,193096,1,8,0:0:0:0:
256,192,193275,1,8,0:0:0:0:
256,192,193364,1,8,0:0:0:0:
256,192,193454,1,0,0:0:0:0:
256,192,193633,1,12,0:0:0:0:
256,192,193889,1,0,0:0:0:0:
256,192,194010,1,8,0:0:0:0:
256,192,194132,1,8,0:0:0:0:
256,192,194253,1,8,0:0:0:0:
256,192,194375,1,4,0:0:0:0:
256,192,194738,1,0,0:0:0:0:
256,192,194920,1,8,0:0:0:0:
256,192,195102,1,4,0:0:0:0:
256,192,195465,1,8,0:0:0:0:
256,192,195647,1,8,0:0:0:0:
256,192,195829,1,4,0:0:0:0:
256,192,196184,1,8,0:0:0:0:
256,192,196361,1,0,0:0:0:0:
256,192,196539,1,12,0:0:0:0:
256,192,196894,1,8,0:0:0:0:
256,192,197249,1,4,0:0:0:0:
256,192,197609,1,8,0:0:0:0:
256,192,197789,1,0,0:0:0:0:
256,192,197969,1,4,0:0:0:0:
256,192,198330,1,8,0:0:0:0:
256,192,198510,1,8,0:0:0:0:
256,192,198690,1,4,0:0:0:0:
256,192,199039,1,8,0:0:0:0:
256,192,199214,1,8,0:0:0:0:
256,192,199389,1,12,0:0:0:0:
256,192,199739,1,8,0:0:0:0:
256,192,200089,1,4,0:0:0:0:
256,192,200439,1,0,0:0:0:0:
256,192,200615,1,8,0:0:0:0:
256,192,200790,1,4,0:0:0:0:
256,192,201141,1,8,0:0:0:0:
256,192,201317,1,8,0:0:0:0:
256,192,201492,1,4,0:0:0:0:
256,192,201735,1,4,0:0:0:0:
256,192,201979,1,12,0:0:0:0:
256,192,202223,1,4,0:0:0:0:
256,192,202467,1,12,0:0:0:0:
256,192,202711,1,12,0:0:0:0:
256,192,202955,1,4,0:0:0:0:
256,192,203308,1,0,0:0:0:0:
256,192,203485,1,8,0:0:0:0:
256,192,203662,1,4,0:0:0:0:
256,192,204016,1,8,0:0:0:0:
256,192,204193,1,8,0:0:0:0:
256,192,204370,1,4,0:0:0:0:
256,192,204724,1,8,0:0:0:0:
256,192,204901,1,0,0:0:0:0:
256,192,205078,1,12,0:0:0:0:
256,192,205432,1,8,0:0:0:0:
256,192,205609,1,8,0:0:0:0:
256,192,205698,1,8,0:0:0:0:
256,192,205786,1,4,0:0:0:0:
256,192,206145,1,8,0:0:0:0:
256,192,206324,1,0,0:0:0:0:
256,192,206504,1,4,0:0:0:0:
256,192,206863,1,8,0:0:0:0:
256,192,207043,1,8,0:0:0:0:
256,192,207223,1,4,0:0:0:0:
256,192,207585,1,8,0:0:0:0:
256,192,207766,1,8,0:0:0:0:
256,192,207948,1,12,0:0:0:0:
256,192,208310,1,8,0:0:0:0:
256,192,208673,1,4,0:0:0:0:
256,192,209033,1,0,0:0:0:0:
256,192,209213,1,8,0:0:0:0:
256,192,209393,1,4,0:0:0:0:
256,192,209754,1,8,0:0:0:0:
256,192,209934,1,8,0:0:0:0:
256,192,210114,1,4,0:0:0:0:
256,192,210466,1,8,0:0:0:0:
256,192,210643,1,0,0:0:0:0:
256,192,210819,1,12,0:0:0:0:
256,192,211172,1,8,0:0:0:0:
256,192,211525,1,4,0:0:0:0:
256,192,211878,1,8,0:0:0:0:
256,192,212055,1,0,0:0:0:0:
256,192,212231,1,4,0:0:0:0:
256,192,212584,1,8,0:0:0:0:
256,192,212761,1,8,0:0:0:0:
256,192,212937,1,4,0:0:0:0:
256,192,213172,1,12,0:0:0:0:
256,192,213408,1,4,0:0:0:0:
256,192,213643,1,12,0:0:0:0:
256,192,213878,1,12,0:0:0:0:
256,192,214114,1,12,0:0:0:0:
256,192,214349,1,4,0:0:0:0:
256,192,214699,1,0,0:0:0:0:
256,192,214875,1,8,0:0:0:0:
256,192,215050,1,4,0:0:0:0:
256,192,215401,1,8,0:0:0:0:
256,192,215577,1,8,0:0:0:0:
256,192,215752,1,4,0:0:0:0:
256,192,215987,1,8,0:0:0:0:
256,192,216104,1,0,0:0:0:0:
256,192,216222,1,8,0:0:0:0:
256,192,216457,1,8,0:0:0:0:
256,192,216575,1,8,0:0:0:0:
256,192,216693,1,8,0:0:0:0:
256,192,216810,1,8,0:0:0:0:
256,192,216942,1,0,0:0:0:0:
256,192,217074,1,0,0:0:0:0:
256,192,217207,1,12,0:0:0:0:
256,192,217952,1,0,0:0:0:0:
256,192,218325,1,8,0:0:0:0:
256,192,218697,1,0,0:0:0:0:
256,192,218873,1,0,0:0:0:0:
256,192,219049,1,8,0:0:0:0:
256,192,219402,1,0,0:0:0:0:
256,192,219742,1,8,0:0:0:0:
256,192,220108,1,0,0:0:0:0:
256,192,220467,1,8,0:0:0:0:
256,192,220646,1,8,0:0:0:0:
256,192,220826,1,0,0:0:0:0:
256,192,221185,1,8,0:0:0:0:
256,192,221545,1,0,0:0:0:0:
256,192,221717,1,0,0:0:0:0:
256,192,221890,1,8,0:0:0:0:
256,192,222063,1,8,0:0:0:0:
256,192,222236,1,0,0:0:0:0:
256,192,222572,1,8,0:0:0:0:
256,192,222928,1,0,0:0:0:0:
256,192,223297,1,8,0:0:0:0:
256,192,223481,1,0,0:0:0:0:
256,192,223666,1,0,0:0:0:0:
256,192,224035,1,8,0:0:0:0:
256,192,224404,1,0,0:0:0:0:
256,192,224580,1,0,0:0:0:0:
256,192,224756,1,8,0:0:0:0:
256,192,224933,1,0,0:0:0:0:
256,192,225109,1,0,0:0:0:0:
256,192,225435,1,8,0:0:0:0:
256,192,225783,1,0,0:0:0:0:
256,192,226016,1,8,0:0:0:0:
256,192,226133,1,8,0:0:0:0:
256,192,226250,1,0,0:0:0:0:
256,192,226484,1,8,0:0:0:0:
256,192,226718,1,0,0:0:0:0:
256,192,226835,1,0,0:0:0:0:
256,192,226952,1,8,0:0:0:0:
256,192,227186,1,0,0:0:0:0:
256,192,227425,1,8,0:0:0:0:
256,192,227545,1,8,0:0:0:0:
256,192,227716,1,8,0:0:0:0:
256,192,227887,1,0,0:0:0:0:
256,192,228059,1,0,0:0:0:0:
256,192,228230,1,8,0:0:0:0:
256,192,228402,1,8,0:0:0:0:
256,192,228623,1,4,0:0:0:0:
256,192,229149,1,8,0:0:0:0:
256,192,229324,1,0,0:0:0:0:
256,192,229675,1,8,0:0:0:0:
256,192,230026,1,4,0:0:0:0:
256,192,230566,1,8,0:0:0:0:
256,192,230746,1,4,0:0:0:0:
256,192,231107,1,8,0:0:0:0:
256,192,231287,1,8,0:0:0:0:
256,192,231467,1,4,0:0:0:0:
256,192,232036,1,8,0:0:0:0:
256,192,232226,1,0,0:0:0:0:
256,192,232573,1,8,0:0:0:0:
256,192,232921,1,4,0:0:0:0:
256,192,233469,1,8,0:0:0:0:
256,192,233652,1,4,0:0:0:0:
256,192,234007,1,8,0:0:0:0:
256,192,234384,1,4,0:0:0:0:
256,192,234944,1,8,0:0:0:0:
256,192,235131,1,0,0:0:0:0:
256,192,235469,1,8,0:0:0:0:
256,192,235808,1,4,0:0:0:0:
256,192,236332,1,8,0:0:0:0:
256,192,236530,1,4,0:0:0:0:
256,192,236868,1,8,0:0:0:0:
256,192,237207,1,4,0:0:0:0:
256,192,237558,1,0,0:0:0:0:
256,192,237646,1,0,0:0:0:0:
256,192,237910,1,12,0:0:0:0:
256,192,238262,1,8,0:0:0:0:
256,192,238350,1,8,0:0:0:0:
256,192,238614,1,4,0:0:0:0:
256,192,238855,1,8,0:0:0:0:
256,192,238976,1,8,0:0:0:0:
256,192,239097,1,8,0:0:0:0:
256,192,239218,1,8,0:0:0:0:
256,192,239339,1,0,0:0:0:0:
256,192,239580,1,8,0:0:0:0:
256,192,239701,1,0,0:0:0:0:
256,192,239843,1,8,0:0:0:0:
256,192,239985,1,8,0:0:0:0:
256,192,240128,1,4,0:0:0:0:
256,192,240639,1,8,0:0:0:0:
256,192,240809,1,0,0:0:0:0:
256,192,241150,1,8,0:0:0:0:
256,192,241491,1,4,0:0:0:0:
256,192,242003,1,8,0:0:0:0:
256,192,242207,1,4,0:0:0:0:
256,192,242554,1,8,0:0:0:0:
256,192,242738,1,8,0:0:0:0:
256,192,242923,1,4,0:0:0:0:
256,192,243453,1,8,0:0:0:0:
256,192,243630,1,0,0:0:0:0:
256,192,243984,1,8,0:0:0:0:
256,192,244338,1,4,0:0:0:0:
256,192,244893,1,8,0:0:0:0:
256,192,245078,1,4,0:0:0:0:
256,192,245424,1,0,0:0:0:0:
256,192,245621,1,8,0:0:0:0:
256,192,245819,1,4,0:0:0:0:
256,192,246351,1,8,0:0:0:0:
256,192,246529,1,0,0:0:0:0:
256,192,246866,1,8,0:0:0:0:
256,192,247052,1,8,0:0:0:0:
256,192,247239,1,4,0:0:0:0:
256,192,247759,1,8,0:0:0:0:
256,192,247932,1,4,0:0:0:0:
256,192,248279,1,8,0:0:0:0:
256,192,248452,1,0,0:0:0:0:
256,192,248626,1,4,0:0:0:0:
256,192,249348,1,12,0:0:0:0:
256,192,250071,1,8,0:0:0:0:
256,192,250180,1,8,0:0:0:0:
256,192,250290,1,0,0:0:0:0:
256,192,250400,1,0,0:0:0:0:
256,192,250565,1,8,0:0:0:0:
256,192,250730,1,0,0:0:0:0:
256,192,250840,1,0,0:0:0:0:
256,192,250950,1,0,0:0:0:0:
256,192,251060,1,0,0:0:0:0:
256,192,251169,1,8,0:0:0:0:
256,192,251279,1,8,0:0:0:0:
256,192,251475,1,4,0:0:0:0:
256,192,251838,1,0,0:0:0:0:
256,192,252020,1,8,0:0:0:0:
256,192,252202,1,4,0:0:0:0:
256,192,252565,1,8,0:0:0:0:
256,192,252747,1,8,0:0:0:0:
256,192,252929,1,4,0:0:0:0:
256,192,253299,1,8,0:0:0:0:
256,192,253484,1,0,0:0:0:0:
256,192,253669,1,12,0:0:0:0:
256,192,254040,1,8,0:0:0:0:
256,192,254410,1,4,0:0:0:0:
256,192,254753,1,8,0:0:0:0:
256,192,254925,1,0,0:0:0:0:
256,192,255097,1,4,0:0:0:0:
256,192,255441,1,8,0:0:0:0:
256,192,255613,1,8,0:0:0:0:
256,192,255785,1,4,0:0:0:0:
256,192,256143,1,8,0:0:0:0:
256,192,256322,1,8,0:0:0:0:
256,192,256501,1,12,0:0:0:0:
256,192,256859,1,8,0:0:0:0:
256,192,257217,1,4,0:0:0:0:
256,192,257573,1,0,0:0:0:0:
256,192,257751,1,8,0:0:0:0:
256,192,257929,1,4,0:0:0:0:
256,192,258285,1,8,0:0:0:0:
256,192,258463,1,8,0:0:0:0:
256,192,258641,1,4,0:0:0:0:
256,192,258880,1,4,0:0:0:0:
256,192,259120,1,12,0:0:0:0:
256,192,259359,1,4,0:0:0:0:
256,192,259599,1,12,0:0:0:0:
256,192,259838,1,12,0:0:0:0:
256,192,260078,1,4,0:0:0:0:
256,192,260431,1,0,0:0:0:0:
256,192,260608,1,8,0:0:0:0:
256,192,260785,1,4,0:0:0:0:
256,192,261139,1,8,0:0:0:0:
256,192,261316,1,8,0:0:0:0:
256,192,261493,1,4,0:0:0:0:
256,192,261850,1,8,0:0:0:0:
256,192,262028,1,0,0:0:0:0:
256,192,262207,1,12,0:0:0:0:
256,192,262564,1,8,0:0:0:0:
256,192,262653,1,8,0:0:0:0:
256,192,262743,1,0,0:0:0:0:
256,192,262921,1,4,0:0:0:0:
256,192,263282,1,8,0:0:0:0:
256,192,263463,1,0,0:0:0:0:
256,192,263644,1,4,0:0:0:0:
256,192,264006,1,8,0:0:0:0:
256,192,264187,1,8,0:0:0:0:
256,192,264368,1,4,0:0:0:0:
256,192,264727,1,8,0:0:0:0:
256,192,264906,1,8,0:0:0:0:
256,192,265086,1,12,0:0:0:0:
256,192,265445,1,8,0:0:0:0:
256,192,265805,1,4,0:0:0:0:
256,192,266160,1,0,0:0:0:0:
256,192,266337,1,8,0:0:0:0:
256,192,266515,1,4,0:0:0:0:
256,192,266870,1,8,0:0:0:0:
256,192,267047,1,8,0:0:0:0:
256,192,267225,1,4,0:0:0:0:
256,192,267580,1,8,0:0:0:0:
256,192,267757,1,0,0:0:0:0:
256,192,267935,1,12,0:0:0:0:
256,192,268290,1,8,0:0:0:0:
256,192,268645,1,4,0:0:0:0:
256,192,268998,1,8,0:0:0:0:
256,192,269175,1,0,0:0:0:0:
256,192,269352,1,4,0:0:0:0:
256,192,269706,1,8,0:0:0:0:
256,192,269883,1,8,0:0:0:0:
256,192,270060,1,4,0:0:0:0:
256,192,270297,1,12,0:0:0:0:
256,192,270534,1,4,0:0:0:0:
256,192,270772,1,12,0:0:0:0:
256,192,271009,1,12,0:0:0:0:
256,192,271246,1,12,0:0:0:0:
256,192,271484,1,4,0:0:0:0:
256,192,271840,1,0,0:0:0:0:
256,192,272018,1,8,0:0:0:0:
256,192,272196,1,4,0:0:0:0:
256,192,272552,1,8,0:0:0:0:
256,192,272730,1,8,0:0:0:0:
256,192,272908,1,4,0:0:0:0:
256,192,273146,1,4,0:0:0:0:
256,192,273383,1,12,0:0:0:0:
256,192,273620,1,4,0:0:0:0:
256,192,273858,1,4,0:0:0:0:
256,192,274095,1,12,0:0:0:0:
256,192,274332,1,4,0:0:0:0:
256,192,274910,12,0,285861,0:0:0:0:
