osu file format v14

[General]
AudioFilename: audio.mp3
AudioLeadIn: 0
PreviewTime: 56884
Countdown: 0
SampleSet: Soft
StackLeniency: 0.5
Mode: 0
LetterboxInBreaks: 0
WidescreenStoryboard: 1

[Editor]
Bookmarks: 26478,36857
DistanceSpacing: 0.9
BeatDivisor: 4
GridSize: 8
TimelineZoom: 1

[Metadata]
Title:Dark seeks light (TV Size)
TitleUnicode:Dark seeks light (TV Size)
Artist:Ninomiya Yui
ArtistUnicode:ニノミヤユイ
Creator:Mocaotic
Version:chaser01's Another
Source:世界最高の暗殺者、異世界貴族に転生する
Tags:Kotoha Ayucchi Fsjallink chaser01 japanese pop jpop j-pop anime isekai The world's best assassin, To reincarnate in a different world aristocrat The World's Finest Assassin Gets Reincarnated in Another World as an Aristocrat Ansatsu Kizoku op anime opening short version
BeatmapID:3548240
BeatmapSetID:1727027

[Difficulty]
HPDrainRate:5.5
CircleSize:4.1
OverallDifficulty:8.4
ApproachRate:9.1
SliderMultiplier:1.6
SliderTickRate:1

[Events]
//Background and Video events
0,0,"bg.jpg",0,0
//Break Periods
2,26678,33662
//Storyboard Layer 0 (Background)
//Storyboard Layer 1 (Fail)
//Storyboard Layer 2 (Pass)
//Storyboard Layer 3 (Foreground)
//Storyboard Layer 4 (Overlay)
//Storyboard Sound Samples

[TimingPoints]
533,324.324324324324,4,2,2,35,1,0
533,-181.818181818182,4,2,2,35,0,0
5397,-66.6666666666667,4,2,2,65,0,0
5641,-66.6666666666667,4,2,2,5,0,0
5722,-333.333333333333,4,2,2,55,0,0
7343,-100,4,2,2,55,0,0
10911,-333.333333333333,4,2,2,55,0,0
12532,-100,4,2,2,55,0,0
13343,-200,4,2,2,55,0,0
13668,-100,4,2,2,55,0,0
14965,-100,4,2,2,5,0,0
15046,-100,4,2,2,55,0,0
15208,-100,4,2,2,5,0,0
15289,-100,4,2,2,55,0,0
15532,-100,4,2,2,55,0,0
16100,-333.333333333333,4,2,2,55,0,0
17721,-100,4,2,2,55,0,0
21289,-333.333333333333,4,2,2,55,0,0
22910,-100,4,2,2,55,0,0
24857,-333.333333333333,4,2,2,55,0,0
25181,-90.9090909090909,4,2,2,55,0,0
26478,-100,4,2,2,55,0,0
35884,-166.666666666667,4,2,2,55,0,0
36532,-100,4,2,2,55,0,0
36857,-333.333333333333,4,2,2,65,0,0
38478,-100,4,2,2,65,0,0
42046,-333.333333333333,4,2,2,65,0,0
43667,-100,4,2,2,65,0,0
46587,-133.333333333333,4,2,2,13,0,0
46749,-133.333333333333,4,2,2,20,0,0
46911,-133.333333333333,4,2,2,30,0,0
47073,-133.333333333333,4,2,2,40,0,0
47235,-333.333333333333,4,2,2,65,0,0
48856,-100,4,2,2,65,0,0
51127,-86.9565217391304,4,2,2,65,0,0
53560,-333.333333333333,4,2,2,65,0,0
54695,-100,4,2,2,65,0,0
55019,-83.3333333333333,4,2,2,65,0,0
57289,-333.333333333333,4,2,2,82,0,0
57614,-285.714285714286,4,2,2,78,0,1
57938,-83.3333333333333,4,2,2,78,0,1
67181,-71.4285714285714,4,2,2,78,0,1
67505,-66.6666666666667,4,2,2,78,0,1
67992,-83.3333333333333,4,2,2,78,0,1
78370,-153.846153846154,4,2,2,45,0,0
87776,-153.846153846154,4,2,2,15,0,0

[Colours]
Combo1 : 172,151,255
Combo2 : 253,253,150
Combo3 : 197,227,252
Combo4 : 255,113,116

[HitObjects]
5,316,533,6,0,L|79:308,1,66.0000020141602,10|0,0:1|0:0,0:0:0:0:
74,318,857,2,0,L|136:311,1,44.0000013427735,8|0,0:1|0:0,0:0:0:0:
185,370,1181,2,0,L|247:363,1,44.0000013427735,8|0,0:1|0:0,0:0:0:0:
245,373,1424,1,0,0:0:0:0:
245,373,1505,1,8,0:1:0:0:
344,357,1668,1,8,0:1:0:0:
487,300,1830,6,0,L|413:292,1,66.0000020141602,10|0,0:1|0:0,0:0:0:0:
415,283,2154,2,0,L|353:276,1,44.0000013427735,8|0,0:1|0:0,0:0:0:0:
280,194,2478,2,0,L|323:198,1,44.0000013427735,8|0,0:1|0:0,0:0:0:0:
340,188,2721,1,0,0:0:0:0:
340,188,2802,1,8,0:1:0:0:
354,85,2965,1,8,0:1:0:0:
170,59,3127,6,0,L|177:147,2,88.000002685547,10|8|8,0:1|0:1|0:1,0:0:0:0:
168,49,3857,1,0,0:0:0:0:
32,52,4019,1,0,0:0:0:0:
32,52,4100,1,8,0:1:0:0:
0,171,4262,1,8,0:1:0:0:
0,171,5397,6,0,L|227:203,1,180.000006866455,2|0,0:1|0:0,0:0:0:0:
255,169,5722,6,0,P|257:225|242:266,1,95.9999970703126,4|10,3:2|0:0,0:0:0:0:
172,294,6695,1,0,3:0:0:0:
151,290,7019,1,2,1:2:0:0:
333,323,7343,6,0,P|396:338|439:346,1,80,2|10,3:2|0:0,0:0:0:0:
503,236,7668,2,0,P|440:251|397:259,1,80,2|2,0:0|0:0,0:0:0:0:
358,199,7992,2,0,P|369:170|378:139,2,40,2|2|2,0:0|0:0|0:0,0:0:0:0:
449,147,8316,5,0,0:0:0:0:
150,189,8478,2,0,P|228:203|294:224,1,120,4|0,3:2|0:0,0:0:0:0:
277,218,8803,2,0,L|233:227,1,40,10|0,0:0|0:0,0:0:0:0:
16,267,8965,1,2,0:0:0:0:
16,267,9289,1,0,3:0:0:0:
24,272,9614,5,2,1:2:0:0:
24,272,9695,2,0,P|40:233|58:201,1,40,2|0,0:0|0:0,0:0:0:0:
90,147,9857,1,2,0:0:0:0:
90,147,9938,2,0,P|103:127|115:113,1,40,0|0,3:0|0:0,0:0:0:0:
184,37,10100,2,0,P|200:24|226:6,1,40,10|0,0:0|0:0,0:0:0:0:
80,35,10262,5,2,1:2:0:0:
258,81,10424,2,0,P|294:89|323:102,1,40,0|0,1:2|0:0,0:0:0:0:
383,54,10587,2,0,P|323:59|266:77,1,120,0|0,1:2|0:0,0:0:0:0:
456,120,10911,6,0,P|472:75|471:27,1,95.9999970703126,4|10,3:2|0:0,0:0:0:0:
496,212,11884,1,0,3:0:0:0:
500,192,12208,1,2,1:2:0:0:
404,276,12532,6,0,P|415:332|424:380,1,80,2|10,3:2|0:0,0:0:0:0:
277,345,12857,2,0,P|269:305|261:266,1,80,2|0,0:0|0:0,0:0:0:0:
261,266,13100,1,2,0:0:0:0:
261,266,13181,1,2,3:2:0:0:
135,245,13343,2,0,P|139:265|143:285,1,40,0|2,0:0|0:0,0:0:0:0:
21,384,13668,6,0,P|85:348|157:262,1,160,4|8,3:2|0:0,0:0:0:0:
143,285,14073,1,2,0:0:0:0:
143,285,14154,1,2,0:0:0:0:
177,220,14478,1,2,3:2:0:0:
183,146,14803,6,0,P|182:109|162:56,1,80,2|0,1:2|0:0,0:0:0:0:
245,10,15046,2,0,P|276:28|332:36,1,80,2|0,0:0|0:0,0:0:0:0:
330,130,15289,2,0,P|298:148|263:192,1,80,2|2,1:2|1:2,0:0:0:0:
333,234,15532,6,0,L|387:225,1,40,2|0,0:0|0:0,0:0:0:0:
450,314,15695,1,2,0:0:0:0:
450,314,15776,2,0,L|410:320,1,40,0|0,3:0|0:0,0:0:0:0:
315,374,15938,2,0,L|275:380,1,40,2|0,1:2|0:0,0:0:0:0:
93,342,16100,6,0,P|47:355|6:380,1,95.9999970703126,4|10,3:2|0:0,0:0:0:0:
163,311,17073,1,0,3:0:0:0:
186,316,17397,1,2,1:2:0:0:
77,207,17722,6,0,L|-1:189,1,80,2|10,3:2|0:0,0:0:0:0:
181,121,18046,2,0,L|251:82,1,80,2|2,0:0|0:0,0:0:0:0:
103,128,18370,2,0,L|88:88,2,40,2|2|2,3:2|0:0|0:0,0:0:0:0:
14,78,18695,5,0,0:0:0:0:
200,238,18857,2,0,P|227:312|245:385,1,120,4|0,3:2|0:0,0:0:0:0:
240,358,19181,2,0,L|186:350,1,40,8|0,0:0|0:0,0:0:0:0:
453,384,19343,5,2,0:0:0:0:
453,384,19668,1,0,3:0:0:0:
453,384,19992,5,2,1:2:0:0:
453,384,20073,2,0,P|411:343|401:336,1,40,2|0,0:0|0:0,0:0:0:0:
342,291,20235,1,2,0:0:0:0:
342,291,20316,2,0,P|311:275|277:262,1,40,0|0,3:0|0:0,0:0:0:0:
212,242,20478,2,0,P|175:236|138:239,1,40,2|0,0:0|0:0,0:0:0:0:
225,342,20641,5,2,1:2:0:0:
286,185,20803,2,0,P|300:161|308:122,1,40,0|0,1:0|0:0,0:0:0:0:
261,59,20965,2,0,P|276:143|290:209,1,120,0|0,1:0|0:0,0:0:0:0:
199,0,21289,6,0,P|181:39|171:95,1,95.9999970703126,4|10,3:2|0:0,0:0:0:0:
91,128,22262,1,2,3:2:0:0:
67,133,22587,1,0,1:2:0:0:
294,82,22911,6,0,P|350:69|448:46,1,120,2|0,3:2|0:0,0:0:0:0:
417,59,23235,2,0,P|465:26|479:-4,1,80,0|2,0:0|0:0,0:0:0:0:
376,142,23560,6,0,P|402:153|426:182,1,40,2|0,3:2|0:0,0:0:0:0:
484,237,23722,2,0,L|478:256,2,20,2|0|0,0:0|0:0|0:0,0:0:0:0:
512,165,23884,5,2,0:0:0:0:
312,328,24046,2,0,P|293:258|262:151,1,160,4|0,3:2|0:0,0:0:0:0:
268,173,24451,1,2,0:0:0:0:
268,173,24532,1,10,0:0:0:0:
168,124,24857,2,0,P|190:128|211:132,1,35.9999989013672,2|0,3:2|0:0,0:0:0:0:
134,197,25181,6,0,P|53:212|7:220,1,88.000002685547,2|0,1:2|0:0,0:0:0:0:
48,221,25424,1,2,0:0:0:0:
48,221,25505,2,0,P|70:227|91:233,1,44.0000013427735,0|0,3:0|0:0,0:0:0:0:
299,283,25668,1,2,1:2:0:0:
308,289,25830,6,0,P|227:304|181:312,1,88.000002685547,2|0,1:2|0:0,0:0:0:0:
219,313,26073,1,2,0:0:0:0:
219,313,26154,2,0,P|241:319|262:325,1,44.0000013427735,0|0,3:0|0:0,0:0:0:0:
458,367,26317,1,2,1:2:0:0:
467,376,26478,5,2,0:0:0:0:
256,192,34262,12,4,35560,3:3:0:0:
20,5,35884,5,4,3:3:0:0:
271,68,36208,2,0,P|219:78|168:89,1,95.9999970703126,4|4,3:3|3:3,0:0:0:0:
105,27,36695,2,0,L|130:32,2,20,4|4|4,3:3|3:3|3:3,0:0:0:0:
374,134,36857,6,0,P|385:95|383:32,1,95.9999970703126,4|10,3:2|0:0,0:0:0:0:
463,79,37830,1,2,3:2:0:0:
481,74,38154,1,2,1:2:0:0:
269,126,38478,6,0,P|225:137|173:149,1,80,2|10,3:2|0:0,0:0:0:0:
315,272,38803,2,0,P|327:228|343:177,1,80,2|2,3:2|0:0,0:0:0:0:
162,237,39127,2,0,P|193:269|229:308,1,80,2|2,3:2|0:0,0:0:0:0:
251,210,39614,5,4,3:2:0:0:
356,349,39776,2,0,P|412:330|460:316,1,80,2|10,0:0|0:0,0:0:0:0:
432,324,40019,1,2,0:0:0:0:
432,324,40100,2,0,P|415:269|405:233,1,80,2|2,0:0|0:0,0:0:0:0:
248,384,40424,5,2,3:2:0:0:
248,384,40749,2,0,P|192:365|73:333,2,160,2|2|2,1:2|3:2|1:2,0:0:0:0:
20,358,41560,1,0,1:0:0:0:
62,160,41722,1,0,1:0:0:0:
38,278,41884,2,0,P|42:258|47:239,1,40,0|0,1:0|0:0,0:0:0:0:
183,111,42046,6,0,P|161:72|156:11,1,95.9999970703126,4|10,3:2|0:0,0:0:0:0:
71,74,43019,1,0,3:0:0:0:
51,79,43343,1,2,1:2:0:0:
246,37,43668,6,0,P|310:24|359:14,1,80,0|10,3:0|0:0,0:0:0:0:
338,39,43911,1,2,0:0:0:0:
338,39,43992,2,0,L|431:18,1,80,2|0,0:0|0:0,0:0:0:0:
471,94,44235,2,0,L|394:113,1,80,2|0,0:0|0:0,0:0:0:0:
448,187,44478,2,0,L|504:175,1,40,2|0,0:0|0:0,0:0:0:0:
491,259,44641,5,2,0:0:0:0:
290,212,44803,2,0,P|223:194|194:187,1,80,4|2,3:2|0:0,0:0:0:0:
141,225,45127,5,10,0:0:0:0:
141,225,45208,1,2,0:0:0:0:
141,225,45289,1,2,0:0:0:0:
67,301,45451,1,2,0:0:0:0:
156,347,45614,5,2,3:2:0:0:
51,222,45776,1,2,0:0:0:0:
147,13,45938,5,2,1:2:0:0:
147,13,46587,6,0,L|125:16,14,15.0000005722046
159,12,47235,6,0,P|207:41|246:48,1,95.9999970703126,4|10,3:2|0:0,0:0:0:0:
331,30,48208,1,0,3:0:0:0:
328,6,48532,1,2,1:2:0:0:
227,147,48857,6,0,P|234:200|242:259,1,80,0|8,3:0|0:0,0:0:0:0:
327,263,49100,5,2,0:0:0:0:
327,263,49181,2,0,L|317:200,2,53.3333333333333,2|2|2,0:0|0:0|0:0,0:0:0:0:
404,245,49505,2,0,L|412:297,2,53.3333333333333,2|2|2,3:2|0:0|0:0,0:0:0:0:
346,357,49830,5,2,0:0:0:0:
95,303,49992,2,0,P|170:318|253:336,1,160,4|8,3:2|0:0,0:0:0:0:
47,235,50478,6,0,P|45:198|43:155,1,53.3333333333333,2|2,0:0|0:0,0:0:0:0:
149,146,50695,1,2,0:0:0:0:
163,142,50803,6,0,L|166:182,1,40,2|2,3:2|0:0,0:0:0:0:
335,115,50965,2,0,L|332:75,1,40,2|2,0:0|0:0,0:0:0:0:
242,5,51127,6,0,L|253:166,1,138.000002632141,2|2,1:2|0:0,0:0:0:0:
312,203,51451,2,0,P|306:278|302:333,1,92.0000017547608,0|2,3:0|0:0,0:0:0:0:
154,371,51776,6,0,P|150:325|146:279,1,92.0000017547608,2|0,1:2|1:0,0:0:0:0:
146,279,52019,1,2,0:0:0:0:
146,279,52100,2,0,L|206:285,1,46.0000008773804,0|0,1:0|0:0,0:0:0:0:
17,333,52262,2,0,L|77:339,1,46.0000008773804,2|0,1:2|0:0,0:0:0:0:
285,362,52424,5,4,3:2:0:0:
285,362,52749,2,0,L|473:382,1,184.000003509522,2|8,0:0|0:0,0:0:0:0:
467,381,53397,5,2,3:2:0:0:
424,279,53560,2,0,L|349:286,2,71.9999978027344,2|0|2,0:0|3:0|0:0,0:0:0:0:
478,217,54695,2,0,L|488:172,1,40,2|0,3:2|0:0,0:0:0:0:
316,158,54857,2,0,L|324:118,1,40,2|0,0:0|0:0,0:0:0:0:
430,8,55019,6,0,P|418:90|412:128,1,95.9999970703126,4|0,3:2|0:0,0:0:0:0:
415,102,55262,1,2,0:0:0:0:
415,102,55343,1,10,0:0:0:0:
252,73,55505,1,0,0:0:0:0:
176,249,55668,2,0,P|168:201|161:154,1,95.9999970703126,10|0,0:0|0:0,0:0:0:0:
154,157,55911,1,2,0:0:0:0:
146,159,55992,5,10,0:0:0:0:
126,163,56073,1,8,0:0:0:0:
107,168,56154,1,8,0:0:0:0:
87,173,56235,1,8,0:0:0:0:
68,178,56316,1,2,0:1:0:0:
68,178,57289,6,0,L|118:187,1,47.9999985351563,4|4,0:1|3:2,0:0:0:0:
315,219,57776,1,2,0:0:0:0:
16,299,57938,6,0,L|221:341,1,191.999994140625,10|2,0:0|0:0,0:0:0:0:
381,269,58424,1,2,3:2:0:0:
290,296,58587,2,0,B|284:349|284:349|313:393,1,95.9999970703126,10|2,0:0|0:0,0:0:0:0:
470,230,58911,2,0,B|495:274|495:274|487:318,1,95.9999970703126,2|2,3:2|0:0,0:0:0:0:
227,146,59235,6,0,L|221:88,1,47.9999985351563,10|0,0:0|0:0,0:0:0:0:
335,0,59397,2,0,P|345:85|354:197,1,191.999994140625,2|2,0:0|3:2,0:0:0:0:
441,119,59884,5,10,0:0:0:0:
507,88,60046,1,2,0:0:0:0:
446,46,60208,1,2,0:0:0:0:
223,99,60370,2,0,P|161:115|110:129,1,95.9999970703126,4|10,3:2|0:0,0:0:0:0:
59,89,60695,1,2,0:0:0:0:
336,216,60857,2,0,P|269:232|213:246,1,95.9999970703126,2|2,0:0|3:2,0:0:0:0:
180,190,61181,1,10,0:0:0:0:
463,308,61343,5,2,0:0:0:0:
473,308,61424,1,2,0:0:0:0:
483,309,61505,2,0,B|411:328|411:328|373:390|278:378,1,191.999994140625,0|10,3:0|0:0,0:0:0:0:
24,320,61992,2,0,P|86:284|156:270,1,143.999995605469,2|0,0:0|0:0,0:0:0:0:
238,290,62316,2,0,L|222:385,1,95.9999970703126,2|10,3:2|0:0,0:0:0:0:
30,367,62641,6,0,L|20:298,1,47.9999985351563,2|0,0:0|0:0,0:0:0:0:
120,6,62803,2,0,L|149:195,1,191.999994140625,4|10,3:2|0:0,0:0:0:0:
220,139,63289,2,0,B|239:92|239:92|233:45,1,95.9999970703126,2|0,0:0|0:0,0:0:0:0:
42,9,63614,2,0,B|23:56|23:56|28:102,1,95.9999970703126,2|10,3:2|0:0,0:0:0:0:
332,9,63938,6,0,L|379:18,1,47.9999985351563,2|0,0:0|0:0,0:0:0:0:
271,219,64100,2,0,P|365:236|460:255,1,191.999994140625,0|10,3:0|0:0,0:0:0:0:
435,120,64587,1,2,0:0:0:0:
347,269,64749,5,0,0:0:0:0:
372,338,64911,1,2,3:2:0:0:
434,380,65073,1,10,0:0:0:0:
507,377,65235,1,2,0:0:0:0:
444,302,65397,5,2,0:0:0:0:
121,363,65560,2,0,P|199:350|242:343,1,95.9999970703126,4|10,3:2|0:0,0:0:0:0:
214,347,65803,1,2,0:0:0:0:
214,347,65884,1,2,0:0:0:0:
239,276,66046,1,0,0:0:0:0:
39,361,66208,6,0,P|15:289|23:184,1,143.999995605469,2|0,3:2|0:0,0:0:0:0:
18,212,66533,1,2,0:0:0:0:
157,150,66695,1,0,3:0:0:0:
162,297,66857,1,2,0:0:0:0:
3,54,67019,6,0,L|71:63,1,47.9999985351563,10|0,0:0|0:0,0:0:0:0:
462,112,67181,2,0,L|290:93,1,167.999994873047,2|2,0:0|0:0,0:0:0:0:
249,12,67505,6,0,B|280:102|227:98|268:227,1,180.000006866455,2|2,3:2|0:0,0:0:0:0:
257,189,67830,2,0,P|279:212|305:218,1,60.0000022888184,2|2,0:0|0:0,0:0:0:0:
512,384,67992,6,0,P|475:332|338:322,1,191.999994140625,4|10,3:2|0:0,0:0:0:0:
319,384,68478,1,2,0:0:0:0:
150,355,68641,2,0,P|215:340|266:319,1,95.9999970703126,2|0,0:0|3:0,0:0:0:0:
100,236,68965,2,0,P|35:251|-16:272,1,95.9999970703126,10|2,0:0|0:0,0:0:0:0:
80,146,69289,5,2,3:2:0:0:
187,220,69451,1,2,0:0:0:0:
25,370,69614,5,10,0:0:0:0:
204,211,69776,2,0,P|273:216|403:243,1,191.999994140625,2|2,0:0|3:2,0:0:0:0:
485,134,70262,2,0,P|421:153|375:159,1,95.9999970703126,10|2,0:0|0:0,0:0:0:0:
475,226,70587,1,2,0:0:0:0:
246,101,70749,5,4,3:2:0:0:
181,57,70911,2,0,B|121:30|121:30|34:52|-8:-20,1,191.999994140625,10|2,0:0|0:0,0:0:0:0:
94,293,71397,2,0,P|43:319|3:370,1,95.9999970703126,2|10,3:2|0:0,0:0:0:0:
160,334,71722,1,2,0:0:0:0:
93,179,71884,6,0,P|46:168|-1:157,1,95.9999970703126,0|2,3:0|0:0,0:0:0:0:
174,136,72208,1,10,0:0:0:0:
325,341,72370,2,0,P|418:361|511:384,1,191.999994140625,2|2,0:0|3:2,0:0:0:0:
259,279,72857,6,0,P|242:345|243:377,1,95.9999970703126,10|2,0:0|0:0,0:0:0:0:
467,151,73181,2,0,P|484:85|483:53,1,95.9999970703126,4|0,3:2|0:0,0:0:0:0:
484,58,73424,1,2,0:0:0:0:
484,58,73505,1,8,0:0:0:0:
406,15,73668,6,0,B|305:27|329:77|195:57,1,191.999994140625,2|0,0:0|3:0,0:0:0:0:
138,93,74154,2,0,P|143:46|160:1,1,95.9999970703126,8|0,0:0|0:0,0:0:0:0:
314,135,74478,6,0,P|229:242|149:222,1,191.999994140625,0|10,3:0|0:0,0:0:0:0:
200,166,74965,1,0,0:0:0:0:
332,281,75127,2,0,L|463:255,1,95.9999970703126,2|2,0:0|3:2,0:0:0:0:
483,342,75451,2,0,L|427:336,1,47.9999985351563,10|0,0:0|0:0,0:0:0:0:
170,319,75614,6,0,B|91:336|91:336|75:367|75:367|-18:389,2,191.999994140625,2|4|0,0:0|3:2|0:0,0:0:0:0:
346,201,76424,5,2,0:0:0:0:
264,157,76587,1,0,3:0:0:0:
266,248,76749,1,8,0:0:0:0:
419,112,76911,5,0,0:0:0:0:
170,29,77073,2,0,P|145:87|123:216,1,191.999994140625,2|10,3:2|0:0,0:0:0:0:
27,255,77560,2,0,P|23:194|19:151,1,95.9999970703126,2|0,0:0|0:0,0:0:0:0:
83,118,77884,1,2,3:2:0:0:
100,299,78046,2,0,P|132:309|157:318,1,47.9999985351563,10|2,1:2|0:0,0:0:0:0:
248,354,78208,5,2,0:0:0:0:
268,370,78289,1,2,0:0:0:0:
246,381,78370,1,6,3:2:0:0:
246,381,78695,6,0,L|238:312,1,51.999997619629,8|0,0:1|0:0,0:0:0:0:
319,282,79019,2,0,L|312:227,1,51.999997619629,8|0,0:1|0:0,0:0:0:0:
300,222,79262,1,0,0:0:0:0:
300,222,79343,1,8,0:1:0:0:
211,234,79505,1,8,0:1:0:0:
74,163,79668,6,0,L|151:151,1,77.9999964294435,10|0,0:1|0:0,0:0:0:0:
152,139,79992,2,0,L|220:128,1,51.999997619629,8|0,0:1|0:0,0:0:0:0:
254,52,80316,2,0,L|322:41,1,51.999997619629,8|0,0:1|0:0,0:0:0:0:
319,56,80560,1,0,0:0:0:0:
319,56,80641,1,8,0:1:0:0:
411,39,80803,1,8,0:1:0:0:
512,139,80965,6,0,L|434:150,1,77.9999964294435,10|0,0:1|0:0,0:0:0:0:
434,163,81289,2,0,L|366:174,1,51.999997619629,8|0,0:1|0:0,0:0:0:0:
332,250,81613,2,0,L|264:261,1,51.999997619629,8|0,0:1|0:0,0:0:0:0:
272,248,81857,1,0,0:0:0:0:
272,248,81938,1,8,0:1:0:0:
295,354,82100,1,8,0:1:0:0:
409,379,82262,1,8,0:1:0:0:
409,379,82587,6,0,L|513:366,2,103.999995239258,10|10|10,0:1|0:1|0:1,0:0:0:0:
154,380,83560,6,0,L|67:369,1,77.9999964294435,10|0,0:1|0:0,0:0:0:0:
71,362,83884,2,0,L|77:305,1,51.999997619629,8|0,0:1|0:0,0:0:0:0:
163,266,84208,2,0,L|169:209,1,51.999997619629,8|0,0:1|0:0,0:0:0:0:
155,202,84451,2,0,L|160:155,1,25.9999988098145,0|8,0:0|0:1,0:0:0:0:
94,137,84614,1,0,0:0:0:0:
94,137,84695,2,0,L|100:80,1,51.999997619629,8|10,0:1|0:1,0:0:0:0:
362,7,85181,6,0,L|367:58,1,51.999997619629,8|0,0:1|0:0,0:0:0:0:
306,125,85505,2,0,L|311:176,1,51.999997619629,8|0,0:1|0:0,0:0:0:0:
303,190,85749,1,0,0:0:0:0:
303,190,85830,2,0,L|308:241,1,51.999997619629,8|8,0:1|0:1,0:0:0:0:
496,282,86154,6,0,L|388:303,2,103.999995239258,10|8|8,0:1|0:1|0:1,0:0:0:0:
508,279,86884,1,0,0:0:0:0:
424,384,87046,1,0,0:0:0:0:
424,384,87127,1,8,0:1:0:0:
274,348,87289,1,8,0:1:0:0:
