osu file format v14

[General]
AudioFilename: audio.mp3
AudioLeadIn: 0
PreviewTime: 56884
Countdown: 0
SampleSet: Soft
StackLeniency: 0.8
Mode: 0
LetterboxInBreaks: 0
WidescreenStoryboard: 1

[Editor]
Bookmarks: 18857,35560
DistanceSpacing: 1.15
BeatDivisor: 4
GridSize: 8
TimelineZoom: 1.5

[Metadata]
Title:Dark seeks light (TV Size)
TitleUnicode:Dark seeks light (TV Size)
Artist:Ninomiya Yui
ArtistUnicode:ニノミヤユイ
Creator:Mocaotic
Version:Hard
Source:世界最高の暗殺者、異世界貴族に転生する
Tags:Kotoha Ayucchi Fsjallink chaser01 japanese pop jpop j-pop anime isekai The world's best assassin, To reincarnate in a different world aristocrat The World's Finest Assassin Gets Reincarnated in Another World as an Aristocrat Ansatsu Kizoku op anime opening short version
BeatmapID:3550666
BeatmapSetID:1727027

[Difficulty]
HPDrainRate:4
CircleSize:3.8
OverallDifficulty:6
ApproachRate:8
SliderMultiplier:1.35
SliderTickRate:1

[Events]
//Background and Video events
0,0,"bg.jpg",0,0
//Break Periods
2,26678,34810
//Storyboard Layer 0 (Background)
//Storyboard Layer 1 (Fail)
//Storyboard Layer 2 (Pass)
//Storyboard Layer 3 (Foreground)
//Storyboard Layer 4 (Overlay)
//Storyboard Sound Samples

[TimingPoints]
533,324.324324324324,4,2,2,35,1,0
533,-125,4,2,2,35,0,0
5397,-125,4,2,2,65,0,0
5722,-100,4,2,2,55,0,0
35560,-111.111111111111,4,2,2,55,0,0
35803,-111.111111111111,4,2,2,5,0,0
35884,-111.111111111111,4,2,2,55,0,0
36127,-111.111111111111,4,2,2,5,0,0
36208,-111.111111111111,4,2,2,55,0,0
36857,-100,4,2,2,65,0,0
57289,-100,4,2,2,82,0,0
57614,-83.3333333333333,4,2,2,78,0,1
78370,-100,4,2,2,45,0,0
87776,-100,4,2,2,15,0,0

[Colours]
Combo1 : 172,151,255
Combo2 : 253,253,150
Combo3 : 197,227,252
Combo4 : 255,113,116

[HitObjects]
266,149,533,5,10,0:1:0:0:
266,149,857,1,8,0:1:0:0:
266,149,1181,2,0,P|255:98|240:63,2,81,8|0|8,0:1|0:0|0:1,0:0:0:0:
219,219,1830,5,10,0:1:0:0:
219,219,2154,1,8,0:1:0:0:
219,219,2478,2,0,P|180:253|157:283,2,81,8|0|8,0:1|0:0|0:1,0:0:0:0:
303,224,3128,5,10,0:1:0:0:
303,224,3452,1,8,0:1:0:0:
303,224,3776,2,0,P|352:240|389:244,2,81,8|0|8,0:1|0:0|0:1,0:0:0:0:
158,76,5397,6,0,P|118:73|90:120,1,81,2|0,0:1|0:0,0:0:0:0:
71,134,5722,6,0,B|101:165|101:165|87:268,1,135,4|2,3:2|0:0,0:0:0:0:
55,326,6208,1,2,0:0:0:0:
120,369,6370,2,0,L|253:333,1,135,10|0,0:0|3:0,0:0:0:0:
337,204,7019,6,0,B|278:192|278:192|266:198|266:198|185:182,1,135,2|2,1:2|3:2,0:0:0:0:
133,214,7505,1,10,0:0:0:0:
75,161,7668,2,0,L|92:76,1,67.5,2|2,0:0|0:0,0:0:0:0:
154,52,7992,1,2,0:0:0:0:
154,52,8073,1,2,0:0:0:0:
154,52,8154,2,0,L|146:8,2,33.75,2|2|2,0:0|0:0|0:0,0:0:0:0:
216,98,8478,6,0,B|272:60|272:60|350:78,1,135,4|10,3:2|0:0,0:0:0:0:
398,26,8965,1,2,0:0:0:0:
450,171,9289,2,0,L|429:287,1,101.25,0|0,3:0|0:0,0:0:0:0:
448,306,9614,6,0,P|490:317|524:276,2,101.25,2|2|10,1:2|0:0|0:0,0:0:0:0:
391,358,10262,2,0,P|357:345|310:349,1,67.5,2|0,1:2|1:2,0:0:0:0:
259,304,10587,2,0,P|225:317|178:313,1,67.5,0|0,1:2|1:2,0:0:0:0:
120,377,10911,5,4,3:2:0:0:
120,377,11235,2,0,L|103:262,1,101.25,2|0,0:0|0:0,0:0:0:0:
121,241,11560,2,0,P|189:203|254:221,1,135,10|0,0:0|3:0,0:0:0:0:
391,167,12208,6,0,B|424:106|424:106|375:28,1,135,2|2,1:2|3:2,0:0:0:0:
327,3,12695,1,10,0:0:0:0:
254,31,12857,2,0,L|160:17,1,67.5,2|0,0:0|0:0,0:0:0:0:
129,70,13181,1,2,3:2:0:0:
129,70,13262,1,2,0:0:0:0:
129,70,13343,2,0,L|72:83,2,33.75,2|2|0,0:0|0:0|0:0,0:0:0:0:
189,118,13668,6,0,B|180:177|180:177|188:193|188:193|179:255,1,135,4|8,3:2|0:0,0:0:0:0:
231,307,14154,1,2,0:0:0:0:
94,380,14478,2,0,L|71:278,1,101.25,2|0,3:2|0:0,0:0:0:0:
43,254,14803,6,0,P|9:244|-21:308,2,101.25,2|2|2,1:2|0:0|1:2,0:0:0:0:
96,197,15451,2,0,P|130:207|160:143,2,101.25,2|2|2,1:2|0:0|1:2,0:0:0:0:
10,107,16100,6,0,B|74:93|74:93|80:97|80:97|167:78,1,135,4|2,3:2|0:0,0:0:0:0:
208,45,16587,1,2,0:0:0:0:
260,102,16749,2,0,L|242:251,1,135,10|0,0:0|3:0,0:0:0:0:
325,367,17397,6,0,B|396:378|396:378|452:338,1,135,2|2,1:2|3:2,0:0:0:0:
503,286,17884,1,10,0:0:0:0:
465,217,18046,2,0,L|478:135,1,67.5,2|2,0:0|0:0,0:0:0:0:
435,84,18370,1,2,3:2:0:0:
435,84,18451,1,2,0:0:0:0:
435,84,18532,2,0,L|424:29,2,33.75,2|2|2,0:0|0:0|0:0,0:0:0:0:
369,126,18857,6,0,B|312:115|312:115|295:121|295:121|229:107,1,135,4|8,3:2|0:0,0:0:0:0:
183,53,19343,1,2,0:0:0:0:
56,142,19668,2,0,L|83:263,1,101.25,0|0,3:0|0:0,0:0:0:0:
63,276,19992,6,0,P|10:280|-10:223,2,101.25,2|2|2,1:2|0:0|0:0,0:0:0:0:
124,323,20641,2,0,P|158:310|205:314,1,67.5,2|0,1:2|1:0,0:0:0:0:
256,269,20966,2,0,P|290:282|337:278,1,67.5,0|0,1:0|1:0,0:0:0:0:
395,342,21290,5,4,3:2:0:0:
395,342,21614,2,0,L|408:248,1,67.5,2|2,0:0|0:0,0:0:0:0:
475,245,21938,2,0,L|462:151,1,67.5,10|2,0:0|0:0,0:0:0:0:
411,122,22262,1,2,3:2:0:0:
454,58,22424,1,2,0:0:0:0:
387,17,22587,6,0,B|330:28|330:28|314:46|314:46|246:60,1,135,0|0,1:2|3:0,0:0:0:0:
201,104,23073,2,0,P|187:183|245:234,1,135,10|2,0:0|0:0,0:0:0:0:
296,262,23560,1,2,3:2:0:0:
296,262,23641,1,2,0:0:0:0:
296,262,23722,2,0,L|350:248,2,33.75,2|2|2,0:0|0:0|0:0,0:0:0:0:
253,327,24046,6,0,B|199:317|199:317|180:298|180:298|112:284,1,135,4|0,3:2|0:0,0:0:0:0:
57,255,24532,2,0,B|37:207|37:207|80:147,1,101.25,10|0,0:0|0:0,0:0:0:0:
92,138,24857,1,2,3:2:0:0:
244,107,25181,6,0,L|397:137,1,135,2|0,1:2|3:0,0:0:0:0:
435,184,25668,1,0,1:0:0:0:
497,137,25830,2,0,B|525:75|525:75|480:10,1,135,0|0,1:0|3:0,0:0:0:0:
411,5,26316,1,0,1:0:0:0:
411,5,26397,1,0,1:0:0:0:
411,5,26478,1,2,0:0:0:0:
94,67,35560,6,0,B|123:29|123:29|177:57,1,91.1249972190858,4|0,3:3|0:0,0:0:0:0:
172,86,35884,2,0,B|143:124|143:124|89:96,1,91.1249972190858,4|0,3:3|0:0,0:0:0:0:
71,93,36208,1,4,3:3:0:0:
239,47,36532,5,4,3:3:0:0:
291,104,36695,1,4,3:3:0:0:
238,175,36857,2,0,B|159:161,1,67.5,4|0,3:2|0:0,0:0:0:0:
103,125,37181,2,0,P|101:103|116:72,2,45,2|2|2,0:0|0:0|0:0,0:0:0:0:
72,166,37505,2,0,L|102:310,1,135,10|2,0:0|3:2,0:0:0:0:
230,384,38154,6,0,B|289:349|289:349|366:367,1,135,2|2,1:2|3:2,0:0:0:0:
429,383,38641,1,10,0:0:0:0:
486,331,38803,2,0,L|472:243,1,67.5,2|2,3:2|0:0,0:0:0:0:
418,211,39127,1,2,3:2:0:0:
418,211,39208,1,2,0:0:0:0:
418,211,39289,2,0,L|428:156,2,33.75,2|2|2,0:0|0:0|0:0,0:0:0:0:
346,243,39614,6,0,B|281:258|281:258|222:223,1,135,4|10,3:2|0:0,0:0:0:0:
159,177,40100,2,0,L|176:90,1,67.5,2|2,0:0|0:0,0:0:0:0:
186,34,40424,1,2,3:2:0:0:
340,15,40749,6,0,L|436:31,2,67.5,2|2|2,1:2|0:0|3:2,0:0:0:0:
273,54,41235,1,2,0:0:0:0:
319,116,41397,2,0,P|320:158|291:193,1,67.5,2|0,1:2|1:0,0:0:0:0:
238,215,41722,2,0,P|223:245|226:278,1,67.5,0|0,1:0|1:0,0:0:0:0:
285,372,42046,6,0,B|228:359|228:359|205:365|205:365|142:349,1,135,4|2,3:2|0:0,0:0:0:0:
29,258,42695,2,0,P|15:189|81:137,1,135,10|0,0:0|3:0,0:0:0:0:
128,122,43181,1,2,0:0:0:0:
185,174,43343,6,0,B|242:161|242:161|265:167|265:167|328:151,1,135,2|0,1:2|3:0,0:0:0:0:
388,124,43830,1,10,0:0:0:0:
454,164,43992,2,0,L|438:243,1,67.5,2|0,0:0|0:0,0:0:0:0:
473,310,44316,1,0,3:2:0:0:
473,310,44397,1,2,0:0:0:0:
473,310,44478,2,0,L|533:298,2,33.75,2|2|2,0:0|0:0|0:0,0:0:0:0:
418,365,44803,6,0,B|350:376|350:376|293:332,1,135,4|10,3:2|0:0,0:0:0:0:
246,277,45289,2,0,L|260:201,1,67.5,2|2,0:0|0:0,0:0:0:0:
309,151,45614,1,2,3:2:0:0:
268,85,45776,1,2,0:0:0:0:
196,114,45938,1,2,1:2:0:0:
196,114,47235,6,0,B|144:126|144:126|129:143|129:143|62:159,1,135,4|0,3:2|0:0,0:0:0:0:
10,108,47722,1,2,0:0:0:0:
47,40,47884,2,0,L|195:11,1,135,10|0,0:0|3:0,0:0:0:0:
326,62,48532,6,0,P|356:108|325:190,1,135,2|0,1:2|3:0,0:0:0:0:
263,211,49019,1,8,0:0:0:0:
190,184,49181,2,0,P|179:155|196:119,2,45,2|2|2,0:0|0:0|0:0,0:0:0:0:
159,225,49505,2,0,P|170:254|153:290,2,45,2|2|2,3:2|0:0|0:0,0:0:0:0:
109,209,49830,1,2,0:0:0:0:
48,308,49992,6,0,B|106:325|106:325|120:343|120:343|196:363,1,135,4|8,3:2|0:0,0:0:0:0:
245,335,50478,2,0,P|247:310|266:282,2,45,2|2|2,0:0|0:0|0:0,0:0:0:0:
282,370,50803,2,0,L|323:362,3,33.75,2|2|2|2,3:2|0:0|0:0|0:0,0:0:0:0:
351,379,51127,6,0,B|442:361|442:361|466:321,1,135,2|0,1:2|3:0,0:0:0:0:
508,261,51614,1,2,0:0:0:0:
455,203,51776,2,0,L|370:216,1,67.5,2|0,1:2|1:0,0:0:0:0:
325,259,52100,2,0,L|240:246,1,67.5,0|2,1:0|1:2,0:0:0:0:
192,192,52424,5,4,3:2:0:0:
192,192,52749,2,0,B|168:256|168:256|215:336,2,135,2|8|2,0:0|0:0|3:2,0:0:0:0:
241,132,53560,1,2,0:0:0:0:
309,168,53722,6,0,B|374:156|374:156|389:165|389:165|454:153,1,135,0|0,1:0|3:0,0:0:0:0:
481,90,54208,1,8,0:0:0:0:
433,28,54370,2,0,L|336:44,1,67.5,0|2,0:0|0:0,0:0:0:0:
295,71,54695,2,0,L|251:63,3,33.75,2|2|2|2,3:2|0:0|0:0|0:0,0:0:0:0:
228,84,55019,6,0,B|212:135|212:135|247:199,1,101.25,4|0,3:2|0:0,0:0:0:0:
266,207,55343,1,10,0:0:0:0:
266,207,55424,2,0,L|361:190,1,67.5,8|0,0:0|0:0,0:0:0:0:
362,220,55668,2,0,L|349:281,1,33.75,10|8,0:0|0:0,0:0:0:0:
262,323,55992,2,0,L|275:384,2,33.75,10|8|8,0:0|0:0|0:0,0:0:0:0:
195,282,56316,1,2,0:1:0:0:
0,365,57289,5,4,0:1:0:0:
0,365,57614,6,0,B|37:338|37:338|87:346,1,80.9999975280763,4|2,3:2|0:0,0:0:0:0:
162,382,57938,2,0,L|139:215,1,161.999995056153,10|2,0:0|0:0,0:0:0:0:
69,167,58424,1,2,3:2:0:0:
129,101,58587,2,0,L|222:121,1,80.9999975280763,10|2,0:0|0:0,0:0:0:0:
275,176,58911,5,2,3:2:0:0:
351,130,59073,1,2,0:0:0:0:
331,44,59235,1,10,0:0:0:0:
242,35,59397,2,0,L|259:204,1,161.999995056153,2|2,0:0|3:2,0:0:0:0:
332,246,59884,2,0,B|370:228|370:228|421:242,1,80.9999975280763,10|2,0:0|0:0,0:0:0:0:
485,282,60208,1,2,0:0:0:0:
377,319,60370,6,0,L|360:157,1,161.999995056153,4|2,3:2|0:0,0:0:0:0:
432,103,60857,1,2,0:0:0:0:
505,152,61019,2,0,B|518:195|518:195|492:232,1,80.9999975280763,2|10,3:2|0:0,0:0:0:0:
418,266,61343,6,0,L|242:239,1,161.999995056153,2|2,0:0|0:0,0:0:0:0:
175,276,61830,1,10,0:0:0:0:
106,219,61992,2,0,P|85:149|144:77,1,161.999995056153,2|2,0:0|3:2,0:0:0:0:
215,47,62478,1,10,0:0:0:0:
286,116,62641,1,2,0:0:0:0:
286,116,62722,1,2,0:0:0:0:
286,116,62803,6,0,B|270:207,1,80.9999975280763,4|2,3:2|0:0,0:0:0:0:
217,266,63127,1,10,0:0:0:0:
288,319,63289,2,0,B|359:282|359:282|441:305,1,161.999995056153,2|2,0:0|3:2,0:0:0:0:
509,250,63776,1,10,0:0:0:0:
461,174,63938,2,0,L|476:87,1,80.9999975280763,2|0,0:0|3:0,0:0:0:0:
416,27,64262,5,2,0:0:0:0:
332,58,64424,1,10,0:0:0:0:
252,5,64587,2,0,L|237:92,1,80.9999975280763,2|0,0:0|0:0,0:0:0:0:
279,163,64911,1,2,3:2:0:0:
205,208,65073,1,10,0:0:0:0:
205,208,65154,1,2,0:0:0:0:
205,208,65235,2,0,L|141:196,2,40.4999987640381,2|2|2,0:0|0:0|0:0,0:0:0:0:
293,274,65560,6,0,B|226:289|226:289|208:306|208:306|129:323,1,161.999995056153,4|2,3:2|0:0,0:0:0:0:
64,365,66046,1,0,0:0:0:0:
2,301,66208,2,0,L|15:212,1,80.9999975280763,2|8,3:2|0:0,0:0:0:0:
89,174,66532,2,0,L|76:85,1,80.9999975280763,2|0,0:0|3:0,0:0:0:0:
9,4,66857,6,0,L|191:29,1,161.999995056153,2|2,0:0|0:0,0:0:0:0:
250,62,67343,2,0,L|306:48,3,40.4999987640381,2|2|2|2,0:0|0:0|3:2|0:0,0:0:0:0:
322,22,67668,2,0,L|378:36,3,40.4999987640381,10|2|2|2,0:2|0:0|0:0|0:0,0:0:0:0:
396,59,67992,6,0,L|383:153,1,80.9999975280763,4|2,3:2|0:0,0:0:0:0:
305,178,68316,1,10,0:0:0:0:
230,128,68478,1,2,0:0:0:0:
152,173,68641,2,0,L|165:267,1,80.9999975280763,2|0,0:0|3:0,0:0:0:0:
243,292,68965,2,0,L|337:279,1,80.9999975280763,10|2,0:0|0:0,0:0:0:0:
398,232,69289,5,2,3:2:0:0:
467,287,69451,1,2,0:0:0:0:
436,370,69614,1,10,0:0:0:0:
355,360,69776,2,0,L|369:183,1,161.999995056153,2|2,0:0|3:2,0:0:0:0:
300,140,70262,2,0,B|260:151|260:151|214:129,1,80.9999975280763,10|2,0:0|0:0,0:0:0:0:
154,77,70587,1,2,0:0:0:0:
269,53,70749,6,0,L|255:230,1,161.999995056153,4|0,3:2|0:0,0:0:0:0:
295,294,71235,1,2,0:0:0:0:
220,343,71397,2,0,B|185:324|185:324|136:336,1,80.9999975280763,2|10,3:2|0:0,0:0:0:0:
56,373,71722,6,0,L|70:196,1,161.999995056153,2|2,0:0|0:0,0:0:0:0:
7,147,72208,1,10,0:0:0:0:
83,101,72370,2,0,B|178:89|147:164|254:154,1,161.999995056153,2|2,0:0|3:2,0:0:0:0:
300,207,72856,1,10,0:0:0:0:
383,167,73019,1,2,0:0:0:0:
383,167,73100,1,2,0:0:0:0:
383,167,73181,6,0,B|367:76,1,80.9999975280763,4|0,3:2|0:0,0:0:0:0:
422,16,73505,1,8,0:0:0:0:
334,1,73668,2,0,B|259:9|259:9|242:25|242:25|177:31,1,161.999995056153,2|0,0:0|3:0,0:0:0:0:
104,80,74154,2,0,B|92:123|92:123|127:163,1,80.9999975280763,8|0,0:0|0:0,0:0:0:0:
196,187,74478,1,0,3:0:0:0:
196,187,74803,6,0,L|283:172,1,80.9999975280763,10|0,0:0|0:0,0:0:0:0:
356,210,75127,1,2,0:0:0:0:
314,288,75289,1,2,3:2:0:0:
386,356,75451,1,10,0:0:0:0:
386,356,75532,1,2,0:0:0:0:
386,356,75613,2,0,L|450:344,2,40.4999987640381,2|2|2,0:0|0:0|0:0,0:0:0:0:
299,378,75938,6,0,B|232:363|232:363|214:346|214:346|135:329,1,161.999995056153,4|0,3:2|0:0,0:0:0:0:
67,370,76424,2,0,B|32:337|32:337|61:205,1,161.999995056153,2|8,0:0|0:0,0:0:0:0:
117,160,76911,1,0,0:0:0:0:
38,92,77073,6,0,B|97:74|97:74|102:67|102:67|176:49,1,121.499996292114,2|0,3:2|0:0,0:0:0:0:
188,31,77397,1,10,0:0:0:0:
257,87,77560,2,0,L|240:188,1,80.9999975280763,2|0,0:0|0:0,0:0:0:0:
183,232,77884,1,2,3:2:0:0:
183,232,77965,1,2,0:0:0:0:
183,232,78046,2,0,L|197:299,3,40.4999987640381,10|2|2|2,1:2|0:0|0:0|0:0,0:0:0:0:
220,294,78370,5,6,3:2:0:0:
352,212,78695,1,8,0:1:0:0:
490,281,79019,2,0,L|470:399,2,101.25,8|0|8,0:1|0:0|0:1,0:0:0:0:
431,229,79668,5,10,0:1:0:0:
299,311,79993,1,8,0:1:0:0:
161,242,80317,2,0,L|181:124,2,101.25,8|0|8,0:1|0:0|0:1,0:0:0:0:
220,294,80965,5,10,0:1:0:0:
352,212,81290,1,8,0:1:0:0:
490,281,81614,2,0,L|470:399,2,101.25,8|0|8,0:1|0:0|0:1,0:0:0:0:
431,229,82262,5,8,0:1:0:0:
431,229,82587,1,10,0:1:0:0:
278,201,82911,1,10,0:1:0:0:
125,173,83235,2,0,L|42:156,1,67.5,10|0,0:1|0:0,0:0:0:0:
4,103,83560,5,10,0:1:0:0:
136,23,83884,1,8,0:1:0:0:
218,154,84208,2,0,L|194:259,2,101.25,8|0|8,0:1|0:0|0:1,0:0:0:0:
145,124,84857,5,10,0:1:0:0:
277,44,85181,1,8,0:1:0:0:
359,175,85505,2,0,L|335:280,2,101.25,8|0|8,0:1|0:0|0:1,0:0:0:0:
286,145,86155,5,10,0:1:0:0:
418,65,86479,1,8,0:1:0:0:
500,196,86803,2,0,L|476:301,2,101.25,8|0|8,0:1|0:0|0:1,0:0:0:0:
512,103,87776,5,2,0:0:0:0:
512,103,88100,1,2,0:0:0:0:
512,103,88424,1,2,0:0:0:0:
