osu file format v14

[General]
AudioFilename: audio.mp3
AudioLeadIn: 0
PreviewTime: 56884
Countdown: 0
SampleSet: Soft
StackLeniency: 0.8
Mode: 0
LetterboxInBreaks: 0
WidescreenStoryboard: 1

[Editor]
Bookmarks: 67992
DistanceSpacing: 0.4
BeatDivisor: 4
GridSize: 8
TimelineZoom: 1.8

[Metadata]
Title:Dark seeks light (TV Size)
TitleUnicode:Dark seeks light (TV Size)
Artist:Ninomiya Yui
ArtistUnicode:ニノミヤユイ
Creator:Mocaotic
Version:Expert
Source:世界最高の暗殺者、異世界貴族に転生する
Tags:Kotoha Ayucchi Fsjallink chaser01 japanese pop jpop j-pop anime isekai The world's best assassin, To reincarnate in a different world aristocrat The World's Finest Assassin Gets Reincarnated in Another World as an Aristocrat Ansatsu Kizoku op anime opening short version
BeatmapID:3529412
BeatmapSetID:1727027

[Difficulty]
HPDrainRate:6
CircleSize:4.3
OverallDifficulty:8.5
ApproachRate:9.3
SliderMultiplier:1.9
SliderTickRate:1

[Events]
//Background and Video events
0,0,"bg.jpg",0,0
//Break Periods
2,26678,32462
//Storyboard Layer 0 (Background)
//Storyboard Layer 1 (Fail)
//Storyboard Layer 2 (Pass)
//Storyboard Layer 3 (Foreground)
//Storyboard Layer 4 (Overlay)
//Storyboard Sound Samples

[TimingPoints]
533,324.324324324324,4,2,2,35,1,0
533,-166.666666666667,4,2,2,35,0,0
5397,-62.5,4,2,2,65,0,0
5641,-100,4,2,2,5,0,0
5722,-55.5555555555556,4,2,2,55,0,0
6046,-71.4285714285714,4,2,2,55,0,0
6776,-71.4285714285714,4,2,2,5,0,0
7019,-71.4285714285714,4,2,2,55,0,0
7668,-62.5,4,2,2,55,0,0
8478,-55.5555555555556,4,2,2,55,0,0
8803,-71.4285714285714,4,2,2,55,0,0
9614,-55.5555555555556,4,2,2,55,0,0
11235,-71.4285714285714,4,2,2,55,0,0
11560,-55.5555555555556,4,2,2,55,0,0
11884,-71.4285714285714,4,2,2,55,0,0
11965,-71.4285714285714,4,2,2,5,0,0
12208,-71.4285714285714,4,2,2,55,0,0
12857,-55.5555555555556,4,2,2,55,0,0
13992,-71.4285714285714,4,2,2,55,0,0
14478,-83.3333333333333,4,2,2,55,0,0
14803,-50,4,2,2,55,0,0
14965,-50,4,2,2,5,0,0
15046,-50,4,2,2,55,0,0
15208,-50,4,2,2,5,0,0
15289,-50,4,2,2,55,0,0
15614,-50,4,2,2,5,0,0
15695,-50,4,2,2,55,0,0
15857,-50,4,2,2,5,0,0
15938,-50,4,2,2,55,0,0
16100,-55.5555555555556,4,2,2,55,0,0
16424,-71.4285714285714,4,2,2,55,0,0
17154,-71.4285714285714,4,2,2,5,0,0
17397,-71.4285714285714,4,2,2,55,0,0
18857,-50,4,2,2,55,0,0
19181,-71.4285714285714,4,2,2,55,0,0
19668,-66.6666666666667,4,2,2,55,0,0
19992,-55.5555555555556,4,2,2,55,0,0
21614,-71.4285714285714,4,2,2,55,0,0
22343,-71.4285714285714,4,2,2,5,0,0
22587,-71.4285714285714,4,2,2,55,0,0
24046,-55.5555555555556,4,2,2,55,0,0
24370,-71.4285714285714,4,2,2,55,0,0
24532,-62.5,4,2,2,55,0,0
24776,-62.5,4,2,2,5,0,0
24857,-55.5555555555556,4,2,2,55,0,0
25100,-55.5555555555556,4,2,2,5,0,0
25181,-55.5555555555556,4,2,2,55,0,0
25424,-55.5555555555556,4,2,2,5,0,0
25505,-55.5555555555556,4,2,2,55,0,0
25668,-62.5,4,2,2,55,0,0
35560,-166.666666666667,4,2,2,55,0,0
35803,-166.666666666667,4,2,2,5,0,0
35884,-166.666666666667,4,2,2,55,0,0
36127,-166.666666666667,4,2,2,5,0,0
36208,-166.666666666667,4,2,2,55,0,0
36451,-166.666666666667,4,2,2,5,0,0
36532,-83.3333333333334,4,2,2,55,0,0
36857,-55.5555555555556,4,2,2,65,0,0
37181,-71.4285714285714,4,2,2,65,0,0
38803,-62.5,4,2,2,65,0,0
39614,-55.5555555555556,4,2,2,65,0,0
40424,-71.4285714285714,4,2,2,65,0,0
41560,-100,4,2,2,65,0,0
42046,-50,4,2,2,65,0,0
42370,-71.4285714285714,4,2,2,65,0,0
43992,-62.5,4,2,2,65,0,0
44803,-55.5555555555556,4,2,2,65,0,0
45127,-71.4285714285714,4,2,2,65,0,0
46587,-500,4,2,2,65,0,0
47154,-500,4,2,2,5,0,0
47235,-55.5555555555556,4,2,2,65,0,0
47722,-71.4285714285714,4,2,2,65,0,0
49992,-55.5555555555556,4,2,2,65,0,0
51127,-62.5,4,2,2,65,0,0
52424,-55.5555555555556,4,2,2,65,0,0
52749,-71.4285714285714,4,2,2,65,0,0
55019,-55.5555555555556,4,2,2,65,0,0
55505,-55.5555555555556,4,2,2,5,0,0
55668,-55.5555555555556,4,2,2,65,0,0
55830,-55.5555555555556,4,2,2,5,0,0
55992,-55.5555555555556,4,2,2,65,0,0
56316,-250,4,2,2,65,0,0
57289,-250,4,2,2,82,0,0
57614,-55.5555555555556,4,2,2,78,0,1
59032,-55.5555555555556,4,2,2,5,0,1
59073,-55.5555555555556,4,2,2,78,0,1
59195,-55.5555555555556,4,2,2,5,0,1
59235,-55.5555555555556,4,2,2,78,0,1
59357,-55.5555555555556,4,2,2,5,0,1
59397,-55.5555555555556,4,2,2,78,0,1
65560,-45.4545454545455,4,2,2,78,0,1
66046,-71.4285714285714,4,2,2,78,0,1
66695,-55.5555555555556,4,2,2,78,0,1
69411,-55.5555555555556,4,2,2,5,0,1
69451,-55.5555555555556,4,2,2,78,0,1
69573,-55.5555555555556,4,2,2,5,0,1
69614,-55.5555555555556,4,2,2,78,0,1
69735,-55.5555555555556,4,2,2,5,0,1
69776,-55.5555555555556,4,2,2,78,0,1
77073,-50,4,2,2,78,0,1
77154,-50,4,2,2,5,0,1
77235,-50,4,2,2,78,0,1
77478,-50,4,2,2,5,0,1
77560,-50,4,2,2,78,0,1
77641,-50,4,2,2,5,0,1
77722,-50,4,2,2,78,0,1
78370,-100,4,2,2,45,0,0
82587,-100,4,2,2,45,0,0
82668,-100,4,2,2,5,0,0
82911,-100,4,2,2,45,0,0
82992,-100,4,2,2,5,0,0
83235,-100,4,2,2,45,0,0
83316,-100,4,2,2,5,0,0
83397,-100,4,2,2,45,0,0
87776,-500,4,2,2,15,0,0

[Colours]
Combo1 : 172,151,255
Combo2 : 253,253,150
Combo3 : 197,227,252
Combo4 : 255,113,116

[HitObjects]
455,133,533,5,10,0:1:0:0:
394,95,857,5,8,0:1:0:0:
326,151,1181,5,8,0:1:0:0:
260,108,1424,1,0,0:0:0:0:
257,118,1505,1,8,0:1:0:0:
218,179,1668,1,8,0:1:0:0:
49,93,1830,5,10,0:1:0:0:
110,55,2154,5,8,0:1:0:0:
178,111,2478,5,8,0:1:0:0:
244,68,2721,1,0,0:0:0:0:
247,78,2802,1,8,0:1:0:0:
286,139,2965,1,8,0:1:0:0:
455,53,3127,5,10,0:1:0:0:
394,15,3451,5,8,0:1:0:0:
326,71,3775,5,8,0:1:0:0:
260,28,4019,1,0,0:0:0:0:
257,38,4099,1,8,0:1:0:0:
218,99,4262,1,8,0:1:0:0:
211,109,5397,6,0,B|136:121|99:43|125:-15|197:-14|207:41,1,228,2|0,0:1|0:0,0:0:0:0:
211,41,5722,6,0,P|174:153|160:300,1,256.499992172241,4|0,3:2|0:0,0:0:0:0:
58,314,6046,2,0,B|45:296|45:296|114:319,1,66.4999979705811,2|0,0:0|0:0,0:0:0:0:
141,365,6208,1,2,0:0:0:0:
332,206,6370,6,0,L|123:253,1,199.499993911743,10|2,0:0|0:0,0:0:0:0:
75,200,6695,2,0,B|107:186|107:186|168:230,1,66.4999979705811,0|0,3:0|0:0,0:0:0:0:
393,293,7019,6,0,B|295:328|295:328|211:263,1,199.499993911743,2|0,1:2|0:0,0:0:0:0:
158,329,7343,2,0,P|191:316|230:309,1,66.4999979705811,2|0,3:2|0:0,0:0:0:0:
309,240,7505,5,10,0:0:0:0:
309,240,7668,2,0,B|368:167|291:38|200:152|267:197,1,228,2|0,0:0|0:0,0:0:0:0:
232,268,7992,5,2,0:0:0:0:
249,293,8073,1,2,0:0:0:0:
279,312,8154,1,2,0:0:0:0:
318,320,8235,1,2,0:0:0:0:
362,304,8316,1,2,0:0:0:0:
511,260,8478,6,0,B|439:249|439:249|350:269|416:350|293:363,1,256.499992172241,4|0,3:2|0:0,0:0:0:0:
301,253,8803,2,0,B|319:240|319:240|296:309,1,66.4999979705811,10|0,0:0|0:0,0:0:0:0:
239,321,8965,1,2,0:0:0:0:
482,347,9208,5,2,0:0:0:0:
488,355,9289,2,0,B|445:375|445:375|502:188,1,199.499993911743,0|0,3:0|0:0,0:0:0:0:
408,114,9614,6,0,P|413:188|495:178,1,170.999994781494,2|0,1:2|0:0,0:0:0:0:
511,76,9857,1,2,0:0:0:0:
504,70,9938,2,0,B|477:78|485:101|485:101|512:95|504:67,1,85.4999973907472,0|0,3:0|0:0,0:0:0:0:
450,6,10100,1,10,0:0:0:0:
318,86,10262,5,2,1:2:0:0:
324,96,10424,5,0,1:2:0:0:
334,90,10587,5,0,1:2:0:0:
328,79,10749,5,0,1:2:0:0:
432,184,10911,6,0,P|318:128|177:114,1,256.499992172241,4|0,3:2|0:0,0:0:0:0:
123,77,11235,2,0,B|87:50|84:-4|179:-27|231:30|211:127,1,199.499993911743,2|0,0:0|0:0,0:0:0:0:
348,125,11560,6,0,B|270:94|231:165|252:180|213:259|122:222,1,256.499992172241,10|2,0:0|0:0,0:0:0:0:
82,175,11884,2,0,B|89:164|87:141|87:141|103:164|123:168,1,66.4999979705811,0|0,3:0|0:0,0:0:0:0:
305,292,12208,6,0,B|254:313|231:359|231:359|238:315|203:251,1,199.499993911743,2|0,1:2|0:0,0:0:0:0:
275,219,12532,2,0,P|287:200|278:220,1,66.4999979705811,2|0,3:2|0:0,0:0:0:0:
315,376,12695,5,10,0:0:0:0:
315,376,12857,2,0,B|258:282|147:289|147:289|170:312|163:369,1,256.499992172241,2|0,0:0|0:0,0:0:0:0:
91,338,13181,5,2,3:2:0:0:
62,346,13262,1,2,0:0:0:0:
27,336,13343,1,2,0:0:0:0:
1,299,13424,1,2,0:0:0:0:
10,256,13505,1,2,0:0:0:0:
141,176,13668,6,0,P|101:270|91:374,1,170.999994781494,4|2,3:2|0:0,0:0:0:0:
10,256,13911,1,2,0:0:0:0:
4,245,13992,2,0,P|67:224|111:279,1,132.999995941162,8|2,0:0|0:0,0:0:0:0:
216,24,14397,5,2,0:0:0:0:
223,32,14478,2,0,B|174:18|140:54|156:79|126:118|50:92,1,170.999994781494,2|0,3:2|0:0,0:0:0:0:
72,178,14803,6,0,B|118:236|170:166|146:121|75:97,1,190,2|0,1:2|0:0,0:0:0:0:
85,19,15046,2,0,B|36:-35|-16:34|9:74|80:98,1,190,2|0,0:0|0:0,0:0:0:0:
151,51,15289,5,2,1:2:0:0:
0,90,15451,6,0,B|-54:139|15:191|55:166|79:95,1,190,2|0,1:2|0:0,0:0:0:0:
158,103,15695,2,0,B|216:57|146:5|101:29|77:100,1,190,2|0,0:0|0:0,0:0:0:0:
128,174,15938,5,2,1:2:0:0:
28,18,16100,6,0,P|154:77|295:64,1,256.499992172241,4|0,3:2|0:0,0:0:0:0:
345,12,16424,2,0,B|328:-5|328:-5|346:65,1,66.4999979705811,2|0,0:0|0:0,0:0:0:0:
331,109,16587,1,2,0:0:0:0:
430,299,16749,6,0,L|472:94,1,199.499993911743,10|2,0:0|0:0,0:0:0:0:
416,50,17073,2,0,B|404:81|404:81|432:112,1,66.4999979705811,0|0,3:0|0:0,0:0:0:0:
512,306,17397,6,0,B|536:244|536:244|488:181,1,132.999995941162,2|0,1:2|0:0,0:0:0:0:
500,115,17641,1,2,0:0:0:0:
510,109,17722,1,2,3:2:0:0:
447,255,17884,5,10,0:0:0:0:
447,255,18046,2,0,P|373:221|232:221,1,199.499993911743,2|0,0:0|0:0,0:0:0:0:
195,263,18370,5,2,3:2:0:0:
211,281,18451,1,2,0:0:0:0:
239,291,18532,1,2,0:0:0:0:
282,288,18614,1,2,0:0:0:0:
322,259,18695,1,2,0:0:0:0:
483,165,18857,6,0,B|492:148|504:134|504:134|348:183|348:183|417:219|396:303,1,285,4|0,3:2|0:0,0:0:0:0:
457,334,19181,2,0,B|442:345|442:345|457:299,1,66.4999979705811,8|0,0:0|0:0,0:0:0:0:
512,242,19343,1,2,0:0:0:0:
244,153,19587,5,2,0:0:0:0:
252,143,19668,2,0,B|281:99|281:99|336:293,1,213.750008153916,0|0,3:0|0:0,0:0:0:0:
412,354,19992,6,0,P|352:273|274:329,1,170.999994781494,2|0,1:2|0:0,0:0:0:0:
169,344,20235,1,2,0:0:0:0:
163,335,20316,2,0,B|148:313|148:313|219:329,1,85.4999973907472,0|0,3:0|0:0,0:0:0:0:
273,364,20478,1,2,0:0:0:0:
141,224,20641,5,2,1:2:0:0:
132,232,20804,5,0,1:0:0:0:
142,240,20966,5,0,1:0:0:0:
149,231,21127,5,0,1:0:0:0:
0,322,21289,6,0,P|108:272|246:259,1,256.499992172241,4|0,3:2|0:0,0:0:0:0:
329,189,21614,2,0,B|319:169|319:169|306:225,1,66.4999979705811,2|0,0:0|0:0,0:0:0:0:
319,290,21776,1,2,0:0:0:0:
240,165,21938,6,0,B|370:202|370:202|380:238|420:252,1,199.499993911743,10|0,0:0|0:0,0:0:0:0:
476,179,22262,2,0,B|480:172|490:166|490:166|428:183,1,66.4999979705811,2|0,3:2|0:0,0:0:0:0:
255,311,22587,6,0,B|240:337|213:349|213:349|378:308,1,199.499993911743,2|0,1:2|0:0,0:0:0:0:
415,364,22911,2,0,L|326:349,1,66.4999979705811,0|0,3:0|0:0,0:0:0:0:
180,272,23073,5,10,0:0:0:0:
180,272,23235,2,0,P|166:191|237:237,1,199.499993911743,2|0,0:0|0:0,0:0:0:0:
310,262,23560,5,2,3:2:0:0:
340,275,23641,1,2,0:0:0:0:
378,272,23722,1,2,0:0:0:0:
412,249,23803,1,2,0:0:0:0:
426,204,23884,1,2,0:0:0:0:
503,366,24046,6,0,B|453:352|453:352|392:208|392:208|325:191,1,256.499992172241,4|0,3:2|0:0,0:0:0:0:
314,265,24370,2,0,B|298:283|298:283|364:263,1,66.4999979705811,2|0,0:0|0:0,0:0:0:0:
467,108,24532,6,0,B|527:114|528:175|497:196|456:217|412:152|412:152|422:178|415:202,1,228,10|0,0:0|0:0,0:0:0:0:
275,161,24857,6,0,B|338:151|366:82|366:82|351:162|410:219,1,256.499992172241,2|0,3:2|0:0,0:0:0:0:
202,95,25181,6,0,B|151:114|108:65|135:-4|220:-9|278:71,1,256.499992172241,2|0,1:2|0:0,0:0:0:0:
278,71,25505,1,0,3:0:0:0:
67,163,25668,5,2,1:2:0:0:
59,167,25749,1,2,0:0:0:0:
52,171,25830,2,0,P|23:146|28:79,1,76,2|0,1:2|0:0,0:0:0:0:
95,68,25992,2,0,P|124:93|119:160,1,76,2|0,0:0|0:0,0:0:0:0:
266,305,26154,6,0,P|295:280|290:213,1,76,2|0,3:2|0:0,0:0:0:0:
223,202,26316,2,0,P|194:227|199:294,1,76,2|0,1:2|0:0,0:0:0:0:
197,338,26478,1,2,0:0:0:0:
256,192,34262,12,0,35397,0:0:0:0:
26,255,35560,6,0,B|16:271|-4:284|-4:284|19:278|50:288,1,85.4999973907472,4|0,3:3|0:0,0:0:0:0:
112,209,35884,2,0,B|102:192|101:168|101:168|94:191|70:213,1,85.4999973907472,4|0,3:3|0:0,0:0:0:0:
108,305,36208,2,0,B|127:305|148:315|148:315|131:298|125:266,1,85.4999973907472,4|0,3:3|0:0,0:0:0:0:
104,384,36532,6,0,P|89:383|76:378,2,28.4999991302491,4|4|4,3:3|3:3|3:3,0:0:0:0:
206,260,36695,2,0,P|220:260|233:265,2,28.4999991302491,4|4|4,3:3|3:3|3:3,0:0:0:0:
203,384,36857,6,0,P|138:304|115:142,1,256.499992172241,4|0,3:2|0:0,0:0:0:0:
37,11,37181,5,2,0:0:0:0:
0,71,37289,5,2,0:0:0:0:
61,106,37397,5,2,0:0:0:0:
131,54,37505,6,0,P|231:64|332:83,1,199.499993911743,10|0,0:0|0:0,0:0:0:0:
390,32,37830,2,0,B|373:26|361:13|361:13|360:35|339:53,1,66.4999979705811,2|0,3:2|0:0,0:0:0:0:
189,137,37992,5,2,0:0:0:0:
189,137,38154,2,0,B|236:151|257:204|257:204|255:146|310:89,1,199.499993911743,2|0,1:2|0:0,0:0:0:0:
226,66,38478,2,0,B|238:50|220:36|220:36|208:57|233:72,1,66.4999979705811,2|0,3:2|0:0,0:0:0:0:
346,190,38641,5,10,0:0:0:0:
346,190,38803,2,0,B|391:255|512:260|485:135|419:154,1,228,2|0,3:2|0:0,0:0:0:0:
352,111,39127,5,2,3:2:0:0:
334,85,39208,1,2,0:0:0:0:
336,46,39289,1,2,0:0:0:0:
363,11,39370,1,2,0:0:0:0:
415,0,39451,1,2,0:0:0:0:
512,102,39614,6,0,P|453:214|443:356,1,256.499992172241,4|0,3:2|0:0,0:0:0:0:
324,339,39938,2,0,B|296:308|343:299|362:314|372:359,1,85.4999973907472,10|0,0:0|0:0,0:0:0:0:
447,352,40100,1,2,0:0:0:0:
512,207,40262,5,2,0:0:0:0:
512,207,40424,2,0,B|366:237|366:237|394:216|398:177,1,199.499993911743,2|0,3:2|0:0,0:0:0:0:
298,146,40749,6,0,B|319:151|317:169|317:169|297:167|295:134,1,66.4999979705811,2|0,1:2|0:0,0:0:0:0:
242,91,40911,1,2,0:0:0:0:
218,164,41073,6,0,B|201:178|209:193|209:193|228:181|213:146,1,66.4999979705811,2|0,3:2|0:0,0:0:0:0:
245,82,41235,1,2,0:0:0:0:
162,99,41397,6,0,B|144:89|132:108|132:108|147:116|160:101,1,66.4999979705811,2|0,1:2|0:0,0:0:0:0:
254,75,41560,2,0,P|302:55|357:43,2,95,0|0|0,1:0|1:0|1:0,0:0:0:0:
424,100,42046,6,0,B|348:139|292:68|326:39|270:-29|172:28,1,285,4|2,3:2|0:0,0:0:0:0:
111,43,42370,2,0,B|83:81|126:138|180:111|183:86,1,132.999995941162,2|0,0:0|0:0,0:0:0:0:
282,336,42695,6,0,B|309:297|266:240|212:267|209:292,1,132.999995941162,10|0,0:0|0:0,0:0:0:0:
155,331,42938,1,2,0:0:0:0:
158,341,43019,2,0,B|182:364|182:364|224:357,1,66.4999979705811,0|0,3:0|0:0,0:0:0:0:
333,151,43181,5,2,0:0:0:0:
333,151,43343,2,0,B|264:141|264:141|202:204,1,132.999995941162,2|0,1:2|0:0,0:0:0:0:
278,250,43587,1,2,0:0:0:0:
287,254,43668,2,0,B|306:269|306:269|295:228,1,66.4999979705811,0|0,3:0|0:0,0:0:0:0:
71,208,43830,5,10,0:0:0:0:
71,208,43992,2,0,B|45:159|10:179|-9:174|-9:174|-4:212|-12:270|76:288,1,228,2|0,0:0|0:0,0:0:0:0:
128,261,44316,5,2,3:2:0:0:
152,238,44397,1,2,0:0:0:0:
186,221,44478,1,2,0:0:0:0:
232,218,44560,1,2,0:0:0:0:
280,233,44640,1,2,0:0:0:0:
123,366,44803,6,0,B|187:298|182:185|134:96,1,256.499992172241,4|0,3:2|0:0,0:0:0:0:
200,59,45127,2,0,B|215:46|233:54|233:54|213:72|206:101,1,66.4999979705811,10|0,0:0|0:0,0:0:0:0:
189,153,45289,1,2,0:0:0:0:
6,106,45451,5,2,0:0:0:0:
6,106,45614,2,0,P|79:88|76:19,1,132.999995941162,2|2,3:2|0:0,0:0:0:0:
2,0,45857,1,2,0:0:0:0:
6,14,45938,1,2,1:2:0:0:
6,14,46587,6,0,B|36:24|36:24|43:33|43:33|65:40,1,66.5,2|0,0:1|0:0,0:0:0:0:
205,66,47235,6,0,B|134:87|134:87|118:107|118:107|42:131,2,170.999994781494,4|2|0,3:2|0:0|0:0,0:0:0:0:
404,252,47722,6,0,P|444:247|461:213,1,66.4999979705811,2|0,0:0|0:0,0:0:0:0:
509,117,47884,6,0,P|437:125|406:201,1,132.999995941162,10|0,0:0|0:0,0:0:0:0:
307,154,48127,1,2,0:0:0:0:
314,159,48208,2,0,B|335:171|335:171|325:120,1,66.4999979705811,0|0,3:0|0:0,0:0:0:0:
396,63,48370,5,2,0:0:0:0:
396,63,48532,2,0,L|422:221,1,132.999995941162,2|0,1:2|0:0,0:0:0:0:
387,264,48776,1,2,0:0:0:0:
380,272,48857,2,0,P|345:245|367:207,1,66.4999979705811,0|0,3:0|0:0,0:0:0:0:
424,202,49019,1,8,0:0:0:0:
512,384,49181,5,2,0:0:0:0:
450,347,49289,2,0,B|412:357|412:357|405:367|405:367|347:381,1,88.6666639607748,2|2,0:0|0:0,0:0:0:0:
208,275,49505,5,2,3:2:0:0:
276,256,49614,5,2,0:0:0:0:
321,313,49722,5,2,0:0:0:0:
250,334,49830,5,2,0:0:0:0:
360,242,49992,6,0,P|237:291|128:358,1,256.499992172241,4|0,3:2|0:0,0:0:0:0:
59,334,50316,1,8,0:0:0:0:
223,145,50478,5,2,0:0:0:0:
155,126,50587,5,2,0:0:0:0:
110,183,50695,5,2,0:0:0:0:
181,200,50803,5,2,3:2:0:0:
182,190,50884,1,2,0:0:0:0:
184,181,50965,1,2,0:0:0:0:
187,171,51046,1,2,0:0:0:0:
189,162,51127,6,0,P|180:234|270:224,1,152,2|0,1:2|0:0,0:0:0:0:
298,197,51370,1,2,0:0:0:0:
292,188,51451,2,0,B|302:166|281:157|281:157|272:176|293:189,1,76,0|0,3:0|0:0,0:0:0:0:
453,248,51614,5,2,0:0:0:0:
453,248,51776,2,0,P|462:320|372:310,1,152,2|0,1:2|1:0,0:0:0:0:
344,283,52019,1,2,0:0:0:0:
349,274,52100,2,0,B|339:251|360:242|360:242|369:261|348:274,1,76,0|0,1:0|0:0,0:0:0:0:
288,329,52262,5,2,1:2:0:0:
288,329,52424,2,0,P|382:202|383:105,1,256.499992172241,4|0,3:2|0:0,0:0:0:0:
436,48,52749,2,0,B|472:62|504:51|504:51|469:69|449:128,1,132.999995941162,2|0,0:0|0:0,0:0:0:0:
290,272,53073,6,0,B|274:232|215:211|215:211|271:213|315:166,1,199.499993911743,8|0,0:0|0:0,0:0:0:0:
367,228,53397,2,0,B|376:236|391:247|391:247|350:236,1,66.4999979705811,2|0,3:2|0:0,0:0:0:0:
227,120,53560,5,2,0:0:0:0:
227,120,53722,2,0,P|246:225|259:352,1,199.499993911743,0|0,1:0|0:0,0:0:0:0:
195,366,54046,2,0,P|163:346|133:343,2,66.4999979705811,0|0|8,3:0|3:0|0:0,0:0:0:0:
291,258,54370,5,0,0:0:0:0:
291,258,54532,2,0,P|330:232|366:227,1,66.4999979705811,2|0,0:0|0:0,0:0:0:0:
421,173,54695,1,2,3:2:0:0:
465,154,54776,1,2,0:0:0:0:
485,109,54857,1,2,0:0:0:0:
470,63,54938,1,2,0:0:0:0:
428,38,55019,6,0,P|466:159|487:298,1,256.499992172241,4|0,3:2|0:0,0:0:0:0:
352,356,55343,1,10,0:0:0:0:
360,348,55424,2,0,B|382:348|401:364|401:364|408:336|479:296,1,85.4999973907472,8|0,0:0|0:0,0:0:0:0:
192,180,55668,5,10,0:0:0:0:
201,187,55749,2,0,B|225:184|241:169|241:169|247:199|318:238,1,85.4999973907472,8|0,0:0|0:0,0:0:0:0:
19,348,55992,5,10,0:0:0:0:
27,340,56073,2,0,B|49:340|68:356|68:356|75:328|146:288,1,85.4999973907472,8|0,0:0|0:0,0:0:0:0:
159,359,56235,5,2,0:0:0:0:
153,370,56316,2,0,P|135:289|115:222,1,152,2|2,0:1|0:1,0:0:0:0:
485,14,57289,5,4,0:1:0:0:
485,14,57614,6,0,P|475:55|470:98,1,85.4999973907472,4|0,3:2|0:0,0:0:0:0:
391,83,57776,2,0,P|396:41|408:0,1,85.4999973907472,2|0,0:0|0:0,0:0:0:0:
503,198,57938,6,0,P|420:168|323:166,2,170.999994781494,10|0|2,0:0|0:0|0:0,0:0:0:0:
328,288,58424,5,2,3:2:0:0:
322,294,58505,1,2,0:0:0:0:
314,297,58587,2,0,P|278:237|296:207,1,85.4999973907472,10|0,0:0|0:0,0:0:0:0:
420,257,58749,2,0,P|405:307|399:375,1,85.4999973907472,2|0,0:0|0:0,0:0:0:0:
175,381,58911,6,0,P|165:315|139:245,1,128.249996086121,2|0,3:2|0:0,0:0:0:0:
150,251,59073,2,0,P|212:275|285:287,1,128.249996086121,2|0,0:0|0:0,0:0:0:0:
276,295,59235,2,0,P|223:336|176:394,1,128.249996086121,10|0,0:0|0:0,0:0:0:0:
175,381,59397,1,2,0:0:0:0:
29,181,59560,5,0,0:0:0:0:
29,181,59722,2,0,B|76:171|98:131|98:131|93:179|140:214,2,170.999994781494,2|10|2,3:2|0:0|0:0,0:0:0:0:
205,109,60208,5,2,0:0:0:0:
161,273,60370,2,0,P|167:230|178:189,1,85.4999973907472,4|0,3:2|0:0,0:0:0:0:
75,42,60532,2,0,P|64:131|33:235,1,170.999994781494,10|2,0:0|0:0,0:0:0:0:
8,340,60776,5,2,0:0:0:0:
0,333,60857,2,0,P|60:288|94:334,1,85.4999973907472,2|0,0:0|0:0,0:0:0:0:
193,252,61019,2,0,P|124:222|146:169,1,85.4999973907472,2|0,3:2|0:0,0:0:0:0:
75,152,61181,1,10,0:0:0:0:
198,353,61343,6,0,P|218:234|246:153,2,170.999994781494,2|0|2,0:0|3:0|0:0,0:0:0:0:
86,161,61830,2,0,P|125:132|177:146,1,85.4999973907472,10|0,0:0|0:0,0:0:0:0:
320,207,61992,6,0,P|296:289|284:373,2,170.999994781494,2|0|2,0:0|0:0|3:2,0:0:0:0:
498,37,62478,1,10,0:0:0:0:
241,85,62641,5,2,0:0:0:0:
235,96,62722,1,2,0:0:0:0:
239,107,62803,2,0,P|310:110|405:166,1,170.999994781494,4|2,3:2|0:0,0:0:0:0:
456,80,63046,1,2,0:0:0:0:
448,71,63127,2,0,P|406:73|384:113,1,85.4999973907472,10|0,0:0|0:0,0:0:0:0:
476,306,63289,6,0,P|488:221|512:139,2,170.999994781494,2|0|2,0:0|0:0|3:2,0:0:0:0:
314,145,63776,1,10,0:0:0:0:
193,299,63938,5,2,0:0:0:0:
189,290,64019,1,2,0:0:0:0:
188,280,64100,2,0,P|241:222|336:271,1,170.999994781494,0|2,3:0|0:0,0:0:0:0:
336,325,64343,1,2,0:0:0:0:
328,332,64424,2,0,P|282:329|263:286,1,85.4999973907472,10|0,0:0|0:0,0:0:0:0:
436,120,64587,6,0,P|412:202|400:286,2,170.999994781494,2|0|2,0:0|0:0|3:2,0:0:0:0:
252,264,65073,1,10,0:0:0:0:
359,103,65235,5,2,0:0:0:0:
342,153,65316,1,2,0:0:0:0:
333,205,65397,1,2,0:0:0:0:
127,367,65560,6,0,B|30:376|1:283|79:241|113:296,2,209.000006378174,4|10|0,3:2|0:0|0:0,0:0:0:0:
207,207,66046,5,2,0:0:0:0:
207,207,66208,2,0,P|192:249|187:289,1,66.4999979705811,2|0,3:2|0:0,0:0:0:0:
98,107,66370,5,10,0:0:0:0:
98,107,66532,2,0,P|113:150|120:192,1,66.4999979705811,2|0,0:0|0:0,0:0:0:0:
326,107,66695,6,0,P|253:48|176:79,1,170.999994781494,0|2,3:0|0:0,0:0:0:0:
112,95,66938,1,2,0:0:0:0:
104,102,67019,2,0,P|70:80|70:33,1,85.4999973907472,10|0,0:0|0:0,0:0:0:0:
141,5,67181,2,0,P|175:27|175:74,1,85.4999973907472,2|0,0:0|0:0,0:0:0:0:
48,176,67343,5,2,0:0:0:0:
56,166,67424,1,2,0:0:0:0:
65,178,67505,1,2,3:2:0:0:
53,183,67587,1,2,0:0:0:0:
0,222,67668,5,10,0:2:0:0:
47,204,67749,1,2,0:0:0:0:
96,190,67830,1,2,0:0:0:0:
146,179,67911,1,2,0:0:0:0:
209,217,67992,6,0,P|195:257|190:299,1,85.4999973907472,4|0,3:2|0:0,0:0:0:0:
117,281,68154,2,0,P|121:238|135:197,1,85.4999973907472,2|0,0:0|0:0,0:0:0:0:
11,38,68316,6,0,P|24:78|29:120,1,85.4999973907472,10|0,0:0|0:0,0:0:0:0:
103,102,68478,2,0,P|98:59|84:18,1,85.4999973907472,2|0,0:0|0:0,0:0:0:0:
0,209,68641,6,0,P|85:182|204:169,2,170.999994781494,2|0|10,0:0|3:0|0:0,0:0:0:0:
197,48,69127,2,0,P|230:92|218:130,1,85.4999973907472,2|0,0:0|0:0,0:0:0:0:
112,279,69289,6,0,P|125:206|154:144,1,128.249996086121,2|0,3:2|0:0,0:0:0:0:
138,150,69451,2,0,P|68:174|0:181,1,128.249996086121,2|0,0:0|0:0,0:0:0:0:
13,191,69614,2,0,P|68:239|108:294,1,128.249996086121,10|0,0:0|0:0,0:0:0:0:
95,290,69776,1,2,0:0:0:0:
316,82,69938,5,0,0:0:0:0:
316,82,70100,2,0,B|271:96|253:138|253:138|254:90|209:56,2,170.999994781494,2|10|2,3:2|0:0|0:0,0:0:0:0:
239,217,70587,5,2,0:0:0:0:
418,191,70749,2,0,P|369:183|316:167,1,85.4999973907472,4|0,3:2|0:0,0:0:0:0:
147,226,70911,2,0,P|232:235|326:266,1,170.999994781494,10|0,0:0|0:0,0:0:0:0:
421,357,71154,5,2,0:0:0:0:
431,361,71235,2,0,P|469:342|472:295,1,85.4999973907472,2|0,0:0|0:0,0:0:0:0:
366,119,71397,2,0,P|393:218|395:293,1,170.999994781494,2|10,3:2|0:0,0:0:0:0:
201,377,71722,5,2,0:0:0:0:
195,368,71803,1,2,0:0:0:0:
198,358,71884,2,0,B|238:310|314:324|314:324|335:361|410:375,1,170.999994781494,0|2,3:0|0:0,0:0:0:0:
386,289,72127,1,2,0:0:0:0:
382,280,72208,1,10,0:0:0:0:
512,144,72370,6,0,B|403:98|369:200|369:200|411:194|442:225,1,256.499992172241,2|0,0:0|0:0,0:0:0:0:
391,296,72695,2,0,B|382:318|366:320|366:320|352:287|398:272,1,85.4999973907472,2|0,3:2|0:0,0:0:0:0:
260,154,72857,6,0,P|283:210|295:253,1,85.4999973907472,10|0,0:0|0:0,0:0:0:0:
364,207,73019,2,0,P|350:166|333:127,1,85.4999973907472,2|0,0:0|0:0,0:0:0:0:
99,51,73181,6,0,P|200:72|288:76,2,170.999994781494,4|0|8,3:2|0:0|0:0,0:0:0:0:
0,169,73668,2,0,P|38:213|84:202,1,85.4999973907472,2|0,0:0|0:0,0:0:0:0:
254,156,73830,6,0,P|168:149|85:130,2,170.999994781494,2|0|8,0:0|3:0|0:0,0:0:0:0:
423,301,74316,5,2,0:0:0:0:
432,291,74397,1,2,0:0:0:0:
430,278,74478,2,0,B|371:237|303:303|333:341|267:399|183:332,1,256.499992172241,0|0,3:0|0:0,0:0:0:0:
143,297,74803,2,0,B|172:265|164:215|164:215|191:265|257:270,1,170.999994781494,10|0,0:0|0:0,0:0:0:0:
202,354,75046,5,2,0:0:0:0:
194,358,75127,2,0,P|142:339|107:338,1,85.4999973907472,2|0,0:0|0:0,0:0:0:0:
0,223,75289,6,0,B|15:228|22:234|22:234|79:206|140:197|140:197|144:183|161:163,1,170.999994781494,2|10,3:2|0:0,0:0:0:0:
23,35,75614,5,2,0:0:0:0:
41,81,75695,1,2,0:0:0:0:
52,130,75776,1,2,0:0:0:0:
291,240,75938,6,0,P|238:274|256:196,2,170.999994781494,4|8|0,3:2|0:0|0:0,0:0:0:0:
105,293,76424,6,0,P|198:295|355:366,1,256.499992172241,2|0,0:0|0:0,0:0:0:0:
461,309,76749,2,0,B|477:290|477:290|405:315,1,85.4999973907472,8|0,0:0|0:0,0:0:0:0:
356,362,76911,1,0,0:0:0:0:
274,156,77073,6,0,B|249:138|263:115|263:115|289:130|272:160,1,95,2|0,3:2|0:0,0:0:0:0:
291,232,77235,1,2,0:0:0:0:
217,209,77397,6,0,B|188:221|175:198|175:198|201:183|219:212,1,95,10|0,0:0|0:0,0:0:0:0:
349,179,77560,2,0,B|352:148|379:148|379:148|379:178|344:179,1,95,2|0,0:0|0:0,0:0:0:0:
291,232,77722,1,2,0:0:0:0:
308,308,77884,6,0,B|333:326|319:349|319:349|293:334|310:304,1,95,2|2,3:2|0:0,0:0:0:0:
338,181,78046,5,10,1:2:0:0:
301,123,78127,5,2,0:0:0:0:
234,137,78208,5,2,0:0:0:0:
228,203,78289,5,2,0:0:0:0:
291,232,78370,5,6,3:2:0:0:
155,176,78695,5,8,0:1:0:0:
76,315,79019,5,8,0:1:0:0:
13,280,79262,1,0,0:0:0:0:
17,270,79343,1,8,0:1:0:0:
50,201,79505,1,8,0:1:0:0:
0,67,79668,5,10,0:1:0:0:
126,131,79993,5,8,0:1:0:0:
215,1,80317,5,8,0:1:0:0:
278,36,80560,1,0,0:0:0:0:
274,46,80641,1,8,0:1:0:0:
241,115,80803,1,8,0:1:0:0:
308,238,80965,5,10,0:1:0:0:
442,194,81290,5,8,0:1:0:0:
413,39,81614,5,8,0:1:0:0:
482,19,81857,1,0,0:0:0:0:
486,29,81938,1,8,0:1:0:0:
512,101,82100,1,8,0:1:0:0:
360,173,82262,5,8,0:1:0:0:
360,173,82587,6,0,B|372:163|365:152|365:152|352:159|361:175,1,47.5,10|0,0:1|0:0,0:0:0:0:
288,191,82911,6,0,B|286:175|272:175|272:175|272:190|290:191,1,47.5,10|0,0:1|0:0,0:0:0:0:
412,227,83235,6,0,B|426:233|432:221|432:221|419:213|410:228,1,47.5,10|0,0:1|0:0,0:0:0:0:
339,245,83397,1,0,0:0:0:0:
446,329,83560,5,10,0:1:0:0:
346,258,83884,5,8,0:1:0:0:
253,368,84208,5,8,0:1:0:0:
185,332,84451,1,0,0:0:0:0:
181,340,84532,1,8,0:1:0:0:
120,384,84695,1,8,0:1:0:0:
0,220,84857,5,10,0:1:0:0:
100,149,85181,5,8,0:1:0:0:
193,259,85505,5,8,0:1:0:0:
261,223,85748,1,0,0:0:0:0:
265,231,85829,1,8,0:1:0:0:
326,275,85992,1,8,0:1:0:0:
446,111,86154,5,10,0:1:0:0:
346,40,86478,5,8,0:1:0:0:
253,150,86802,5,8,0:1:0:0:
185,114,87045,1,0,0:0:0:0:
181,122,87126,1,8,0:1:0:0:
120,166,87289,1,8,0:1:0:0:
120,166,87776,6,0,P|105:152|102:135,2,38,2|2|2,0:0|0:0|0:0,0:0:0:0:
