osu file format v14

[General]
AudioFilename: audio.mp3
AudioLeadIn: 0
PreviewTime: 56884
Countdown: 0
SampleSet: Soft
StackLeniency: 0.7
Mode: 0
LetterboxInBreaks: 0
WidescreenStoryboard: 0

[Editor]
DistanceSpacing: 0.9
BeatDivisor: 4
GridSize: 8
TimelineZoom: 1.9

[Metadata]
Title:Dark seeks light (TV Size)
TitleUnicode:Dark seeks light (TV Size)
Artist:Ninomiya Yui
ArtistUnicode:ニノミヤユイ
Creator:Mocaotic
Version:Ayucchi's Aphorism
Source:世界最高の暗殺者、異世界貴族に転生する
Tags:Kotoha Ayucchi Fsjallink chaser01 japanese pop jpop j-pop anime isekai The world's best assassin, To reincarnate in a different world aristocrat The World's Finest Assassin Gets Reincarnated in Another World as an Aristocrat Ansatsu Kizoku op anime opening short version
BeatmapID:3529411
BeatmapSetID:1727027

[Difficulty]
HPDrainRate:6
CircleSize:4.5
OverallDifficulty:9
ApproachRate:9.5
SliderMultiplier:2
SliderTickRate:1

[Events]
//Background and Video events
0,0,"bg.jpg",0,0
//Break Periods
2,26678,33062
//Storyboard Layer 0 (Background)
//Storyboard Layer 1 (Fail)
//Storyboard Layer 2 (Pass)
//Storyboard Layer 3 (Foreground)
//Storyboard Layer 4 (Overlay)
//Storyboard Sound Samples

[TimingPoints]
533,324.324324324324,4,2,2,35,1,0
4343,-100,4,2,2,5,0,0
5397,-55.5555555555556,4,2,2,65,0,0
5641,-55.5555555555556,4,2,2,5,0,0
5722,-50,4,2,2,55,0,0
6046,-83.3333333333333,4,2,2,55,0,0
6370,-40,4,2,2,55,0,0
6451,-40,4,2,2,5,0,0
6695,-83.3333333333333,4,2,2,55,0,0
7019,-66.6666666666667,4,2,2,55,0,0
7343,-55.5555555555556,4,2,2,55,0,0
7505,-83.3333333333333,4,2,2,55,0,0
8478,-50,4,2,2,55,0,0
8803,-83.3333333333333,4,2,2,55,0,0
9614,-55.5555555555556,4,2,2,55,0,0
10262,-83.3333333333333,4,2,2,55,0,0
10587,-55.5555555555556,4,2,2,55,0,0
10911,-50,4,2,2,55,0,0
11235,-83.3333333333333,4,2,2,55,0,0
11560,-40,4,2,2,55,0,0
11641,-83.3333333333333,4,2,2,5,0,0
11884,-83.3333333333333,4,2,2,55,0,0
12208,-66.6666666666667,4,2,2,55,0,0
12532,-55.5555555555556,4,2,2,55,0,0
12695,-83.3333333333333,4,2,2,55,0,0
13668,-50,4,2,2,55,0,0
13911,-66.6666666666667,4,2,2,55,0,0
14154,-83.3333333333333,4,2,2,55,0,0
14478,-55.5555555555556,4,2,2,55,0,0
14803,-50,4,2,2,55,0,0
15451,-66.6666666666667,4,2,2,55,0,0
16100,-50,4,2,2,55,0,0
16424,-83.3333333333333,4,2,2,55,0,0
16749,-40,4,2,2,55,0,0
16830,-40,4,2,2,5,0,0
17073,-83.3333333333333,4,2,2,55,0,0
17397,-66.6666666666667,4,2,2,55,0,0
17722,-55.5555555555556,4,2,2,55,0,0
17884,-83.3333333333333,4,2,2,55,0,0
18857,-50,4,2,2,55,0,0
19181,-83.3333333333333,4,2,2,55,0,0
19992,-55.5555555555556,4,2,2,55,0,0
20641,-83.3333333333333,4,2,2,55,0,0
20965,-55.5555555555556,4,2,2,55,0,0
21289,-50,4,2,2,55,0,0
21614,-83.3333333333333,4,2,2,55,0,0
21938,-40,4,2,2,55,0,0
22019,-40,4,2,2,5,0,0
22100,-83.3333333333333,4,2,2,55,0,0
22587,-66.6666666666667,4,2,2,55,0,0
22911,-55.5555555555556,4,2,2,55,0,0
23073,-83.3333333333333,4,2,2,55,0,0
24046,-50,4,2,2,55,0,0
24289,-66.6666666666667,4,2,2,55,0,0
24857,-55.5555555555556,4,2,2,55,0,0
25181,-83.3333333333333,4,2,2,55,0,0
25505,-66.6666666666667,4,2,2,55,0,0
26154,-55.5555555555556,4,2,2,55,0,0
35560,-100,4,2,2,55,0,0
35803,-100,4,2,2,5,0,0
35884,-100,4,2,2,55,0,0
36127,-100,4,2,2,5,0,0
36208,-66.6666666666667,4,2,2,55,0,0
36451,-66.6666666666667,4,2,2,5,0,0
36532,-66.6666666666667,4,2,2,55,0,0
36857,-50,4,2,2,65,0,0
37181,-66.6666666666667,4,2,2,65,0,0
39614,-50,4,2,2,65,0,0
39857,-66.6666666666667,4,2,2,65,0,0
42046,-50,4,2,2,65,0,0
42370,-66.6666666666667,4,2,2,65,0,0
44803,-50,4,2,2,65,0,0
45046,-66.6666666666667,4,2,2,65,0,0
47235,-50,4,2,2,65,0,0
47803,-66.6666666666667,4,2,2,65,0,0
49992,-50,4,2,2,65,0,0
50316,-66.6666666666667,4,2,2,65,0,0
52424,-50,4,2,2,65,0,0
52749,-66.6666666666667,4,2,2,65,0,0
55019,-55.5555555555556,4,2,2,65,0,0
56397,-55.5555555555556,4,2,2,5,0,0
56965,-125,4,2,2,65,0,0
57208,-125,4,2,2,5,0,0
57289,-55.5555555555556,4,2,2,82,0,0
57532,-55.5555555555556,4,2,2,5,0,0
57614,-50,4,2,2,78,0,1
58019,-55.5555555555556,4,2,2,78,0,1
60370,-50,4,2,2,78,0,1
60857,-55.5555555555556,4,2,2,78,0,1
62803,-50,4,2,2,78,0,1
63046,-55.5555555555556,4,2,2,78,0,1
65560,-50,4,2,2,78,0,1
66046,-55.5555555555556,4,2,2,78,0,1
67992,-50,4,2,2,78,0,1
68397,-55.5555555555556,4,2,2,78,0,1
70749,-50,4,2,2,78,0,1
71235,-55.5555555555556,4,2,2,78,0,1
73181,-50,4,2,2,78,0,1
73505,-55.5555555555556,4,2,2,78,0,1
75938,-50,4,2,2,78,0,1
76424,-55.5555555555556,4,2,2,78,0,1
78370,-55.5555555555556,4,2,2,45,0,0
82587,-200,4,2,2,45,0,0
87776,-200,4,2,2,15,0,0

[Colours]
Combo1 : 172,151,255
Combo2 : 253,253,150
Combo3 : 197,227,252
Combo4 : 255,113,116

[HitObjects]
65,131,533,5,10,0:1:0:0:
83,141,857,1,8,0:1:0:0:
128,125,1181,1,8,0:1:0:0:
166,152,1424,1,0,0:0:0:0:
166,152,1505,1,8,0:1:0:0:
229,111,1668,1,8,0:1:0:0:
398,225,1830,5,10,0:1:0:0:
380,215,2154,1,8,0:1:0:0:
335,231,2478,1,8,0:1:0:0:
297,204,2721,1,0,0:0:0:0:
297,204,2802,1,8,0:1:0:0:
234,245,2965,1,8,0:1:0:0:
281,57,3127,5,10,0:1:0:0:
161,207,3451,1,8,0:1:0:0:
308,354,3776,1,8,0:1:0:0:
395,221,4019,1,0,0:0:0:0:
380,212,4100,1,8,0:1:0:0:
147,277,4262,6,0,P|120:284|91:293,1,50,8|0,0:1|0:0,0:0:0:0:
98,290,5397,6,0,B|53:245|6:111|164:92|176:178|134:218,1,269.999991760254,2|0,0:1|0:0,0:0:0:0:
0,289,5722,6,0,P|141:238|289:214,1,300,4|0,3:2|0:0,0:0:0:0:
433,176,6046,5,2,0:0:0:0:
437,167,6127,2,0,B|467:256|467:256|434:290,1,119.999996337891,2|0,0:0|0:0,0:0:0:0:
409,342,6370,6,0,P|371:299|387:229,1,125,10|0,0:0|0:0,0:0:0:0:
230,53,6695,6,0,B|217:181|308:103|285:264,1,179.999994506836,0|0,3:0|0:0,0:0:0:0:
375,115,7019,2,0,L|132:71,1,225.000008583069,2|0,1:2|0:0,0:0:0:0:
78,98,7343,6,0,B|35:89|35:89|87:84,1,89.9999972534181,2|0,3:2|0:0,0:0:0:0:
230,0,7505,2,0,B|243:15|243:15|219:84,1,59.9999981689454,10|0,0:0|0:0,0:0:0:0:
96,227,7668,2,0,B|83:212|83:212|107:143,1,59.9999981689454,2|0,0:0|0:0,0:0:0:0:
214,130,7830,1,2,0:0:0:0:
221,330,7992,5,2,0:0:0:0:
204,326,8073,1,2,0:0:0:0:
181,343,8154,1,2,0:0:0:0:
150,332,8235,1,2,0:0:0:0:
135,366,8316,2,0,P|112:345|149:297,1,59.9999981689454,2|0,0:0|0:0,0:0:0:0:
214,207,8478,6,0,B|203:146|290:103|369:149|352:207|335:222|389:280|462:253,1,300,4|0,3:2|0:0,0:0:0:0:
439,122,8803,6,0,B|424:192,1,59.9999981689454,10|0,0:0|0:0,0:0:0:0:
352,384,8965,2,0,B|325:381|314:363|314:363|345:219,1,179.999994506836,2|2,0:0|0:0,0:0:0:0:
487,325,9289,2,0,B|447:338|447:338|407:329,1,59.9999981689454,0|0,3:0|0:0,0:0:0:0:
358,155,9451,1,2,0:0:0:0:
214,281,9614,6,0,B|231:317|231:317|293:352|368:293,1,179.999994506836,2|0,1:2|0:0,0:0:0:0:
439,122,9857,2,0,B|422:86|422:86|360:51|285:110,1,179.999994506836,2|0,0:0|0:0,0:0:0:0:
273,231,10100,2,0,P|259:192|184:175,1,89.9999972534181,10|0,0:0|0:0,0:0:0:0:
32,353,10262,6,0,L|48:293,1,59.9999981689454,2|0,1:2|0:0,0:0:0:0:
143,187,10424,2,0,L|127:129,1,59.9999981689454,0|0,1:2|0:0,0:0:0:0:
65,36,10587,6,0,B|40:99|40:99|73:140,1,89.9999972534181,0|0,1:2|0:0,0:0:0:0:
121,261,10749,2,0,B|146:324|146:324|113:365,1,89.9999972534181,0|0,1:2|0:0,0:0:0:0:
291,104,10911,6,0,L|-16:177,1,300,4|0,3:2|0:0,0:0:0:0:
288,267,11235,5,2,0:0:0:0:
296,276,11316,2,0,P|328:236|283:169,1,119.999996337891,2|0,0:0|0:0,0:0:0:0:
207,45,11560,6,0,L|219:184,1,125,10|0,0:0|0:0,0:0:0:0:
471,108,11884,6,0,B|391:97|391:97|378:117|360:122,1,119.999996337891,0|2,3:0|0:0,0:0:0:0:
423,243,12127,1,2,0:0:0:0:
430,237,12208,2,0,B|453:125|348:164|392:24,1,225.000008583069,2|0,1:2|0:0,0:0:0:0:
479,31,12532,6,0,P|495:69|468:109,1,89.9999972534181,2|0,3:2|0:0,0:0:0:0:
292,150,12695,2,0,B|276:124|276:124|297:87,1,59.9999981689454,10|0,0:0|0:0,0:0:0:0:
482,253,12857,2,0,P|436:244|409:242,1,59.9999981689454,2|0,0:0|0:0,0:0:0:0:
361,121,13019,1,0,0:0:0:0:
348,333,13181,5,2,3:2:0:0:
333,315,13262,1,2,0:0:0:0:
313,301,13343,1,2,0:0:0:0:
280,291,13424,1,2,0:0:0:0:
236,312,13505,2,0,P|232:338|264:375,1,59.9999981689454,2|0,0:0|0:0,0:0:0:0:
5,263,13668,6,0,B|55:201|136:217|136:217|148:252|199:267,1,200,4|2,3:2|0:0,0:0:0:0:
260,219,13911,2,0,P|243:190|201:190,2,75.0000028610231,2|8|0,0:0|0:0|0:0,0:0:0:0:
150,360,14154,6,0,L|120:154,1,179.999994506836,2|0,0:0|0:0,0:0:0:0:
73,118,14478,2,0,B|-5:161|-12:37|77:28|117:82|79:106|140:140|216:100,1,269.999991760254,2|0,3:2|0:0,0:0:0:0:
411,97,14803,6,0,B|385:12|280:41|280:41|247:109,1,200,2|0,1:2|0:0,0:0:0:0:
355,167,15046,1,2,0:0:0:0:
367,173,15127,2,0,P|406:146|409:93,1,100,0|0,3:0|0:0,0:0:0:0:
241,178,15289,2,0,P|280:205|283:258,1,100,2|0,1:2|0:0,0:0:0:0:
380,267,15451,6,0,P|263:298|208:324,1,150.000005722046,2|0,1:2|0:0,0:0:0:0:
140,235,15695,1,2,0:0:0:0:
130,230,15776,2,0,P|144:277|153:322,1,75.0000028610231,0|0,3:0|0:0,0:0:0:0:
308,384,15938,2,0,P|330:353|314:300,1,75.0000028610231,2|0,1:2|0:0,0:0:0:0:
169,146,16100,6,0,B|382:170|382:170|431:141|402:72,1,300,4|0,3:2|0:0,0:0:0:0:
265,34,16424,5,2,0:0:0:0:
254,26,16505,2,0,P|219:77|261:131,1,119.999996337891
295,197,16749,6,0,P|334:152|312:70,1,125,10|0,0:0|0:0,0:0:0:0:
387,318,17073,6,0,B|431:237|541:253|512:336|460:327,1,179.999994506836,0|0,3:0|0:0,0:0:0:0:
346,384,17397,2,0,P|365:292|366:152,1,225.000008583069,2|2,1:2|0:0,0:0:0:0:
328,90,17722,6,0,B|339:76|323:61|323:61|298:91|330:140,1,89.9999972534181,2|0,3:2|0:0,0:0:0:0:
399,240,17884,2,0,P|423:230|440:187,1,59.9999981689454,10|0,0:0|0:0,0:0:0:0:
259,166,18046,2,0,P|277:202|290:249,1,59.9999981689454,2|0,0:0|0:0,0:0:0:0:
387,318,18208,1,2,0:0:0:0:
512,77,18370,5,2,3:2:0:0:
493,74,18451,1,2,0:0:0:0:
480,49,18532,1,2,0:0:0:0:
452,57,18614,1,2,0:0:0:0:
437,28,18695,2,0,L|368:44,1,59.9999981689454,2|0,0:0|0:0,0:0:0:0:
484,323,18857,6,0,P|393:271|189:233,1,300,4|0,3:2|0:0,0:0:0:0:
289,331,19181,6,0,P|308:317|306:245,1,59.9999981689454,8|0,0:0|0:0,0:0:0:0:
190,164,19343,2,0,B|203:283|118:230|158:353,1,179.999994506836,2|2,0:0|0:0,0:0:0:0:
51,185,19668,2,0,L|137:200,1,59.9999981689454,0|0,3:0|0:0,0:0:0:0:
203,232,19830,1,2,0:0:0:0:
125,34,19992,6,0,B|78:1|78:1|127:143,1,179.999994506836,2|0,1:2|0:0,0:0:0:0:
273,124,20235,2,0,B|325:99|325:99|177:71,1,179.999994506836,2|0,0:0|0:0,0:0:0:0:
17,103,20478,2,0,L|58:211,1,89.9999972534181,2|0,0:0|0:0,0:0:0:0:
96,352,20641,6,0,P|128:337|166:329,1,59.9999981689454,2|0,1:2|0:0,0:0:0:0:
203,232,20803,2,0,P|235:247|273:255,1,59.9999981689454,0|0,1:0|0:0,0:0:0:0:
77,350,20965,6,0,P|116:328|185:317,1,89.9999972534181,0|0,1:0|0:0,0:0:0:0:
194,212,21127,2,0,P|233:234|302:245,1,89.9999972534181,0|0,1:0|0:0,0:0:0:0:
313,373,21289,6,0,B|439:190|544:299|486:380|411:312,1,300,4|0,3:2|0:0,0:0:0:0:
351,220,21614,5,2,0:0:0:0:
339,212,21695,2,0,L|304:79,1,119.999996337891,2|0,0:0|0:0,0:0:0:0:
399,41,21938,6,0,B|429:62|429:62|406:163,1,125,10|0,0:0|0:0,0:0:0:0:
313,373,22262,6,0,P|272:336|294:271,1,119.999996337891,2|2,3:2|0:0,0:0:0:0:
359,295,22505,1,2,0:0:0:0:
350,306,22587,2,0,P|219:313|100:332,1,225.000008583069,0|0,1:2|0:0,0:0:0:0:
62,363,22911,6,0,P|47:347|73:262,1,89.9999972534181,0|0,3:0|0:0,0:0:0:0:
197,220,23073,2,0,P|188:260|184:293,1,59.9999981689454,10|0,0:0|0:0,0:0:0:0:
70,156,23235,2,0,P|79:196|83:229,1,59.9999981689454
269,98,23397,2,0,P|260:138|256:171,1,59.9999981689454,2|0,0:0|0:0,0:0:0:0:
70,19,23560,5,2,3:2:0:0:
66,34,23641,1,2,0:0:0:0:
66,61,23722,1,2,0:0:0:0:
91,81,23803,1,2,0:0:0:0:
132,90,23884,2,0,P|159:76|168:21,1,59.9999981689454,2|0,0:0|0:0,0:0:0:0:
197,220,24046,6,0,B|235:170|292:179|292:179|323:233|384:224,1,200,4|2,3:2|0:0,0:0:0:0:
425,272,24289,2,0,P|414:290|357:298,2,75.0000028610231,2|0|0,0:0|0:0|0:0,0:0:0:0:
459,117,24532,6,0,B|473:83|502:76|502:76|418:69|458:157|338:142,1,225.000008583069,10|0,0:0|0:0,0:0:0:0:
364,225,24857,2,0,P|306:129|99:43,1,269.999991760254,2|0,3:2|0:0,0:0:0:0:
374,13,25181,6,0,P|382:41|350:81,1,59.9999981689454,2|0,1:2|0:0,0:0:0:0:
298,60,25343,2,0,P|290:32|322:-8,1,59.9999981689454,2|0,0:0|0:0,0:0:0:0:
433,201,25505,6,0,B|374:215|374:215|339:246,1,75.0000028610231,2|0,3:2|0:0,0:0:0:0:
302,358,25668,2,0,B|243:344|243:344|208:313,1,75.0000028610231,2|0,1:2|0:0,0:0:0:0:
170,179,25830,5,2,1:2:0:0:
145,173,25911,1,0,0:0:0:0:
114,181,25992,1,0,0:0:0:0:
87,217,26073,1,0,0:0:0:0:
92,264,26154,6,0,P|79:224|40:155,1,89.9999972534181,2|0,3:2|0:0,0:0:0:0:
206,54,26316,2,0,P|219:94|258:163,1,89.9999972534181,2|0,1:2|0:0,0:0:0:0:
16,21,26478,5,2,0:0:0:0:
256,192,34262,12,0,35478,0:0:0:0:
102,252,35560,6,0,B|93:167|161:207|148:92,1,150,4|0,3:3|0:0,0:0:0:0:
362,115,35884,2,0,B|351:207|419:167|410:252,1,150,4|0,3:3|0:0,0:0:0:0:
270,306,36208,6,0,P|256:184|227:83,1,225.000008583069,4|0,3:3|0:0,0:0:0:0:
149,115,36532,6,0,L|103:95,2,37.5000014305115,4|4|4,3:3|3:3|3:3,0:0:0:0:
362,115,36695,2,0,L|408:95,2,37.5000014305115,4|4|4,3:3|3:3|3:3,0:0:0:0:
309,10,36857,6,0,P|282:115|271:329,1,300,4|0,3:2|0:0,0:0:0:0:
122,248,37181,5,2,0:0:0:0:
164,309,37289,1,2,0:0:0:0:
165,256,37397,1,2,0:0:0:0:
93,332,37505,6,0,B|140:262|230:258|230:258|240:300|299:316,1,225.000008583069,10|0,0:0|0:0,0:0:0:0:
304,233,37830,6,0,P|321:199|267:157,1,75.0000028610231,2|0,3:2|0:0,0:0:0:0:
164,25,37992,2,0,P|185:67|195:113,1,75.0000028610231,2|0,0:0|0:0,0:0:0:0:
122,248,38154,6,0,B|65:229|65:229|21:134|102:79,1,225.000008583069,2|0,1:2|0:0,0:0:0:0:
18,11,38478,2,0,B|-1:3|-1:3|31:75,1,75.0000028610231,2|0,3:2|0:0,0:0:0:0:
164,178,38641,2,0,P|211:163|244:159,1,75.0000028610231,8|0,0:0|0:0,0:0:0:0:
70,336,38803,6,0,P|50:309|69:247,1,75.0000028610231,2|0,3:2|0:0,0:0:0:0:
218,23,38965,2,0,P|198:71|187:118,1,75.0000028610231,2|0,0:0|0:0,0:0:0:0:
240,353,39127,5,2,3:2:0:0:
256,341,39208,1,2,0:0:0:0:
265,308,39289,1,2,0:0:0:0:
239,270,39370,1,2,0:0:0:0:
198,261,39451,2,0,P|173:269|120:285,1,75.0000028610231,2|0,0:0|0:0,0:0:0:0:
236,159,39614,6,0,B|348:148|296:245|433:241,1,200,4|2,3:2|0:0,0:0:0:0:
340,79,39857,1,2,0:0:0:0:
326,82,39938,2,0,P|308:114|332:167,1,75.0000028610231,10|0,0:0|0:0,0:0:0:0:
426,322,40100,6,0,P|440:231|487:99,1,225.000008583069,2|0,0:0|0:0,0:0:0:0:
496,36,40424,2,0,P|463:33|421:88,1,75.0000028610231,2|0,3:2|0:0,0:0:0:0:
408,240,40587,2,0,L|496:221,1,75.0000028610231,2|0,0:0|0:0,0:0:0:0:
367,384,40749,6,0,B|293:358|299:301|299:301|327:263,1,150.000005722046,2|2,1:2|0:0,0:0:0:0:
315,150,40992,1,2,0:0:0:0:
326,151,41073,2,0,B|340:178|320:200|320:200|215:209,1,150.000005722046,2|2,3:2|0:0,0:0:0:0:
159,87,41316,5,2,0:0:0:0:
167,77,41397,2,0,P|193:104|183:161,1,75.0000028610231,2|0,1:2|0:0,0:0:0:0:
195,339,41560,2,0,P|184:293|166:247,1,75.0000028610231,0|0,1:0|0:0,0:0:0:0:
47,146,41722,6,0,B|71:134|71:134|176:174,1,75.0000028610231,0|0,1:0|0:0,0:0:0:0:
190,347,41884,2,0,B|214:359|214:359|319:319,1,75.0000028610231,0|0,1:0|0:0,0:0:0:0:
501,336,42046,6,0,B|468:195|324:220|324:220|370:220|393:270,1,300,4|2,3:2|0:0,0:0:0:0:
376,334,42370,5,2,0:0:0:0:
369,343,42451,2,0,P|339:334|320:294,2,75.0000028610231,2|0|0,0:0|0:0|0:0,0:0:0:0:
509,261,42695,2,0,P|457:200|385:177,1,150.000005722046,10|2,0:0|0:0,0:0:0:0:
496,64,42938,5,2,0:0:0:0:
505,62,43019,2,0,P|500:109|484:131,1,75.0000028610231,0|0,3:0|0:0,0:0:0:0:
408,103,43181,2,0,P|413:56|429:34,1,75.0000028610231,2|0,0:0|0:0,0:0:0:0:
320,296,43343,6,0,B|333:186|228:223|259:91,1,225.000008583069,2|2,1:2|0:0,0:0:0:0:
276,21,43668,2,0,P|310:35|328:68,1,75.0000028610231,0|0,3:0|0:0,0:0:0:0:
163,191,43830,2,0,P|210:179|238:174,1,75.0000028610231,10|0,0:0|0:0,0:0:0:0:
303,368,43992,6,0,B|274:360|274:360|264:350|264:350|219:339,1,75.0000028610231,2|0,0:0|0:0,0:0:0:0:
95,155,44154,2,0,B|66:163|66:163|56:173|56:173|11:184,1,75.0000028610231,0|2,0:0|0:0,0:0:0:0:
129,353,44316,5,0,3:2:0:0:
143,327,44397,1,2,0:0:0:0:
126,291,44478,1,2,0:0:0:0:
84,281,44560,1,2,0:0:0:0:
46,306,44641,2,0,P|41:347|68:383,1,75.0000028610231,2|0,0:0|0:0,0:0:0:0:
203,255,44803,6,0,P|179:154|139:61,1,200,4|2,3:2|0:0,0:0:0:0:
66,33,45046,1,2,0:0:0:0:
57,43,45127,2,0,P|54:85|96:111,1,75.0000028610231,10|0,0:0|0:0,0:0:0:0:
210,180,45289,6,0,L|300:162,1,75.0000028610231,2|0,0:0|0:0,0:0:0:0:
396,66,45451,2,0,L|306:84,1,75.0000028610231,2|0,0:0|0:0,0:0:0:0:
355,247,45614,6,0,L|372:167,1,75.0000028610231,2|0,3:2|0:0,0:0:0:0:
255,20,45776,2,0,L|238:100,1,75.0000028610231,2|0,0:0|0:0,0:0:0:0:
336,319,45938,5,2,1:2:0:0:
336,319,47235,6,0,B|299:329|299:329|103:225|103:225|51:243,2,300,4|0|2,3:2|0:0|0:0,0:0:0:0:
264,207,47803,5,2,0:0:0:0:
249,204,47884,2,0,B|167:215|208:283|98:285,1,150.000005722046,10|0,0:0|0:0,0:0:0:0:
243,348,48127,1,2,0:0:0:0:
256,357,48208,2,0,B|267:338|267:338|252:279,1,75.0000028610231,0|0,3:0|0:0,0:0:0:0:
123,127,48370,2,0,B|112:146|112:146|127:205,1,75.0000028610231,2|0,0:0|0:0,0:0:0:0:
293,16,48532,6,0,P|234:73|135:53,1,150.000005722046,2|0,1:2|0:0,0:0:0:0:
354,180,48776,1,2,0:0:0:0:
361,167,48857,2,0,P|339:142|293:136,1,75.0000028610231,0|0,3:0|0:0,0:0:0:0:
392,0,49019,2,0,P|377:39|371:86,1,75.0000028610231,8|0,0:0|0:0,0:0:0:0:
473,264,49181,5,2,0:0:0:0:
512,207,49289,2,0,B|498:175|498:175|420:190,1,100.000003814697,2|2,0:0|0:0,0:0:0:0:
337,350,49505,5,2,3:2:0:0:
308,267,49614,1,2,0:0:0:0:
389,248,49722,1,2,0:0:0:0:
399,330,49830,2,0,L|302:339,1,75.0000028610231,2|0,0:0|0:0,0:0:0:0:
166,377,49992,6,0,B|84:314|86:166|254:190|203:293,1,300,4|0,3:2|0:0,0:0:0:0:
111,332,50316,2,0,L|23:315,1,75.0000028610231,8|0,0:0|0:0,0:0:0:0:
40,179,50478,5,2,0:0:0:0:
121,220,50587,1,2,0:0:0:0:
184,156,50695,1,2,0:0:0:0:
103,105,50803,5,2,3:2:0:0:
89,122,50884,1,2,0:0:0:0:
103,134,50965,1,2,0:0:0:0:
117,119,51046,1,2,0:0:0:0:
102,123,51127,6,0,B|97:57|32:34|32:34|46:53|52:86,1,150.000005722046,2|0,1:2|0:0,0:0:0:0:
156,30,51370,2,0,B|230:21|221:101|296:88,1,150.000005722046,2|0,0:0|0:0,0:0:0:0:
337,15,51614,2,0,B|343:-2|343:-2|266:14,1,75.0000028610231,2|0,0:0|0:0,0:0:0:0:
263,163,51776,6,0,P|283:199|290:253,1,75.0000028610231,2|0,1:2|0:0,0:0:0:0:
406,346,51938,2,0,P|414:309|433:277,1,75.0000028610231,0|2,1:0|0:0,0:0:0:0:
415,139,52100,6,0,B|361:132|361:132|333:151,1,75.0000028610231,0|0,1:0|0:0,0:0:0:0:
329,309,52262,2,0,B|275:316|275:316|247:297,1,75.0000028610231,2|0,1:2|0:0,0:0:0:0:
97,212,52424,6,0,B|95:196|87:181|87:181|139:187|187:182|187:182|144:274|134:360,1,300,4|0,3:2|0:0,0:0:0:0:
69,361,52749,1,2,0:0:0:0:
58,369,52830,2,0,B|12:350|12:350|46:344,2,75.0000028610231,2|0|0,0:0|0:0|0:0,0:0:0:0:
136,340,53073,6,0,P|157:257|223:115,1,225.000008583069,8|0,0:0|0:0,0:0:0:0:
219,56,53397,2,0,P|185:59|152:91,1,75.0000028610231,2|0,3:2|0:0,0:0:0:0:
208,202,53560,2,0,P|242:199|275:167,1,75.0000028610231,2|0,0:0|0:0,0:0:0:0:
306,1,53722,6,0,B|290:138|370:80|353:216,1,225.000008583069,0|0,1:0|0:0,0:0:0:0:
423,313,54046,2,0,B|436:297|436:297|423:237,1,75.0000028610231,0|0,3:0|0:0,0:0:0:0:
451,122,54208,2,0,L|372:140,1,75.0000028610231,8|0,0:0|0:0,0:0:0:0:
294,257,54370,6,0,P|293:301|340:339,1,75.0000028610231
508,261,54532,2,0,P|509:217|462:179,1,75.0000028610231,2|0,0:0|0:0,0:0:0:0:
324,77,54695,5,2,3:2:0:0:
300,92,54776,1,2,0:0:0:0:
262,71,54857,1,2,0:0:0:0:
224,108,54938,1,2,0:0:0:0:
170,53,55019,6,0,B|102:63|106:140|7:135,1,179.999994506836,4|0,3:2|0:0,0:0:0:0:
120,297,55262,1,2,0:0:0:0:
128,303,55343,2,0,P|155:277|139:225,1,89.9999972534181,10|0,0:0|0:0,0:0:0:0:
64,80,55505,2,0,P|52:39|81:7,1,89.9999972534181,2|0,0:0|0:0,0:0:0:0:
226,189,55668,6,0,B|262:180|262:180|276:167|276:167|341:153,2,89.9999972534181,10|8|8,0:0|0:0|0:0,0:0:0:0:
55,334,55992,5,10,0:0:0:0:
76,315,56073,1,8,0:0:0:0:
120,297,56154,1,8,0:0:0:0:
179,307,56235,1,8,0:0:0:0:
230,366,56316,6,0,P|265:355|345:344,1,89.9999972534181,2|0,0:1|0:0,0:0:0:0:
421,268,56965,6,0,P|401:206|341:209,1,120,2|0,0:1|0:0,0:0:0:0:
438,254,57289,6,0,B|434:184|367:170|367:170|221:217,1,269.999991760254,4|0,0:1|0:0,0:0:0:0:
145,224,57614,6,0,B|216:246|216:246|245:299|245:299|318:321,2,200,4|2|10,3:2|0:0|0:0,0:0:0:0:
32,51,58100,2,0,P|73:66|61:141,1,89.9999972534181
115,365,58262,6,0,P|156:350|144:275,1,89.9999972534181,2|0,0:0|0:0,0:0:0:0:
239,121,58424,2,0,P|187:139|144:148,1,89.9999972534181,2|0,3:2|0:0,0:0:0:0:
9,263,58587,2,0,P|52:273|95:288,1,89.9999972534181,10|0,0:0|0:0,0:0:0:0:
311,177,58749,5,2,0:0:0:0:
317,170,58830,1,2,0:0:0:0:
323,163,58911,2,0,L|309:65,2,89.9999972534181,2|0|2,3:2|0:0|0:0,0:0:0:0:
228,266,59235,6,0,B|335:252|285:346|413:328,1,179.999994506836,10|2,0:0|0:0,0:0:0:0:
399,242,59478,1,2,0:0:0:0:
388,233,59560,2,0,P|334:251|289:261,1,89.9999972534181
450,377,59722,2,0,P|488:349|472:293,1,89.9999972534181,2|0,3:2|0:0,0:0:0:0:
418,147,59884,5,10,0:0:0:0:
417,159,59965,2,0,B|453:147|453:147|465:130|465:130|513:115,2,89.9999972534181,2|2|0,0:0|0:0|0:0,0:0:0:0:
373,0,60208,6,0,P|403:25|390:82,1,89.9999972534181,2|0,0:0|0:0,0:0:0:0:
388,233,60370,2,0,P|298:180|178:152,2,200,4|10|2,3:2|0:0|0:0,0:0:0:0:
227,321,60857,6,0,P|201:299|219:241,1,89.9999972534181,2|0,0:0|0:0,0:0:0:0:
304,61,61019,2,0,P|291:110|280:160,1,89.9999972534181,2|0,3:2|0:0,0:0:0:0:
371,315,61181,2,0,P|316:285|269:265,1,89.9999972534181,10|0,0:0|0:0,0:0:0:0:
68,181,61343,6,0,B|45:105|131:81|131:81|202:148|132:210,1,269.999991760254,2|0,0:0|0:0,0:0:0:0:
105,293,61668,2,0,P|75:271|18:247,1,89.9999972534181,2|0,0:0|0:0,0:0:0:0:
118,45,61830,2,0,P|88:67|31:91,1,89.9999972534181,10|0,0:0|0:0,0:0:0:0:
144,197,61992,6,0,B|192:106|299:114|299:114|311:156|357:175,1,269.999991760254,2|0,0:0|0:0,0:0:0:0:
415,95,62316,2,0,B|429:74|404:51|404:51|402:78|367:99,1,89.9999972534181,2|0,3:2|0:0,0:0:0:0:
239,207,62478,2,0,B|225:228|250:251|250:251|252:224|287:203,1,89.9999972534181,10|0,0:0|0:0,0:0:0:0:
326,33,62641,2,0,P|297:56|309:106,1,89.9999972534181,2|0,0:0|0:0,0:0:0:0:
372,342,62803,6,0,B|357:221|448:290|440:153,1,200,4|2,3:2|0:0,0:0:0:0:
460,55,63046,1,2,0:0:0:0:
448,43,63127,2,0,P|411:43|389:100,1,89.9999972534181,10|0,0:0|0:0,0:0:0:0:
498,271,63289,6,0,P|371:223|238:206,1,269.999991760254,2|0,0:0|0:0,0:0:0:0:
240,346,63614,2,0,P|275:332|280:283,1,89.9999972534181,2|0,3:2|0:0,0:0:0:0:
179,96,63776,2,0,B|154:117|154:117|169:179,1,89.9999972534181,10|0,0:0|0:0,0:0:0:0:
28,327,63938,6,0,B|52:224|175:198|227:292|164:331|129:283,1,269.999991760254,2|0,0:0|0:0,0:0:0:0:
78,30,64262,2,0,P|143:61|251:75,2,179.999994506836,2|10|2,0:0|0:0|0:0,0:0:0:0:
23,189,64749,2,0,P|9:162|59:111,1,89.9999972534181
253,148,64911,2,0,P|210:159|167:172,1,89.9999972534181,2|0,3:2|0:0,0:0:0:0:
186,321,65073,5,10,0:0:0:0:
194,324,65154,1,2,0:0:0:0:
202,327,65235,2,0,P|227:298|209:237,1,89.9999972534181,2|0,0:0|0:0,0:0:0:0:
41,270,65397,2,0,P|92:255|143:245,1,89.9999972534181,2|0,0:0|0:0,0:0:0:0:
325,336,65560,6,0,P|333:222|370:120,2,200,4|10|2,3:2|0:0|0:0,0:0:0:0:
485,380,66046,2,0,B|501:353|501:353|478:285,1,89.9999972534181
385,63,66208,6,0,B|373:140|444:183|444:183|427:152|443:121,1,179.999994506836,2|8,3:2|0:0,0:0:0:0:
463,56,66451,5,2,0:0:0:0:
471,64,66532,2,0,P|349:81|285:105,1,179.999994506836,2|0,0:0|3:0,0:0:0:0:
251,162,66776,5,2,0:0:0:0:
261,164,66857,2,0,P|251:83|154:59,1,179.999994506836,2|10,0:0|0:0,0:0:0:0:
92,138,67100,5,2,0:0:0:0:
102,145,67181,2,0,P|138:137|207:126,1,89.9999972534181,2|0,0:0|0:0,0:0:0:0:
191,298,67343,5,2,0:0:0:0:
179,279,67424,1,2,0:0:0:0:
198,267,67505,1,2,3:2:0:0:
209,286,67587,1,2,0:0:0:0:
157,365,67668,5,10,0:2:0:0:
168,286,67749,1,2,0:0:0:0:
179,207,67830,1,2,0:0:0:0:
190,128,67911,1,2,0:0:0:0:
166,54,67992,6,0,B|277:81|193:167|344:180,2,200,4|2|10,3:2|0:0|0:0,0:0:0:0:
60,267,68397,2,0,B|45:286|45:286|22:215,1,89.9999972534181,0|2,0:0|0:0,0:0:0:0:
80,69,68641,6,0,B|141:14|141:14|91:215,1,269.999991760254,2|0,0:0|0:0,0:0:0:0:
60,267,68965,2,0,P|100:281|150:239,1,89.9999972534181,10|0,0:0|0:0,0:0:0:0:
248,67,69127,2,0,P|236:114|227:185,1,89.9999972534181,2|0,0:0|0:0,0:0:0:0:
206,325,69289,6,0,B|273:305|273:305|289:260|289:260|370:237,1,179.999994506836,2|2,3:2|0:0,0:0:0:0:
407,373,69532,1,2,0:0:0:0:
398,384,69614,2,0,P|371:377|384:290,1,89.9999972534181,10|0,0:0|0:0,0:0:0:0:
455,127,69776,2,0,P|434:205|428:315,1,179.999994506836,2|0,0:0|0:0,0:0:0:0:
206,325,70100,6,0,B|190:264|190:264|216:216,1,89.9999972534181,2|0,3:2|0:0,0:0:0:0:
349,67,70262,2,0,B|365:128|365:128|339:176,1,89.9999972534181,10|0,0:0|0:0,0:0:0:0:
179,140,70424,5,2,0:0:0:0:
185,134,70505,1,2,0:0:0:0:
192,128,70587,2,0,P|268:137|324:158,1,89.9999972534181,2|0,0:0|0:0,0:0:0:0:
144,60,70749,6,0,B|120:187|217:124|201:255,2,200,4|10|0,3:2|0:0|0:0,0:0:0:0:
32,221,71235,6,0,P|90:221|148:222,1,89.9999972534181,2|0,0:0|0:0,0:0:0:0:
261,42,71397,2,0,B|273:18|273:18|210:29,1,89.9999972534181,2|0,3:2|0:0,0:0:0:0:
248,306,71560,2,0,P|279:272|279:220,1,89.9999972534181,10|0,0:0|0:0,0:0:0:0:
144,60,71722,5,2,0:0:0:0:
135,63,71803,1,2,0:0:0:0:
126,66,71884,2,0,P|145:125|156:166,2,89.9999972534181,0|0|2,3:0|0:0|0:0,0:0:0:0:
105,351,72208,2,0,P|118:312|209:320,1,89.9999972534181,10|0,0:0|0:0,0:0:0:0:
305,370,72370,2,0,B|396:334|345:255|447:253|447:253|401:259|378:319,1,269.999991760254,2|0,0:0|0:0,0:0:0:0:
457,331,72695,6,0,B|453:354|475:370|475:370|484:347|469:327,1,89.9999972534181,2|0,3:2|0:0,0:0:0:0:
492,195,72857,2,0,B|506:213|533:207|533:207|521:185|497:182,1,89.9999972534181,10|0,0:0|0:0,0:0:0:0:
414,77,73019,2,0,B|437:78|450:55|450:55|427:48|408:64,1,89.9999972534181,2|0,0:0|0:0,0:0:0:0:
355,210,73181,6,0,B|337:107|207:92|161:84|142:213|240:187,1,300,4|0,3:2|0:0,0:0:0:0:
341,129,73505,6,0,P|299:99|241:89,1,89.9999972534181,8|0,0:0|0:0,0:0:0:0:
104,0,73668,2,0,P|62:30|4:40,1,89.9999972534181,2|0,0:0|0:0,0:0:0:0:
147,157,73830,6,0,B|118:190|149:243|149:243|212:228|231:143,2,179.999994506836,2|0|8,0:0|3:0|0:0,0:0:0:0:
111,96,74235,1,2,0:0:0:0:
99,100,74316,2,0,P|68:137|58:192,1,89.9999972534181
62,346,74478,6,0,B|124:261|211:264|211:264|225:312|275:332,1,269.999991760254,0|0,3:0|0:0,0:0:0:0:
214,189,74803,2,0,P|190:291|189:380,1,179.999994506836,10|0,0:0|0:0,0:0:0:0:
341,311,75046,5,2,0:0:0:0:
347,305,75127,2,0,P|335:263|277:257,1,89.9999972534181,2|0,0:0|0:0,0:0:0:0:
408,136,75289,2,0,P|357:157|310:164,1,89.9999972534181,2|0,3:2|0:0,0:0:0:0:
458,368,75451,5,10,0:0:0:0:
447,349,75532,1,2,0:0:0:0:
466,328,75614,1,2,0:0:0:0:
441,299,75695,1,2,0:0:0:0:
472,265,75776,2,0,P|484:206|502:157,1,89.9999972534181,2|0,0:0|0:0,0:0:0:0:
335,45,75938,6,0,B|320:166|407:109|394:244,2,200,4|8|0,3:2|0:0|0:0,0:0:0:0:
452,35,76343,5,2,0:0:0:0:
465,37,76424,2,0,P|476:78|444:113,1,89.9999972534181,2|0,0:0|0:0,0:0:0:0:
309,199,76587,2,0,P|270:192|191:186,1,89.9999972534181,0|0,3:0|0:0,0:0:0:0:
88,64,76749,2,0,P|56:98|97:171,1,89.9999972534181,8|0,0:0|0:0,0:0:0:0:
211,337,76911,2,0,P|243:303|202:230,1,89.9999972534181
25,226,77073,6,0,P|134:191|281:112,1,269.999991760254,2|0,3:2|0:0,0:0:0:0:
245,43,77397,2,0,B|248:18|248:18|204:72,1,89.9999972534181,10|0,0:0|0:0,0:0:0:0:
77,327,77560,6,0,P|135:269|118:172,1,179.999994506836,2|0,0:0|0:0,0:0:0:0:
49,58,77803,1,2,0:0:0:0:
34,52,77884,2,0,P|50:99|60:181,1,89.9999972534181,2|2,3:2|0:0,0:0:0:0:
150,292,78046,5,10,1:2:0:0:
220,251,78127,1,2,0:0:0:0:
299,237,78208,1,2,0:0:0:0:
379,240,78289,1,2,0:0:0:0:
456,263,78370,5,6,3:2:0:0:
435,180,78695,1,8,0:1:0:0:
504,129,79019,1,8,0:1:0:0:
438,71,79262,1,0,0:0:0:0:
438,71,79343,1,8,0:1:0:0:
335,139,79505,1,8,0:1:0:0:
193,47,79668,5,10,0:1:0:0:
272,182,79992,1,8,0:1:0:0:
166,268,80316,1,8,0:1:0:0:
89,170,80560,1,0,0:0:0:0:
89,170,80641,1,8,0:1:0:0:
255,101,80803,1,8,0:1:0:0:
267,336,80965,5,10,0:1:0:0:
73,249,81289,1,8,0:1:0:0:
272,182,81614,1,8,0:1:0:0:
139,98,81857,1,0,0:0:0:0:
139,98,81938,1,8,0:1:0:0:
215,42,82100,1,8,0:1:0:0:
177,377,82262,5,8,0:1:0:0:
267,336,82587,2,0,P|260:297|199:277,2,100,10|10|10,0:1|0:1|0:1,0:0:0:0:
177,377,83397,1,0,0:0:0:0:
356,275,83560,5,10,0:1:0:0:
271,170,83884,1,8,0:1:0:0:
459,135,84208,1,8,0:1:0:0:
448,302,84451,1,0,0:0:0:0:
448,302,84532,1,8,0:1:0:0:
335,94,84695,1,8,0:1:0:0:
255,244,84857,5,10,0:1:0:0:
223,110,85181,1,8,0:1:0:0:
64,55,85505,1,8,0:1:0:0:
184,40,85749,1,0,0:0:0:0:
184,40,85830,1,8,0:1:0:0:
47,130,85992,1,8,0:1:0:0:
256,192,86154,5,10,0:1:0:0:
274,180,86478,5,8,0:1:0:0:
310,200,86803,5,8,0:1:0:0:
369,151,87046,5,0,0:0:0:0:
369,151,87127,1,8,0:1:0:0:
446,214,87289,5,8,0:1:0:0:
