osu file format v14

[General]
AudioFilename: Ontology.mp3
AudioLeadIn: 0
PreviewTime: 67138
Countdown: 0
SampleSet: Soft
StackLeniency: 0.7
Mode: 0
LetterboxInBreaks: 0
EpilepsyWarning: 1
WidescreenStoryboard: 1

[Editor]
Bookmarks: 2717
DistanceSpacing: 1
BeatDivisor: 4
GridSize: 32
TimelineZoom: 2.4

[Metadata]
Title:Kyoumei Sekai no Ontology
TitleUnicode:共鳴世界の存在論
Artist:Ninomiya Asuka (CV: Aoki Shiki)
ArtistUnicode:二宮飛鳥 (CV: 青木志貴)
Creator:Ujimatsu Chiya
Version:Walao's Normal
Source:アイドルマスター シンデレラガールズ スターライトステージ
Tags:THE iDOLM@STER Cinderella Girls Starlight Stage Affirmation [C u r i] [C_u_r_i] Reillia Nao Tomori Matsubara Kanon walaowey Neoskylove Irohas mugiwarasekai eINess [ Kuro Usagi ] [_Kuro_Usagi_] Japanese Rock Video Game MASTER 043
BeatmapID:1773918
BeatmapSetID:841338

[Difficulty]
HPDrainRate:4
CircleSize:3
OverallDifficulty:4
ApproachRate:5
SliderMultiplier:1
SliderTickRate:1

[Events]
//Background and Video events
0,0,"22.jpg",0,0
//Break Periods
2,13062,14125
2,38325,46967
2,108903,110188
//Storyboard Layer 0 (Background)
//Storyboard Layer 1 (Fail)
//Storyboard Layer 2 (Pass)
//Storyboard Layer 3 (Foreground)
//Storyboard Layer 4 (Overlay)
//Storyboard Sound Samples

[TimingPoints]
231,315.789473684211,4,2,0,35,1,0
2283,-100,4,2,3,70,0,0
2678,-100,4,2,3,5,0,0
2757,-100,4,2,3,65,0,0
4020,-100,4,2,2,60,0,0
4178,-100,4,2,1,65,0,0
6546,-100,4,2,1,60,0,0
6704,-100,4,2,1,65,0,0
8994,-100,4,2,3,5,0,0
9231,-100,4,2,3,65,0,0
9309,-100,4,2,3,5,0,0
9388,-100,4,2,3,65,0,0
10888,-100,4,2,1,35,0,0
10967,-100,4,2,1,45,0,0
11125,-100,4,2,1,65,0,0
11520,-100,4,2,3,5,0,0
11678,-100,4,2,1,5,0,0
11757,-100,4,2,3,65,0,0
11836,-100,4,2,3,5,0,0
11915,-100,4,2,3,65,0,0
12862,-100,4,2,1,75,0,0
15073,-100,4,2,3,65,0,0
15309,-100,4,2,3,5,0,0
15388,-100,4,2,3,65,0,0
17441,-100,4,2,1,40,0,0
17757,-100,4,2,3,65,0,0
18231,-100,4,2,1,55,0,0
22178,-100,4,2,2,65,0,0
22415,-100,4,2,2,5,0,0
22494,-100,4,2,2,65,0,0
22731,-100,4,2,2,5,0,0
22809,-100,4,2,1,55,0,0
27231,-100,4,2,3,65,0,0
27546,-100,4,2,3,65,0,0
28020,-100,4,2,1,55,0,0
30073,-100,4,2,3,65,0,0
30388,-100,4,2,3,65,0,0
32283,-100,4,2,3,65,0,0
32915,-100,4,2,3,65,0,0
34809,-100,4,2,3,65,0,0
35441,-100,4,2,3,65,0,0
36073,-100,4,2,3,65,0,0
37494,-100,4,2,1,45,0,0
37652,-100,4,2,1,55,0,0
48231,-100,4,2,3,65,0,0
58336,-100,4,2,3,65,0,0
59599,-100,4,2,1,40,0,0
60862,-100,4,2,1,45,0,0
62125,-100,4,2,1,50,0,0
63388,-100,4,2,1,55,0,0
64652,-100,4,2,1,60,0,0
65915,-100,4,2,3,65,0,0
66388,-100,4,2,1,55,0,0
66546,-100,4,2,1,65,0,0
67020,-100,4,2,1,55,0,0
67178,-100,4,2,3,65,0,0
67257,-100,4,2,1,5,0,0
67731,-100,4,2,3,5,0,0
67809,-100,4,2,3,70,0,0
67888,-100,4,2,1,5,0,0
68125,-100,4,2,3,5,0,0
68441,-100,4,2,5,80,0,1
72073,-100,4,2,5,80,0,1
73494,-100,4,2,5,80,0,1
77125,-100,4,2,5,80,0,1
78231,-100,4,2,5,80,0,1
78467,-100,4,2,1,75,0,1
78546,-100,4,2,5,80,0,1
82967,-100,4,2,1,85,0,1
83125,-100,4,2,1,75,0,1
83599,-100,4,2,5,80,0,1
88020,-100,4,2,5,80,0,1
88178,-100,4,2,1,70,0,1
88573,-100,4,2,1,75,0,1
88652,-100,4,2,5,80,0,1
98125,-100,4,2,5,80,0,1
98757,-100,4,2,5,80,0,1
107125,-100,4,2,1,65,0,1
107599,-100,4,2,1,75,0,1
107757,-100,4,2,1,70,0,1
108073,-100,4,2,1,75,0,1
108546,-100,4,2,1,85,0,1
108625,-100,4,2,3,90,0,1
108704,-100,4,2,1,85,0,0
111388,-100,4,2,1,75,0,0
112652,-100,4,2,3,65,0,0
114388,-100,4,2,3,65,0,0
115809,-100,4,2,1,85,0,0
116125,-100,4,2,1,75,0,0
117546,-100,4,2,3,65,0,0
117862,-100,4,2,3,5,0,0

[Colours]
Combo1 : 244,139,100
Combo2 : 0,128,255
Combo3 : 128,128,128
Combo4 : 80,11,183
Combo5 : 128,255,255

[HitObjects]
215,110,2757,6,0,P|251:84|348:95,1,100,6|2,3:2|1:2,0:0:0:0:
402,97,3388,2,0,P|380:141|340:169,1,100,2|2,3:2|1:2,0:0:0:0:
291,176,3862,1,0,0:2:0:0:
291,176,4020,2,0,L|338:286,1,100,2|2,3:2|1:2,0:0:0:0:
235,301,4652,2,0,L|195:209,1,100,2|2,3:2|1:2,0:0:0:0:
215,110,5283,6,0,P|154:116|113:150,1,100,2|0,3:2|1:2,0:0:0:0:
97,234,5915,2,0,P|53:210|27:168,1,100,2|2,3:2|1:2,0:0:0:0:
24,118,6388,1,0,0:2:0:0:
24,118,6546,2,0,L|91:35,1,100,2|2,3:2|1:2,0:0:0:0:
186,59,7178,2,0,L|123:136,1,100,2|2,3:2|1:2,0:0:0:0:
195,206,7809,6,0,L|268:202,2,50,6|0|0,3:2|0:0|1:2,0:0:0:0:
154,235,8283,2,0,P|150:283|185:343,1,100,2|2,0:2|3:2,0:0:0:0:
269,347,8915,1,2,3:2:0:0:
355,296,9231,1,2,3:2:0:0:
375,198,9546,2,0,L|326:101,1,100,6|0,3:2|3:2,0:0:0:0:
284,87,10020,1,2,1:2:0:0:
185,71,10336,6,0,L|156:15,2,50,6|2|2,3:2|3:2|1:2,0:0:0:0:
197,119,10809,2,0,P|163:152|96:158,1,100,2|2,3:2|3:2,0:0:0:0:
12,153,11441,1,2,3:2:0:0:
6,252,11757,1,2,3:2:0:0:
106,260,12073,2,0,L|223:271,1,100,6|0,3:2|1:2,0:0:0:0:
253,254,12546,2,0,L|312:259,1,50,2|2,1:2|1:2,0:0:0:0:
351,245,12862,1,6,3:2:0:0:
341,55,15388,6,0,L|329:166,1,100,4|0,3:2|1:2,0:0:0:0:
268,233,16020,2,0,L|222:253,2,50,0|0|0,3:2|3:2|1:2,0:0:0:0:
366,254,16652,2,0,L|424:296,1,50,0|0,3:2|3:2,0:0:0:0:
399,332,16967,2,0,L|296:342,1,100,0|0,1:2|3:2,0:0:0:0:
249,347,17441,1,0,3:2:0:0:
150,330,17757,6,0,P|110:308|40:311,1,100,4|0,3:2|3:2,0:0:0:0:
32,261,18231,2,0,L|15:199,2,50,0|0|0,1:2|0:0|3:2,0:0:0:0:
121,215,18862,1,0,1:2:0:0:
121,215,19020,2,0,L|94:114,2,100,0|0|0,3:2|3:2|0:2,0:0:0:0:
189,288,19967,1,2,1:2:0:0:
217,192,20283,6,0,P|253:167|326:171,1,100,4|0,3:2|3:2,0:0:0:0:
353,185,20757,2,0,L|386:238,2,50,0|0|0,1:2|0:0|3:2,0:0:0:0:
287,260,21388,1,0,1:2:0:0:
287,260,21546,2,0,L|219:339,2,100,0|0|2,3:2|3:2|3:2,0:0:0:0:
365,322,22494,1,2,3:2:0:0:
460,293,22809,6,0,P|481:241|476:191,1,100,4|0,3:2|3:2,0:0:0:0:
457,152,23283,1,0,1:2:0:0:
368,106,23599,2,0,L|354:167,2,50,0|0|0,3:2|3:2|1:2,0:0:0:0:
403,71,24072,2,0,P|446:57|514:75,2,100,0|0|2,3:2|3:2|3:2,0:0:0:0:
315,22,25020,1,2,3:2:0:0:
264,108,25336,6,0,L|164:116,1,100,4|0,3:2|3:2,0:0:0:0:
114,121,25809,1,0,1:2:0:0:
114,121,25967,2,0,L|171:203,1,100,4|0,3:2|3:2,0:0:0:0:
204,241,26441,1,0,1:2:0:0:
204,241,26599,2,0,P|146:262|113:309,1,100,2|2,3:2|3:2,0:0:0:0:
207,342,27231,1,4,3:2:0:0:
292,290,27546,2,0,P|339:302|375:336,1,100,0|0,1:2|1:2,0:0:0:0:
413,369,28020,5,4,3:2:0:0:
503,327,28336,2,0,L|514:269,2,50,0|0|0,1:2|0:2|3:2,0:0:0:0:
423,266,28967,1,0,1:2:0:0:
423,266,29125,2,0,L|443:163,2,100,0|0|2,3:2|3:2|3:2,0:0:0:0:
349,197,30073,1,2,1:2:0:0:
252,220,30388,6,0,P|187:216|144:186,1,100,4|0,3:2|3:2,0:0:0:0:
129,157,30862,2,0,L|96:98,2,50,0|0|0,1:2|0:2|3:2,0:0:0:0:
223,121,31493,1,0,1:2:0:0:
223,121,31652,2,0,L|174:28,2,100,0|0|2,3:2|3:2|3:2,0:0:0:0:
316,85,32599,1,2,3:2:0:0:
409,49,32915,6,0,P|414:106|385:158,1,100,4|0,3:2|3:2,0:0:0:0:
360,177,33388,1,0,1:2:0:0:
266,211,33704,2,0,L|213:222,2,50,0|0|0,3:2|3:2|1:2,0:0:0:0:
293,253,34178,2,0,P|315:302|312:349,2,100,0|0|2,3:2|3:2|3:2,0:0:0:0:
215,317,35126,1,2,3:2:0:0:
126,270,35441,6,0,L|25:211,1,100,4|0,3:2|3:2,0:0:0:0:
39,169,35915,1,0,1:2:0:0:
39,169,36073,2,0,L|140:110,1,100,4|0,3:2|3:2,0:0:0:0:
169,95,36546,2,0,L|219:124,1,50,0|4,1:2|3:2,0:0:0:0:
298,170,37020,5,0,3:2:0:0:
385,120,37336,2,0,L|471:170,1,100,4|0,1:2|1:2,0:0:0:0:
476,220,37809,2,0,L|421:252,1,50,0|0,3:2|1:2,0:0:0:0:
390,272,38125,1,4,3:2:0:0:
126,234,48231,6,0,B|125:165|169:140|169:140|200:212|271:227|338:177,1,300,6|0,0:2|0:0,0:0:0:0:
261,109,49494,2,0,P|384:102|390:264,1,300,0|0,0:0|3:2,0:0:0:0:
306,279,50757,6,0,B|290:231|326:183|326:183|252:231|195:179|195:179|114:123|39:197,1,400,2|0,0:2|0:2,0:0:0:0:
478,284,53283,6,0,B|486:239|451:171|410:162|410:162|403:251|375:283|327:300,1,300,2|0,0:2|0:0,0:0:0:0:
300,202,54546,2,0,B|210:173|108:213|108:213|135:162|122:124|98:98,1,300,0|0,0:0|0:2,0:0:0:0:
78,75,55652,1,0,3:2:0:0:
78,75,55809,6,0,B|183:49|183:49|199:106|199:106|265:94|369:136|369:136|407:209|389:257|339:286|339:286|418:323|529:262,1,700,2|0,3:2|0:2,0:0:0:0:
499,169,58336,6,0,L|458:62,2,100,4|0|0,3:2|3:2|3:2,0:0:0:0:
420,231,59283,1,0,3:2:0:0:
337,174,59599,2,0,L|297:70,2,100,0|0|0,3:2|3:2|3:2,0:0:0:0:
262,240,60546,1,0,3:2:0:0:
179,183,60862,6,0,L|139:79,2,100,0|0|0,3:2|3:2|3:2,0:0:0:0:
118,262,61809,1,0,3:2:0:0:
35,205,62125,2,0,L|-5:101,2,100,0|0|0,3:2|3:2|3:2,0:0:0:0:
25,304,63073,1,0,3:2:0:0:
108,359,63388,6,0,P|162:348|201:313,1,100,4|0,3:2|3:2,0:0:0:0:
214,221,64020,2,0,P|253:190|301:182,1,100,0|0,3:2|3:2,0:0:0:0:
388,232,64652,2,0,P|424:265|472:279,1,100,4|0,3:2|3:2,0:0:0:0:
477,179,65283,2,0,P|440:145|392:131,1,100,0|0,3:2|3:2,0:0:0:0:
301,182,65915,6,0,L|190:182,1,100,4|0,3:2|3:2,0:0:0:0:
162,150,66388,2,0,L|113:126,2,50,0|2|0,3:2|3:2|3:2,0:0:0:0:
184,104,66862,2,0,L|234:81,1,50,2|2,3:2|3:2,0:0:0:0:
438,58,68441,6,0,L|452:169,1,100,6|2,3:2|1:2,0:0:0:0:
456,207,68915,2,0,P|412:191|347:200,1,100,2|2,0:2|3:2,0:0:0:0:
313,215,69388,1,0,1:2:0:0:
228,268,69704,2,0,P|178:272|131:256,1,100,2|2,3:2|1:2,0:0:0:0:
113,209,70178,2,0,L|155:110,1,100,2|2,0:2|3:2,0:0:0:0:
172,69,70652,1,0,1:2:0:0:
79,30,70967,6,0,L|42:122,1,100,2|2,3:2|1:2,0:0:0:0:
22,169,71441,1,2,0:2:0:0:
29,268,71757,2,0,P|56:292|82:306,1,50,2|0,3:2|1:2,0:0:0:0:
117,308,72073,2,0,P|168:298|230:320,1,100,6|2,3:2|3:2,0:0:0:0:
255,337,72546,1,2,1:2:0:0:
355,337,72862,1,2,3:2:0:0:
304,250,73178,2,0,L|254:219,1,50,6|0,1:2|0:0,0:0:0:0:
222,192,73494,6,0,P|242:148|304:121,1,100,6|0,3:2|1:2,0:0:0:0:
333,109,73967,1,2,0:2:0:0:
430,132,74283,2,0,L|487:168,1,50,2|0,3:2|1:2,0:0:0:0:
486,207,74599,2,0,L|460:318,1,100,2|0,3:2|3:2,0:0:0:0:
452,353,75073,1,0,1:2:0:0:
363,306,75388,2,0,P|312:295|263:307,1,100,2|2,3:2|1:2,0:0:0:0:
172,342,76020,6,0,P|123:353|75:341,1,100,2|2,3:2|1:2,0:0:0:0:
44,301,76494,1,2,0:2:0:0:
75,206,76809,2,0,L|98:148,1,50,2|2,3:2|1:2,0:0:0:0:
112,113,77125,2,0,L|208:170,1,100,6|0,3:2|3:2,0:0:0:0:
242,187,77599,1,0,3:2:0:0:
335,223,77915,1,0,3:2:0:0:
434,209,78231,2,0,L|420:150,1,50,2|0,1:2|1:2,0:0:0:0:
436,112,78546,6,0,P|388:102|341:64,1,100,6|2,3:2|1:2,0:0:0:0:
298,60,79020,2,0,P|252:79|219:116,1,100,2|2,0:2|3:2,0:0:0:0:
199,163,79494,1,0,1:2:0:0:
249,248,79809,2,0,P|205:260|139:242,1,100,2|2,3:2|1:2,0:0:0:0:
113,217,80283,2,0,L|52:320,1,100,2|2,0:2|3:2,0:0:0:0:
38,347,80757,1,0,1:2:0:0:
134,371,81073,6,0,P|178:359|244:377,1,100,2|2,3:2|1:2,0:0:0:0:
279,361,81546,2,0,L|366:276,1,100,2|0,0:2|3:2,0:0:0:0:
386,256,82020,1,2,1:2:0:0:
386,256,82178,2,0,P|359:215|360:148,1,100,6|0,3:2|3:2,0:0:0:0:
366,116,82652,1,0,1:2:0:0:
390,19,82967,2,0,L|331:18,1,50,2|0,3:2|3:2,0:0:0:0:
289,20,83283,1,4,1:2:0:0:
226,98,83599,6,0,P|178:113|116:96,1,100,6|2,3:2|1:2,0:0:0:0:
33,75,84231,1,2,1:2:0:0:
5,170,84546,1,2,1:2:0:0:
102,198,84862,2,0,P|150:225|177:280,1,100,2|2,1:2|1:2,0:0:0:0:
152,308,85336,2,0,L|268:288,1,100,0|0,3:2|3:2,0:0:0:0:
299,280,85809,1,2,1:2:0:0:
397,260,86125,6,0,P|380:216|326:180,1,100,6|2,1:2|1:2,0:0:0:0:
239,191,86757,2,0,P|199:161|181:115,1,100,2|2,1:2|1:2,0:0:0:0:
280,103,87388,2,0,L|398:86,1,100,0|0,1:2|1:2,0:0:0:0:
438,170,88020,2,0,L|366:180,1,50,0|0,3:2|3:2,0:0:0:0:
338,184,88336,1,0,1:2:0:0:
295,274,88652,6,0,P|249:298|193:298,1,100,4|2,3:2|1:2,0:0:0:0:
108,265,89283,1,2,3:2:0:0:
88,218,89441,2,0,L|38:224,2,50,2|0|0,1:2|0:0|0:2,0:0:0:0:
110,172,89915,2,0,P|94:133|41:97,1,100,2|2,3:2|1:2,0:0:0:0:
125,35,90546,2,0,L|224:24,1,100,0|2,3:2|1:2,0:0:0:0:
323,43,91178,6,0,P|298:92|243:123,1,100,2|0,3:2|1:2,0:0:0:0:
171,159,91809,2,0,L|110:166,2,50,2|2|2,3:2|3:2|1:2,0:0:0:0:
200,200,92283,1,0,0:2:0:0:
200,200,92441,2,0,P|230:218|306:217,1,100,2|2,3:2|1:2,0:0:0:0:
364,150,93073,2,0,P|389:192|392:241,1,100,2|2,3:2|1:2,0:0:0:0:
328,318,93704,6,0,L|216:343,1,100,6|2,3:2|1:2,0:0:0:0:
180,339,94178,2,0,P|144:311|74:298,1,100,2|0,0:2|3:2,0:0:0:0:
42,303,94652,1,2,1:2:0:0:
42,303,94810,2,0,L|14:187,1,100,0|2,3:2|3:2,0:0:0:0:
8,156,95284,1,0,1:2:0:0:
107,156,95599,2,0,P|165:151|217:114,1,100,0|2,3:2|1:2,0:0:0:0:
266,54,96231,6,0,P|297:98|297:160,1,100,2|2,3:2|1:2,0:0:0:0:
284,190,96704,2,0,P|289:239|319:278,1,100,2|0,0:2|3:2,0:0:0:0:
365,299,97178,2,0,L|434:282,1,50,2|4,1:2|0:2,0:0:0:0:
455,259,97494,1,2,3:2:0:0:
425,163,97809,1,0,1:2:0:0:
341,109,98125,1,2,3:2:0:0:
341,109,98283,2,0,L|284:91,1,50,0|0,3:2|1:2,0:0:0:0:
192,93,98757,6,0,P|169:131|112:161,1,100,6|2,3:2|1:2,0:0:0:0:
72,169,99231,1,0,3:2:0:0:
72,169,99388,2,0,L|48:114,2,50,2|0|2,1:2|3:2|1:2,0:0:0:0:
76,269,100020,2,0,L|100:326,1,50,2|0,1:2|3:2,0:0:0:0:
123,358,100336,1,2,1:2:0:0:
223,342,100652,2,0,L|331:325,1,100,2|2,1:2|1:2,0:0:0:0:
340,228,101283,5,6,3:2:0:0:
355,129,101599,1,2,1:2:0:0:
264,88,101915,2,0,L|166:37,1,100,2|2,1:2|1:2,0:0:0:0:
102,110,102546,2,0,L|54:151,1,50,2|0,1:2|3:2,0:0:0:0:
30,180,102862,1,2,1:2:0:0:
79,269,103178,2,0,P|134:260|187:279,1,100,2|2,1:2|1:2,0:0:0:0:
241,347,103809,6,0,L|351:312,1,100,4|0,3:2|3:2,0:0:0:0:
334,216,104441,1,0,3:2:0:0:
236,191,104757,1,0,3:2:0:0:
175,272,105073,2,0,P|142:227|139:165,1,100,4|0,3:2|3:2,0:0:0:0:
193,102,105704,1,0,3:2:0:0:
236,191,106020,1,0,3:2:0:0:
293,109,106336,6,0,L|281:49,2,50,4|0|0,3:2|3:2|3:2,0:0:0:0:
328,144,106809,1,0,3:2:0:0:
328,144,106967,2,0,L|341:208,2,50,0|0|0,3:2|3:2|3:2,0:0:0:0:
379,57,107599,2,0,P|419:98|428:158,1,100,6|0,1:2|3:2,0:0:0:0:
440,187,108073,2,0,L|459:292,1,100,2|0,1:2|3:2,0:0:0:0:
426,324,108546,2,0,L|383:381,1,50,2|2,1:2|3:2,0:0:0:0:
101,293,111388,6,0,L|237:262,1,100,4|0,1:2|3:2,0:0:0:0:
237,238,111862,2,0,L|337:214,1,100,0|0,1:2|3:2,0:0:0:0:
377,189,112336,1,0,1:2:0:0:
433,106,112652,6,0,P|382:89|332:100,1,100,4|0,3:2|1:2,0:0:0:0:
239,80,113283,2,0,L|187:54,2,50,0|0|0,3:2|3:2|1:2,0:0:0:0:
244,130,113757,1,2,3:2:0:0:
154,174,114073,2,0,L|104:149,1,50,0|0,3:2|1:2,0:0:0:0:
64,129,114388,1,2,3:2:0:0:
23,220,114704,1,2,3:2:0:0:
111,267,115020,6,0,P|154:278|214:258,1,100,4|0,1:2|3:2,0:0:0:0:
244,230,115494,1,0,1:2:0:0:
244,130,115809,2,0,L|237:65,2,50,0|0|0,3:2|1:2|0:0,0:0:0:0:
292,144,116283,2,0,L|341:140,1,50,0|2,3:2|1:2,0:0:0:0:
394,225,116757,2,0,L|333:230,1,50,0|2,3:2|1:2,0:0:0:0:
305,321,117231,2,0,L|378:314,1,50,0|0,3:2|3:2,0:0:0:0:
404,312,117546,1,2,1:2:0:0:
