osu file format v14

[General]
AudioFilename: Ontology.mp3
AudioLeadIn: 0
PreviewTime: 67138
Countdown: 0
SampleSet: Soft
StackLeniency: 0.7
Mode: 0
LetterboxInBreaks: 0
EpilepsyWarning: 1
WidescreenStoryboard: 1

[Editor]
Bookmarks: 38085,48191
DistanceSpacing: 1.3
BeatDivisor: 4
GridSize: 4
TimelineZoom: 2

[Metadata]
Title:Kyoumei Sekai no Ontology
TitleUnicode:共鳴世界の存在論
Artist:Ninomiya Asuka (CV: Aoki Shiki)
ArtistUnicode:二宮飛鳥 (CV: 青木志貴)
Creator:Ujimatsu Chiya
Version:Nao's Hard
Source:アイドルマスター シンデレラガールズ スターライトステージ
Tags:THE iDOLM@STER Cinderella Girls Starlight Stage Affirmation [C u r i] [C_u_r_i] Reillia Nao Tomori Matsubara Kanon walaowey Neoskylove Irohas mugiwarasekai eINess [ Kuro Usagi ] [_Kuro_Usagi_] Japanese Rock Video Game MASTER 043
BeatmapID:1778996
BeatmapSetID:841338

[Difficulty]
HPDrainRate:5.3
CircleSize:3.3
OverallDifficulty:6.6
ApproachRate:8
SliderMultiplier:1.36
SliderTickRate:1

[Events]
//Background and Video events
0,0,"22.jpg",0,0
//Break Periods
2,48431,57546
//Storyboard Layer 0 (Background)
//Storyboard Layer 1 (Fail)
//Storyboard Layer 2 (Pass)
//Storyboard Layer 3 (Foreground)
//Storyboard Layer 4 (Overlay)
//Storyboard Sound Samples

[TimingPoints]
231,315.789473684211,4,2,1,25,1,0
2283,-142.857142857143,4,2,1,50,0,0
2362,-142.857142857143,4,2,1,55,0,0
2678,-142.857142857143,4,2,1,5,0,0
2757,-100,4,2,1,65,0,1
4020,-100,4,2,2,60,0,1
4178,-100,4,2,1,65,0,1
6546,-100,4,2,1,60,0,1
6704,-100,4,2,1,65,0,1
10888,-100,4,2,1,35,0,1
10967,-100,4,2,1,45,0,1
11125,-100,4,2,1,65,0,1
11678,-100,4,2,1,5,0,1
11757,-100,4,2,1,65,0,1
12862,-100,4,2,1,75,0,0
15073,-166.666666666667,4,2,2,75,0,0
15309,-166.666666666667,4,2,2,5,0,0
15388,-100,4,2,1,65,0,0
17441,-100,4,2,1,40,0,0
17757,-100,4,2,1,50,0,1
18231,-111.111111111111,4,2,1,55,0,0
22178,-111.111111111111,4,2,2,65,0,0
22415,-111.111111111111,4,2,2,5,0,0
22494,-111.111111111111,4,2,2,65,0,0
22731,-111.111111111111,4,2,2,5,0,0
22809,-111.111111111111,4,2,1,55,0,0
27546,-111.111111111111,4,2,1,50,0,0
28020,-111.111111111111,4,2,1,55,0,0
37494,-111.111111111111,4,2,1,45,0,0
37652,-111.111111111111,4,2,1,55,0,0
38125,-83.3333333333333,4,2,1,55,0,0
47915,-83.3333333333333,4,2,1,40,0,0
48231,-200,4,2,2,45,0,0
58336,-133.333333333333,4,2,1,35,0,0
59599,-133.333333333333,4,2,1,40,0,0
60862,-133.333333333333,4,2,1,45,0,0
62125,-133.333333333333,4,2,1,50,0,0
63388,-133.333333333333,4,2,1,55,0,0
64652,-125,4,2,1,60,0,0
65915,-111.111111111111,4,2,1,65,0,0
66388,-111.111111111111,4,2,1,55,0,0
66546,-111.111111111111,4,2,1,65,0,0
67020,-111.111111111111,4,2,1,55,0,0
67178,-263.157894736842,4,2,2,35,0,0
67257,-200,4,2,1,5,0,0
67809,-125,4,2,2,45,0,0
67888,-125,4,2,1,5,0,0
68441,-90.9090909090909,4,2,1,75,0,1
78467,-90.9090909090909,4,2,1,75,0,0
78546,-90.9090909090909,4,2,1,75,0,1
82967,-90.9090909090909,4,2,1,85,0,1
83125,-90.9090909090909,4,2,1,75,0,1
88178,-90.9090909090909,4,2,1,70,0,1
88573,-90.9090909090909,4,2,1,75,0,0
88652,-90.9090909090909,4,2,1,75,0,1
107125,-90.9090909090909,4,2,1,65,0,1
107599,-90.9090909090909,4,2,1,75,0,1
107757,-90.9090909090909,4,2,1,70,0,1
108073,-90.9090909090909,4,2,1,75,0,1
108546,-90.9090909090909,4,2,1,85,0,1
108704,-100,4,2,1,85,0,0
111388,-100,4,2,1,75,0,0
115809,-100,4,2,1,85,0,0
116125,-100,4,2,1,75,0,0

[Colours]
Combo1 : 244,139,100
Combo2 : 0,128,255
Combo3 : 128,128,128
Combo4 : 80,11,183
Combo5 : 128,255,255

[HitObjects]
114,186,231,6,0,L|190:182,3,68,2|0|0|0,0:0|0:0|0:0|0:0,0:0:0:0:
509,342,1494,6,0,L|433:338,3,68,2|0|0|0,0:0|0:0|0:0|0:0,0:0:0:0:
271,266,2283,6,2,P|252:214|308:167,1,118.999996368408,6|0,0:0|0:0,1:0:0:0:
369,168,2757,6,0,P|409:181|493:115,1,136,6|8,0:0|0:0,0:0:0:0:
429,50,3231,1,0,0:0:0:0:
331,79,3388,2,0,L|235:67,1,68,2|2,0:0|0:0,0:0:0:0:
164,137,3704,1,8,0:0:0:0:
164,137,3862,1,2,0:0:0:0:
70,90,4020,6,0,L|57:4,2,68,2|2|8,0:0|0:0|0:0,0:0:0:0:
16,180,4494,1,0,0:0:0:0:
105,246,4652,2,0,L|178:236,1,68,2|2,0:0|0:0,0:0:0:0:
276,287,4967,2,0,P|328:293|370:262,1,102,8|0,0:0|0:0,0:0:0:0:
356,182,5283,6,0,P|370:236|459:274,1,136,4|8,0:0|0:0,0:0:0:0:
508,197,5757,1,0,0:0:0:0:
432,128,5915,2,0,L|435:41,2,68,2|2|8,0:0|0:0|0:0,0:0:0:0:
339,181,6388,6,0,P|279:192|198:149,1,136,2|2,0:0|0:0,0:0:0:0:
114,215,6862,2,0,P|107:160|106:132,1,68,8|0,0:0|0:0,0:0:0:0:
174,59,7178,1,2,0:0:0:0:
174,59,7336,2,0,P|237:56|269:49,1,68,2|8,0:0|0:0,0:0:0:0:
470,240,7809,6,0,P|422:213|322:233,1,136,6|8,0:0|0:0,0:0:0:0:
272,304,8283,2,0,L|187:303,1,68,0|2,0:0|0:0,0:0:0:0:
119,366,8599,1,2,0:0:0:0:
119,366,8757,1,8,0:0:0:0:
45,300,8915,5,2,0:0:0:0:
193,159,9231,2,0,L|185:79,1,68,2|8,0:0|0:0,0:0:0:0:
281,206,9546,2,0,P|332:213|422:174,1,136,6|0,0:0|0:0,0:0:0:0:
331,64,10020,2,0,P|300:94|340:108,1,102,2|0,0:0|0:0,0:0:0:0:
416,90,10336,6,0,L|498:70,1,68,6|0,0:0|0:0,0:0:0:0:
369,201,10652,1,8,0:0:0:0:
258,164,10809,2,0,P|249:117|259:79,1,68,2|8,0:0|0:0,0:0:0:0:
203,245,11125,2,0,P|205:278|197:311,1,68,2|0,0:0|0:0,0:0:0:0:
115,371,11441,5,6,0:0:0:0:
313,261,11757,2,0,L|411:252,1,68,6|8,0:0|0:0,0:0:0:0:
257,173,12073,2,0,P|225:212|229:315,1,136,6|2,0:0|3:2,0:0:0:0:
310,361,12546,1,2,3:2:0:0:
310,361,12625,1,2,3:2:0:0:
310,361,12704,1,2,3:2:0:0:
310,361,12783,1,2,3:2:0:0:
310,361,12862,6,0,L|454:344,1,136,4|0,0:1|0:0,0:0:0:0:
505,175,13494,2,0,P|503:115|437:78,1,136,0|0,0:1|0:0,0:0:0:0:
337,188,14125,2,0,P|263:216|197:185,1,136,0|0,0:1|0:1,0:0:0:0:
141,61,14757,1,0,0:1:0:0:
34,149,15073,2,0,L|24:224,1,61.1999981323243,2|0,0:0|0:0,0:0:0:0:
18,289,15388,5,6,0:0:0:0:
122,231,15546,2,0,P|173:224|198:226,1,68,2|8,0:0|0:0,0:0:0:0:
295,283,15862,1,0,3:0:0:0:
295,283,15941,1,0,3:0:0:0:
295,283,16020,2,0,L|390:269,1,68,0|2,3:0|0:0,0:0:0:0:
454,222,16336,2,0,P|462:166|451:134,1,68,8|0,0:0|3:3,0:0:0:0:
437,122,16573,1,0,3:3:0:0:
437,122,16652,6,0,L|354:127,1,68,2|2,0:0|0:0,0:0:0:0:
283,192,16967,1,8,0:0:0:0:
196,127,17125,1,2,0:0:0:0:
196,127,17204,1,2,0:0:0:0:
196,127,17283,2,0,L|108:131,1,68,2|0,0:0|1:0,0:0:0:0:
103,109,17757,6,0,P|104:176|103:277,1,136,4|0,1:2|0:0,0:0:0:0:
41,309,18231,2,0,P|90:294|168:333,1,122.399996264649,2|2,0:0|0:0,0:0:0:0:
239,353,18704,1,2,0:0:0:0:
223,262,18862,1,8,0:0:0:0:
300,212,19020,2,0,P|345:242|423:228,1,122.399996264649,2|2,0:0|0:0,0:0:0:0:
459,156,19494,1,8,0:0:0:0:
459,156,19652,1,0,0:0:0:0:
281,113,19967,2,0,P|271:78|267:36,1,61.1999981323243,0|0,1:0|0:0,0:0:0:0:
347,7,20283,6,0,P|365:78|379:153,1,122.399996264649,6|0,0:0|0:0,0:0:0:0:
317,201,20757,2,0,P|299:249|320:334,1,122.399996264649,2|2,0:0|0:0,0:0:0:0:
386,370,21231,1,2,0:0:0:0:
386,370,21388,1,8,0:0:0:0:
512,274,21546,6,0,P|443:267|378:264,1,122.399996264649,2|2,0:0|0:0,0:0:0:0:
312,319,22020,1,8,0:0:0:0:
211,262,22178,2,0,L|201:190,1,61.1999981323243,2|0,0:0|0:0,0:0:0:0:
108,309,22494,2,0,L|122:232,1,61.1999981323243,2|0,0:0|0:0,0:0:0:0:
27,360,22809,6,0,L|6:226,1,122.399996264649,6|2,0:0|0:0,0:0:0:0:
62,160,23283,2,0,L|62:91,1,61.1999981323243,8|0,0:0|0:0,0:0:0:0:
142,24,23599,1,2,0:0:0:0:
142,24,23757,1,2,0:0:0:0:
142,24,23915,1,8,0:0:0:0:
215,96,24073,6,0,L|355:91,1,122.399996264649,2|2,0:0|0:0,0:0:0:0:
417,31,24546,1,8,0:0:0:0:
486,113,24704,2,0,L|494:180,1,61.1999981323243,0|0,1:0|0:0,0:0:0:0:
414,238,25020,2,0,L|408:318,1,61.1999981323243,2|8,0:0|0:0,0:0:0:0:
340,173,25336,6,0,P|268:163|217:211,1,122.399996264649,6|2,0:0|0:0,0:0:0:0:
193,283,25809,1,8,0:0:0:0:
107,229,25967,1,6,0:0:0:0:
102,255,26283,5,2,0:0:0:0:
198,300,26441,1,8,0:0:0:0:
212,181,26599,2,0,L|200:107,1,61.1999981323243,0|0,1:0|0:0,0:0:0:0:
311,123,26915,2,0,L|296:52,1,61.1999981323243,0|0,1:0|0:0,0:0:0:0:
409,128,27231,6,0,P|436:164|428:261,1,122.399996264649,6|8,0:0|0:0,0:0:0:0:
365,327,27704,1,8,0:0:0:0:
365,327,27783,1,10,0:0:0:0:
365,327,27862,1,8,0:0:0:0:
365,327,27941,1,2,0:0:0:0:
365,327,28020,6,0,L|236:318,1,122.399996264649,6|8,0:0|0:0,0:0:0:0:
36,248,28652,2,0,P|90:216|163:232,1,122.399996264649,2|8,0:0|0:0,0:0:0:0:
244,172,29125,2,0,L|243:97,1,61.1999981323243,2|0,0:0|0:0,0:0:0:0:
316,33,29441,2,0,P|341:76|345:112,1,61.1999981323243,2|8,0:0|0:0,0:0:0:0:
421,159,29757,2,0,P|431:130|449:106,1,61.1999981323243,0|2,0:0|0:0,0:0:0:0:
331,186,30073,2,0,P|316:232|322:291,1,91.7999971984864,0|0,1:0|0:0,0:0:0:0:
387,317,30388,6,0,L|261:336,1,122.399996264649,6|2,0:0|0:0,0:0:0:0:
163,359,30862,2,0,P|120:367|94:363,1,61.1999981323243,8|0,0:0|0:0,0:0:0:0:
27,292,31178,1,0,3:0:0:0:
27,292,31336,2,0,L|21:211,1,61.1999981323243,2|8,0:0|0:0,0:0:0:0:
107,169,31652,6,0,P|102:96|95:39,1,122.399996264649,0|2,0:0|0:0,0:0:0:0:
12,113,32125,1,8,0:0:0:0:
126,193,32283,2,0,L|209:185,1,61.1999981323243,2|0,0:0|0:0,0:0:0:0:
90,272,32599,2,0,L|153:278,1,61.1999981323243,2|0,0:0|0:0,0:0:0:0:
59,369,32915,6,0,L|202:360,1,122.399996264649,6|2,0:0|0:0,0:0:0:0:
264,292,33388,2,0,P|344:292|383:331,1,122.399996264649,8|2,0:0|0:0,0:0:0:0:
464,269,33862,1,2,0:0:0:0:
401,193,34020,1,8,0:0:0:0:
477,123,34178,6,0,L|487:0,1,122.399996264649,2|2,0:0|0:0,0:0:0:0:
393,48,34652,1,8,0:0:0:0:
295,16,34809,2,0,L|212:10,1,61.1999981323243,6|0,0:0|0:0,0:0:0:0:
100,78,35125,2,0,L|173:76,1,61.1999981323243,6|8,0:0|0:0,0:0:0:0:
332,158,35441,6,0,P|272:134|206:170,1,122.399996264649,4|0,0:0|0:0,0:0:0:0:
182,238,35915,1,8,0:0:0:0:
277,298,36073,2,0,L|403:284,1,122.399996264649,6|2,0:0|0:0,0:0:0:0:
204,363,36546,2,0,L|73:346,1,122.399996264649,12|0,0:0|0:0,0:0:0:0:
22,262,37020,2,0,P|11:213|19:191,1,61.1999981323243,2|8,0:0|0:0,0:0:0:0:
88,129,37336,1,4,3:2:0:0:
88,129,37494,1,0,1:0:0:0:
168,198,37652,2,0,L|308:191,1,122.399996264649,8|0,0:0|1:0,0:0:0:0:
363,273,38125,6,0,B|490:250|510:83|419:9|346:26|346:26|301:53|301:53|223:19,1,489.599985058594,6|8,0:0|0:0,0:0:0:0:
136,9,39231,2,0,P|159:89|174:173,1,163.199995019531,2|2,0:0|0:0,0:0:0:0:
123,260,39704,1,8,0:0:0:0:
123,260,39862,2,0,P|190:219|264:247,1,163.199995019531,2|2,0:0|0:0,0:0:0:0:
201,320,40336,1,8,0:0:0:0:
31,207,40652,6,0,L|27:116,1,81.5999975097657,2|2,0:0|0:0,0:0:0:0:
101,43,40967,1,8,0:0:0:0:
101,43,41125,1,2,0:0:0:0:
181,115,41283,2,0,L|276:110,2,81.5999975097657,2|2|8,0:0|0:0|0:0,0:0:0:0:
309,31,41757,2,0,P|348:69|321:190,1,163.199995019531,2|2,0:0|0:0,0:0:0:0:
244,220,42231,1,8,0:0:0:0:
244,220,42388,2,0,P|227:297|275:359,1,163.199995019531,2|2,0:0|0:0,0:0:0:0:
382,356,42862,1,8,0:0:0:0:
382,356,43020,1,2,0:0:0:0:
435,245,43178,6,0,L|442:152,1,81.5999975097657,6|2,0:0|0:0,0:0:0:0:
453,38,43494,1,8,0:0:0:0:
354,100,43652,2,0,P|298:102|265:94,1,81.5999975097657,2|0,0:0|0:0,0:0:0:0:
188,37,43967,1,2,0:0:0:0:
100,116,44125,1,8,0:0:0:0:
184,174,44283,6,0,B|203:234|203:234|178:290|97:294,1,163.199995019531,2|2,0:0|0:0,0:0:0:0:
50,196,44757,1,8,0:0:0:0:
121,101,44915,2,0,P|197:80|264:122,1,163.199995019531,2|2,0:0|0:0,0:0:0:0:
365,60,45388,2,0,P|375:116|383:159,1,81.5999975097657,8|0,0:0|0:0,0:0:0:0:
482,35,45704,6,0,L|471:225,1,163.199995019531,6|8,0:0|0:0,0:0:0:0:
384,288,46178,1,2,0:0:0:0:
275,229,46336,2,0,P|273:169|277:144,1,81.5999975097657,2|2,0:0|0:0,0:0:0:0:
377,12,46652,2,0,P|382:53|379:94,1,81.5999975097657,8|2,0:0|0:0,0:0:0:0:
265,166,46967,6,0,L|86:148,1,163.199995019531,8|8,0:0|0:0,0:0:0:0:
22,240,47441,2,0,P|16:293|133:336,1,163.199995019531,2|8,0:0|0:0,0:0:0:0:
182,306,47915,1,8,0:0:0:0:
182,306,47994,1,8,0:0:0:0:
182,306,48073,1,8,0:0:0:0:
286,339,48231,1,6,0:0:0:0:
221,331,58336,6,0,L|224:280,1,51.0000019454957,4|0,3:1|0:0,0:0:0:0:
167,201,58652,2,0,L|164:150,1,51.0000019454957,4|0,3:1|0:0,0:0:0:0:
226,79,58967,2,0,P|275:52|333:62,1,102.000003890991,4|4,3:1|3:1,0:0:0:0:
444,203,59599,6,0,L|513:198,1,51.0000019454957,4|0,3:1|0:0,0:0:0:0:
373,267,59915,2,0,L|304:262,1,51.0000019454957,4|0,3:1|0:0,0:0:0:0:
253,319,60231,2,0,B|190:347|132:330,1,102.000003890991,4|4,3:1|3:1,0:0:0:0:
20,197,60862,6,0,L|14:129,1,51.0000019454957,4|0,3:1|0:0,0:0:0:0:
114,59,61178,2,0,L|110:110,1,51.0000019454957,4|0,3:1|0:0,0:0:0:0:
194,172,61494,2,0,P|248:192|304:170,1,102.000003890991,4|4,3:1|3:1,0:0:0:0:
403,18,62125,6,0,P|332:46|324:80,1,102.000003890991,4|4,3:1|3:1,0:0:0:0:
377,145,62599,2,0,L|445:132,2,51.0000019454957,0|4|0,3:0|3:1|0:0,0:0:0:0:
299,206,63073,2,0,P|297:241|299:274,1,51.0000019454957,4|0,3:1|0:0,0:0:0:0:
213,155,63388,6,0,P|205:218|206:278,1,102.000003890991,0|0,3:0|3:0,0:0:0:0:
259,352,63862,2,0,P|327:335|370:345,1,102.000003890991,2|0,0:0|0:0,0:0:0:0:
452,371,64336,1,0,3:0:0:0:
511,198,64652,6,0,P|500:153|434:117,1,108.8,0|0,3:0|3:0,0:0:0:0:
361,165,65125,2,0,P|310:165|235:168,1,108.8,2|0,0:0|0:0,0:0:0:0:
168,118,65599,2,0,P|156:163|159:187,1,54.4,0|0,3:0|0:0,0:0:0:0:
219,255,65915,5,0,3:0:0:0:
457,102,66231,1,8,0:0:0:0:
376,51,66388,1,8,0:0:0:0:
323,138,66546,2,0,L|321:215,1,61.1999981323243,0|0,3:0|3:0,0:0:0:0:
250,85,66862,2,0,L|252:18,1,61.1999981323243,8|0,0:0|3:0,0:0:0:0:
179,152,67178,6,0,B|125:170|78:158|78:158|60:127|81:104,1,155.039998107422,2|0,0:0|0:0,0:0:0:0:
352,31,68441,6,0,L|367:191,1,149.60000456543,6|8,0:0|0:0,0:0:0:0:
296,265,68915,1,0,0:0:0:0:
209,210,69073,1,2,0:0:0:0:
120,267,69231,2,0,P|113:320|118:348,1,74.8000022827149,2|8,0:0|0:0,0:0:0:0:
52,201,69546,1,2,0:0:0:0:
135,128,69704,6,0,P|146:73|60:10,1,149.60000456543,0|8,0:0|0:0,0:0:0:0:
36,171,70178,2,0,L|38:252,1,74.8000022827149,0|2,0:0|0:0,0:0:0:0:
136,310,70494,2,0,L|137:235,1,74.8000022827149,2|8,0:0|0:0,0:0:0:0:
218,163,70809,1,2,0:0:0:0:
304,243,70967,6,0,L|398:235,1,74.8000022827149,2|0,0:0|0:0,0:0:0:0:
454,158,71283,1,8,0:0:0:0:
357,98,71441,2,0,P|351:61|355:24,1,74.8000022827149,0|2,0:0|0:0,0:0:0:0:
258,148,71757,2,0,P|261:109|249:56,1,74.8000022827149,2|8,0:0|0:0,0:0:0:0:
54,43,72073,6,0,P|91:105|175:104,1,149.60000456543,6|2,0:0|0:0,0:0:0:0:
259,177,72546,2,0,P|263:250|262:273,1,74.8000022827149,8|2,0:0|0:0,0:0:0:0:
188,333,72862,1,2,0:0:0:0:
188,333,73020,1,2,0:0:0:0:
107,281,73178,1,8,0:0:0:0:
297,353,73494,6,0,L|461:332,1,149.60000456543,6|8,0:0|0:0,0:0:0:0:
507,234,73967,2,0,P|512:172|492:141,1,74.8000022827149,0|2,0:0|0:0,0:0:0:0:
412,43,74283,2,0,L|421:125,1,74.8000022827149,2|8,0:0|0:0,0:0:0:0:
356,201,74599,6,0,P|304:224|202:200,1,149.60000456543,2|2,0:0|0:0,0:0:0:0:
203,106,75073,1,8,0:0:0:0:
46,229,75388,2,0,P|50:294|49:319,1,74.8000022827149,2|2,0:0|0:0,0:0:0:0:
150,362,75704,2,0,P|150:324|153:287,1,74.8000022827149,8|0,0:0|0:0,0:0:0:0:
376,273,76020,6,0,P|318:322|243:316,1,149.60000456543,6|8,0:0|0:0,0:0:0:0:
223,215,76494,2,0,L|217:119,1,74.8000022827149,0|2,0:0|0:0,0:0:0:0:
142,70,76809,1,2,0:0:0:0:
235,20,76967,1,8,0:0:0:0:
310,96,77125,6,0,P|390:87|465:82,1,149.60000456543,6|0,0:0|0:0,0:0:0:0:
284,185,77599,2,0,P|216:185|187:188,1,74.8000022827149,8|2,3:2|3:2,0:0:0:0:
101,150,77915,1,2,3:2:0:0:
101,150,78073,1,8,3:2:0:0:
120,264,78231,1,2,0:0:0:0:
120,264,78388,1,2,0:0:0:0:
209,345,78546,6,0,P|313:334|366:345,1,149.60000456543,6|8,0:0|0:0,0:0:0:0:
450,280,79020,2,0,P|454:227|434:178,1,74.8000022827149,2|2,0:0|0:0,0:0:0:0:
369,133,79336,1,0,0:0:0:0:
300,199,79494,1,8,0:0:0:0:
218,140,79652,1,2,0:0:0:0:
138,209,79809,6,0,L|-22:203,1,149.60000456543,0|8,0:0|0:0,0:0:0:0:
129,112,80283,2,0,L|215:103,1,74.8000022827149,0|2,0:0|0:0,0:0:0:0:
309,174,80599,2,0,L|391:177,1,74.8000022827149,0|8,0:0|0:0,0:0:0:0:
472,105,80915,1,0,3:0:0:0:
392,28,81073,6,0,P|360:96|387:175,1,149.60000456543,6|8,0:0|0:0,0:0:0:0:
477,239,81546,2,0,B|508:280|505:328|505:328|459:319|420:329,1,149.60000456543,6|2,0:0|0:0,0:0:0:0:
348,372,82020,1,8,0:0:0:0:
137,302,82178,6,0,P|181:268|281:299,1,149.60000456543,4|2,0:0|0:0,0:0:0:0:
367,228,82652,2,0,L|366:137,1,74.8000022827149,8|0,0:0|0:0,0:0:0:0:
274,73,82967,1,2,0:0:0:0:
274,73,83125,1,2,0:0:0:0:
186,139,83283,1,8,0:0:0:0:
40,19,83599,6,0,P|40:88|34:176,1,149.60000456543,6|8,0:0|0:0,0:0:0:0:
96,255,84073,1,0,0:0:0:0:
198,211,84231,2,0,L|284:206,1,74.8000022827149,2|2,0:0|0:0,0:0:0:0:
400,285,84546,2,0,P|356:277|318:287,1,74.8000022827149,8|2,0:0|0:0,0:0:0:0:
487,352,84862,6,0,L|497:182,1,149.60000456543,6|8,0:0|0:0,0:0:0:0:
438,109,85336,2,0,P|420:45|417:15,1,74.8000022827149,0|2,0:0|0:0,0:0:0:0:
377,194,85652,2,0,P|307:196|277:190,1,74.8000022827149,2|8,0:0|0:0,0:0:0:0:
206,134,85967,1,0,0:0:0:0:
206,134,86046,1,0,0:0:0:0:
206,134,86125,6,0,P|264:199|262:275,1,149.60000456543,6|8,0:0|0:0,0:0:0:0:
196,346,86599,1,2,0:0:0:0:
85,326,86757,2,0,L|-4:319,1,74.8000022827149,2|2,0:0|0:0,0:0:0:0:
101,230,87073,2,0,L|190:223,1,74.8000022827149,8|2,0:0|0:0,0:0:0:0:
53,133,87388,5,2,0:0:0:0:
53,133,87546,1,0,0:0:0:0:
147,90,87704,2,0,L|147:9,1,74.8000022827149,8|0,0:0|0:0,0:0:0:0:
249,108,88020,2,0,L|251:187,1,74.8000022827149,2|0,0:0|1:0,0:0:0:0:
329,52,88335,1,0,1:0:0:0:
341,52,88414,1,0,1:0:0:0:
353,53,88493,1,0,1:0:0:0:
365,57,88572,1,0,1:0:0:0:
377,63,88652,6,0,L|375:233,1,149.60000456543,6|8,0:0|0:0,0:0:0:0:
296,293,89125,2,0,P|229:301|195:300,1,74.8000022827149,0|2,0:0|0:0,0:0:0:0:
128,238,89441,1,2,0:0:0:0:
64,318,89599,1,8,0:0:0:0:
153,225,89757,6,0,P|159:77|159:67,1,149.60000456543,2|2,0:0|0:0,0:0:0:0:
253,11,90231,2,0,P|255:49|259:86,1,74.8000022827149,8|0,0:0|0:0,0:0:0:0:
341,175,90546,1,2,0:0:0:0:
341,175,90704,1,2,0:0:0:0:
260,247,90862,2,0,P|223:247|186:252,1,74.8000022827149,8|0,0:0|0:0,0:0:0:0:
329,331,91178,6,0,P|402:309|473:333,1,149.60000456543,2|8,0:0|0:0,0:0:0:0:
186,235,91809,1,2,0:0:0:0:
186,235,91967,1,2,0:0:0:0:
159,331,92125,1,8,0:0:0:0:
70,280,92283,6,0,P|61:219|68:111,1,149.60000456543,2|0,0:0|0:0,0:0:0:0:
149,37,92757,1,8,0:0:0:0:
334,142,93073,1,2,0:0:0:0:
334,142,93231,1,2,0:0:0:0:
244,96,93388,2,0,L|237:200,1,74.8000022827149,8|0,0:0|0:0,0:0:0:0:
176,344,93704,6,0,P|243:325|340:331,1,149.60000456543,6|8,0:0|0:0,0:0:0:0:
449,301,94178,2,0,P|458:233|395:152,1,149.60000456543,0|2,0:0|0:0,0:0:0:0:
327,118,94652,1,8,0:0:0:0:
246,189,94809,6,0,L|242:263,1,74.8000022827149,2|0,0:0|0:0,0:0:0:0:
159,348,95125,1,2,0:0:0:0:
159,348,95283,2,0,L|143:249,1,74.8000022827149,8|0,0:0|0:0,0:0:0:0:
83,186,95599,1,2,0:0:0:0:
83,186,95757,1,2,0:0:0:0:
214,106,95915,2,0,P|277:105|318:160,1,112.200003424072,8|0,0:0|0:0,0:0:0:0:
364,196,96231,6,0,P|291:181|235:223,1,149.60000456543,2|8,0:0|0:0,0:0:0:0:
374,297,96704,2,0,L|471:288,1,74.8000022827149,0|2,0:0|0:0,0:0:0:0:
296,372,97020,1,2,0:0:0:0:
296,372,97178,1,8,0:0:0:0:
208,311,97336,6,0,P|151:297|36:341,1,149.60000456543,6|2,0:0|0:0,0:0:0:0:
286,250,97809,2,0,L|289:168,2,74.8000022827149,8|0|2,0:0|0:0|0:0,0:0:0:0:
386,161,98283,1,8,0:0:0:0:
265,79,98441,1,8,0:0:0:0:
265,79,98520,1,2,0:0:0:0:
265,79,98599,1,8,0:0:0:0:
265,79,98678,1,2,0:0:0:0:
265,79,98757,6,0,P|206:95|117:67,1,149.60000456543,6|8,0:0|0:0,0:0:0:0:
40,141,99231,2,0,P|36:190|44:223,1,74.8000022827149,2|8,0:0|0:0,0:0:0:0:
141,282,99546,1,2,0:0:0:0:
257,226,99704,2,0,L|359:241,1,74.8000022827149,8|2,0:0|0:0,0:0:0:0:
435,154,100020,6,0,P|443:210|433:243,1,74.8000022827149,8|2,0:0|0:0,0:0:0:0:
346,118,100336,2,0,P|357:64|383:38,1,74.8000022827149,8|2,0:0|0:0,0:0:0:0:
264,179,100652,2,0,L|177:179,1,74.8000022827149,8|2,0:0|0:0,0:0:0:0:
46,118,100967,1,8,0:0:0:0:
133,79,101125,1,2,0:0:0:0:
75,225,101283,6,0,L|79:388,1,149.60000456543,6|8,0:0|0:0,0:0:0:0:
184,321,101757,2,0,L|182:241,1,74.8000022827149,2|8,0:0|0:0,0:0:0:0:
267,168,102073,1,2,0:0:0:0:
352,249,102231,2,0,P|412:257|446:252,1,74.8000022827149,8|2,0:0|0:0,0:0:0:0:
276,312,102546,6,0,P|263:368|253:396,1,74.8000022827149,8|2,0:0|0:0,0:0:0:0:
200,227,102862,2,0,L|110:229,1,74.8000022827149,8|2,0:0|0:0,0:0:0:0:
260,110,103178,2,0,P|217:63|138:12,1,149.60000456543,8|8,0:0|0:0,0:0:0:0:
401,111,103809,6,0,P|356:223|352:278,1,149.60000456543,6|8,0:0|0:0,0:0:0:0:
427,334,104283,1,0,3:0:0:0:
316,380,104441,2,0,L|237:367,1,74.8000022827149,0|0,3:0|3:0,0:0:0:0:
94,317,104757,2,0,P|166:296|194:299,1,74.8000022827149,8|0,0:0|3:0,0:0:0:0:
6,371,105073,6,0,L|-9:221,1,149.60000456543,6|8,0:0|0:0,0:0:0:0:
64,134,105546,1,0,3:0:0:0:
164,191,105704,1,8,0:0:0:0:
164,191,105862,1,0,3:0:0:0:
267,129,106020,2,0,P|271:63|269:36,1,74.8000022827149,8|0,0:0|3:0,0:0:0:0:
331,216,106336,6,0,B|393:197|400:197|432:202|432:202|409:267,1,149.60000456543,6|8,0:0|0:0,0:0:0:0:
244,273,106809,2,0,L|236:193,1,74.8000022827149,8|0,0:0|3:0,0:0:0:0:
162,337,107125,1,8,0:0:0:0:
275,366,107283,2,0,L|382:353,1,74.8000022827149,8|8,0:0|0:0,0:0:0:0:
484,232,107599,5,8,0:0:0:0:
377,188,107757,2,0,P|387:248|393:270,1,74.8000022827149,2|2,1:2|1:2,0:0:0:0:
453,108,108073,1,0,3:0:0:0:
350,54,108231,2,0,L|267:57,1,74.8000022827149,8|8,0:0|0:0,0:0:0:0:
166,117,108546,5,0,3:0:0:0:
162,232,108704,1,8,0:0:0:0:
166,136,111388,6,0,L|164:213,2,68,8|2|2,0:0|0:0|0:0,0:0:0:0:
277,237,111862,2,0,L|276:170,2,68,8|2|2,0:0|0:0|0:0,0:0:0:0:
376,298,112336,1,4,1:3:0:0:
498,89,112652,6,0,P|462:56|365:69,1,136,6|8,0:0|0:0,0:0:0:0:
301,140,113125,1,2,0:0:0:0:
211,84,113283,2,0,L|211:7,2,68,2|2|8,0:0|0:0|0:0,0:0:0:0:
134,161,113757,2,0,P|90:180|5:145,1,136,2|2,0:0|0:0,0:0:0:0:
84,81,114231,1,8,0:0:0:0:
171,160,114388,2,0,L|163:246,1,68,2|2,0:0|0:0,0:0:0:0:
258,222,114704,2,0,L|265:297,1,68,8|2,0:0|0:0,0:0:0:0:
369,156,115020,6,0,L|363:305,1,136,6|2,0:0|0:0,0:0:0:0:
461,342,115494,1,8,0:0:0:0:
253,257,115809,1,2,0:0:0:0:
253,257,115967,2,0,L|176:259,1,68,2|8,0:0|0:0,0:0:0:0:
104,333,116283,5,2,0:0:0:0:
104,333,116441,1,8,0:0:0:0:
25,157,116757,5,8,0:0:0:0:
25,157,116915,1,2,0:0:0:0:
226,179,117231,5,8,0:0:0:0:
226,179,117389,1,8,0:3:0:0:
142,231,117546,1,10,0:0:0:0:
