osu file format v14

[General]
AudioFilename: Ontology.mp3
AudioLeadIn: 0
PreviewTime: 67138
Countdown: 0
SampleSet: Soft
StackLeniency: 0.6
Mode: 0
LetterboxInBreaks: 0
EpilepsyWarning: 1
WidescreenStoryboard: 1

[Editor]
Bookmarks: 2717,17717,38085,48191,58296,88612,98717,104717,112612
DistanceSpacing: 1.4
BeatDivisor: 4
GridSize: 32
TimelineZoom: 1.8

[Metadata]
Title:Kyoumei Sekai no Ontology
TitleUnicode:共鳴世界の存在論
Artist:Ninomiya Asuka (CV: Aoki Shiki)
ArtistUnicode:二宮飛鳥 (CV: 青木志貴)
Creator:Ujimatsu Chiya
Version:Irohas' Hard
Source:アイドルマスター シンデレラガールズ スターライトステージ
Tags:THE iDOLM@STER Cinderella Girls Starlight Stage Affirmation [C u r i] [C_u_r_i] Reillia Nao Tomori Matsubara Kanon walaowey Neoskylove Irohas mugiwarasekai eINess [ Kuro Usagi ] [_Kuro_Usagi_] Japanese Rock Video Game MASTER 043
BeatmapID:1860882
BeatmapSetID:841338

[Difficulty]
HPDrainRate:5
CircleSize:4.1
OverallDifficulty:6
ApproachRate:8
SliderMultiplier:1.38
SliderTickRate:1

[Events]
//Background and Video events
0,0,"22.jpg",0,0
//Break Periods
2,13062,14441
2,38325,47481
2,48431,49691
2,50957,52296
2,53482,54902
2,56009,57586
2,109061,110638
//Storyboard Layer 0 (Background)
//Storyboard Layer 1 (Fail)
//Storyboard Layer 2 (Pass)
//Storyboard Layer 3 (Foreground)
//Storyboard Layer 4 (Overlay)
//Storyboard Sound Samples

[TimingPoints]
231,315.789473684211,4,2,1,65,1,0
8915,-125,4,2,1,65,0,0
9546,-100,4,2,1,65,0,0
15388,-125,4,2,1,65,0,0
15862,-111.111111111111,4,2,1,65,0,0
17757,-100,4,2,1,50,0,0
18231,-111.111111111111,4,2,1,55,0,0
27546,-99.9999999999999,4,2,1,55,0,0
28020,-111.111111111111,4,2,1,55,0,0
48231,-100,4,2,2,45,0,0
50441,-125,4,2,2,45,0,0
58336,-111.111111111111,4,2,1,55,0,0
63388,-111.111111111111,4,2,1,65,0,0
67178,-200,4,2,1,65,0,0
68441,-100,4,2,1,75,0,1
78388,-100,4,2,1,75,0,0
78546,-100,4,2,1,75,0,1
88652,-100,4,2,1,75,0,0
98757,-100,4,2,1,75,0,1
100020,-111.111111111111,4,2,1,75,0,1
101283,-100,4,2,1,75,0,1
103809,-111.111111111111,4,2,1,75,0,0
107599,-111.111111111111,4,2,1,75,0,1
108704,-111.111111111111,4,2,1,75,0,0
112652,-100,4,2,1,75,0,0

[Colours]
Combo1 : 119,143,227
Combo2 : 222,61,61
Combo3 : 75,233,87
Combo4 : 251,172,85

[HitObjects]
3,336,2757,6,0,P|48:328|149:312,1,138,4|8,0:0|0:0,0:0:0:0:
212,366,3231,1,0,0:0:0:0:
295,333,3388,2,0,P|300:299|311:258,1,69,2|2,0:0|0:0,0:0:0:0:
237,209,3704,1,8,0:0:0:0:
319,174,3862,6,0,B|392:174|368:217|451:223,1,138,2|2,0:0|0:0,0:0:0:0:
510,160,4336,2,0,P|496:116|490:85,1,69,8|0,0:0|0:0,0:0:0:0:
429,27,4652,2,0,P|395:33|361:38,1,69,2|2,0:0|0:0,0:0:0:0:
282,82,4967,2,0,P|242:69|188:85,1,69,8|2,0:0|0:3,0:0:0:0:
139,23,5283,6,0,B|102:55|102:55|128:150,1,138,4|8,0:0|0:0,0:0:0:0:
215,147,5757,1,2,0:3:0:0:
215,147,5915,2,0,P|209:179|204:227,1,69,2|2,0:0|0:0,0:0:0:0:
130,266,6231,1,8,0:0:0:0:
204,314,6388,6,0,P|249:306|350:290,1,138,2|2,0:0|0:0,0:0:0:0:
429,279,6862,2,0,P|419:318|409:366,1,69,8|0,0:0|0:0,0:0:0:0:
340,291,7178,2,0,P|330:251|318:203,1,69,2|2,0:0|0:0,0:0:0:0:
397,175,7494,1,8,0:0:0:0:
311,128,7652,5,2,0:0:0:0:
312,132,7731,1,2,0:0:0:0:
313,135,7809,2,0,B|239:146|251:100|171:112,1,138,4|8,0:0|0:0,0:0:0:0:
94,141,8283,2,0,B|60:169|60:169|97:282,1,138,2|2,0:3|0:0,0:0:0:0:
161,311,8757,1,8,0:0:0:0:
90,357,8915,6,0,L|12:342,1,55.2,4|0,0:0|0:0,0:0:0:0:
156,207,9231,2,0,L|102:218,1,55.2,4|8,0:0|0:0,0:0:0:0:
187,303,9546,6,0,B|260:303|239:345|319:352,1,138,4|2,0:0|0:0,0:0:0:0:
398,323,10020,2,0,P|424:281|389:211,1,103.5,8|0,0:0|0:0,0:0:0:0:
423,223,10336,6,0,P|385:231|340:242,1,69,4|0,0:0|0:0,0:0:0:0:
277,189,10652,2,0,P|287:151|298:102,1,69,8|2,0:0|0:3,0:0:0:0:
361,68,10967,1,8,0:0:0:0:
285,31,11125,6,0,B|248:44|213:57|213:57|175:41|178:-6,2,138,4|4|12,0:0|0:0|0:0,0:0:0:0:
285,31,12073,6,0,P|233:23|118:3,1,138,4|8,0:0|0:0,0:0:0:0:
75,60,12546,2,8,L|84:97,3,34.5
90,100,12862,5,4,0:0:0:0:
82,154,15388,6,0,P|73:120|65:87,2,55.2,4|0|8,0:0|0:0|0:0,0:0:0:0:
184,128,15862,2,0,P|176:168|157:271,1,124.199996209717,4|2,0:0|0:0,0:0:0:0:
136,341,16336,2,0,P|176:332|216:327,1,62.0999981048585,8|2,0:0|0:3,0:0:0:0:
370,360,16809,5,2,0:0:0:0:
443,280,16967,2,0,P|412:273|382:264,1,62.0999981048585,12|2,0:0|0:3,0:0:0:0:
274,241,17283,2,0,P|286:276|295:313,1,62.0999981048585,2|2,0:0|0:0,0:0:0:0:
292,300,17757,6,0,L|321:139,1,138,4|0,0:0|0:0,0:0:0:0:
260,97,18231,2,0,P|217:110|181:101,1,62.0999981048585,8|2,0:0|0:0,0:0:0:0:
132,54,18546,2,0,P|91:65|46:75,1,62.0999981048585,2|2,0:0|0:0,0:0:0:0:
2,122,18862,1,8,0:0:0:0:
77,165,19020,6,0,B|107:196|107:196|87:280,1,124.199996209717,2|2,0:0|0:0,0:0:0:0:
146,339,19494,1,8,0:0:0:0:
151,335,19652,2,0,L|234:322,1,62.0999981048585,2|2,0:3|0:0,0:0:0:0:
289,276,19967,1,8,0:0:0:0:
281,283,20283,6,0,B|348:288|335:242|426:257,1,124.199996209717,4|2,0:0|0:0,0:0:0:0:
484,296,20757,2,0,P|492:250|497:223,1,62.0999981048585,8|2,0:0|0:0,0:0:0:0:
425,181,21073,2,0,P|414:143|425:105,1,62.0999981048585,2|2,0:0|0:3,0:0:0:0:
488,70,21388,1,8,0:0:0:0:
415,21,21546,6,0,P|374:28|331:34,1,62.0999981048585,2|2,0:3|0:0,0:0:0:0:
304,103,21862,2,0,P|263:96|220:90,1,62.0999981048585,2|2,0:3|0:0,0:0:0:0:
147,53,22178,5,8,0:0:0:0:
167,44,22494,5,8,0:0:0:0:
186,31,22809,6,0,P|179:77|162:176,1,124.199996209717,4|2,0:0|0:0,0:0:0:0:
82,180,23283,2,0,P|90:223|97:255,1,62.0999981048585,8|2,0:0|0:3,0:0:0:0:
162,295,23599,1,0,0:0:0:0:
167,291,23757,1,0,0:0:0:0:
91,342,23915,1,8,0:0:0:0:
165,381,24073,6,0,P|213:374|301:365,1,124.199996209717,4|2,0:0|0:0,0:0:0:0:
360,317,24546,1,8,0:0:0:0:
284,273,24704,2,0,P|257:240|286:162,1,124.199996209717,4|4,0:0|0:0,0:0:0:0:
285,164,25178,1,8,0:0:0:0:
222,103,25336,6,0,B|155:108|168:62|77:77,1,124.199996209717,4|2,0:0|0:0,0:0:0:0:
33,122,25809,1,8,0:0:0:0:
96,183,25967,1,4,0:0:0:0:
96,183,26283,2,0,P|132:177|176:170,1,62.0999981048585,2|8,0:0|0:0,0:0:0:0:
240,217,26599,5,4,0:0:0:0:
160,254,26915,5,4,0:0:0:0:
81,293,27231,5,4,0:0:0:0:
230,371,27546,2,8,P|235:342|240:325,5,34.5
222,330,28020,6,0,P|268:356|351:327,1,124.199996209717,4|8,0:0|0:0,0:0:0:0:
418,366,28494,1,2,0:3:0:0:
421,361,28652,2,0,P|426:315|433:279,1,62.0999981048585,2|2,0:0|0:0,0:0:0:0:
363,242,28967,1,8,0:0:0:0:
440,200,29125,6,0,P|479:210|518:217,1,62.0999981048585,2|2,0:3|0:0,0:0:0:0:
404,117,29441,2,0,P|365:127|326:134,1,62.0999981048585,2|8,0:3|0:0,0:0:0:0:
286,197,29757,2,0,B|219:202|232:156|141:171,1,124.199996209717,2|4,0:3|0:0,0:0:0:0:
164,185,30388,6,0,P|136:154|168:71,1,124.199996209717,4|2,0:0|0:0,0:0:0:0:
235,48,30862,1,8,0:0:0:0:
240,52,31020,2,0,P|270:57|323:65,1,62.0999981048585,2|2,0:3|0:0,0:0:0:0:
379,105,31336,2,0,P|418:94|457:101,1,62.0999981048585,2|8,0:3|0:0,0:0:0:0:
490,190,31652,6,0,P|454:182|412:174,1,62.0999981048585,2|2,0:3|0:0,0:0:0:0:
372,243,31967,2,0,P|336:251|294:259,1,62.0999981048585,2|2,0:3|0:0,0:0:0:0:
254,185,32283,2,0,P|207:177|114:163,1,124.199996209717,4|4,0:0|0:0,0:0:0:0:
131,165,32915,6,0,B|198:170|185:124|276:139,1,124.199996209717,2|2,0:3|0:0,0:0:0:0:
324,88,33388,2,0,P|362:100|392:97,1,62.0999981048585,8|2,0:0|0:3,0:0:0:0:
459,136,33704,1,2,0:0:0:0:
462,141,33862,1,2,0:0:0:0:
399,196,34020,1,8,0:0:0:0:
475,235,34178,6,0,B|505:266|505:266|485:350,1,124.199996209717,2|2,0:0|0:0,0:0:0:0:
477,354,34652,1,8,0:0:0:0:
394,328,34809,2,0,P|357:338|318:349,1,62.0999981048585,2|2,0:3|0:0,0:0:0:0:
279,281,35125,2,0,P|249:289|219:297,1,62.0999981048585,2|8,0:3|0:0,0:0:0:0:
170,367,35441,6,0,B|103:372|116:326|25:341,1,124.199996209717,2|2,0:3|0:0,0:0:0:0:
0,277,35915,1,8,0:0:0:0:
68,227,36073,1,4,0:0:0:0:
68,227,36388,2,0,P|73:194|80:149,1,62.0999981048585,2|8,0:0|0:0,0:0:0:0:
3,114,36704,5,4,0:0:0:0:
83,72,37020,5,4,0:0:0:0:
10,23,37336,5,4,0:0:0:0:
178,117,37652,2,8,P|186:74|193:42,2,62.0999981048585
245,175,38125,5,4,0:0:0:0:
478,346,48231,5,4,0:0:0:0:
478,346,50441,6,0,P|485:310|491:281,1,55.2,2|2,0:0|0:0,0:0:0:0:
484,285,50757,1,4,0:0:0:0:
55,76,53046,6,0,L|87:70,3,27.6,2|0|0|0,0:3|0:0|0:0|0:0,0:0:0:0:
0,336,55652,6,0,P|36:329|76:324,1,55.2,2|4,0:3|1:2,0:0:0:0:
255,192,58336,6,0,B|188:197|201:151|110:166,2,124.199996209717,2|0|0,0:3|0:0|0:0,0:0:0:0:
480,74,59283,2,0,P|472:113|468:148,1,62.0999981048585,2|0,0:0|0:3,0:0:0:0:
385,161,59599,6,0,P|357:130|379:49,2,124.199996209717,2|2|2,0:0|0:0|0:0,0:0:0:0:
512,283,60546,2,0,P|477:276|438:269,1,62.0999981048585,2|2,0:0|0:0,0:0:0:0:
367,248,60862,6,0,B|335:279|335:279|366:365,2,124.199996209717,2|2|2,0:0|0:0|0:0,0:0:0:0:
291,150,61809,2,0,P|256:157|202:168,1,62.0999981048585,2|2,0:0|0:0,0:0:0:0:
161,208,62125,6,0,P|110:200|15:190,1,124.199996209717,2|2,0:0|0:0,0:0:0:0:
0,95,62599,2,0,P|38:108|106:48,1,124.199996209717,2|2,0:0|0:0,0:0:0:0:
29,14,63073,1,2,0:0:0:0:
186,119,63388,6,0,B|253:124|240:78|331:93,1,124.199996209717,2|0,0:3|0:0,0:0:0:0:
386,112,63862,2,0,B|418:143|418:143|393:239,1,124.199996209717,2|0,0:0|0:0,0:0:0:0:
436,301,64336,1,2,0:3:0:0:
436,301,64652,6,0,P|389:292|296:278,1,124.199996209717
243,326,65125,2,0,P|207:342|133:289,1,124.199996209717
60,339,65599,1,2,0:0:0:0:
0,228,65915,6,0,B|67:233|54:187|145:202,1,124.199996209717,2|4,0:3|0:0,0:0:0:0:
178,130,66388,2,8,P|219:140|254:146,1,62.0999981048585
313,216,66704,2,8,P|282:221|252:229,1,62.0999981048585
171,256,67020,1,8,0:0:0:0:
174,249,67178,6,0,B|278:250|244:336|369:334,1,207,2|2,0:3|0:3,0:0:0:0:
347,346,68441,6,0,P|379:316|345:224,1,138,4|8,0:0|0:0,0:0:0:0:
415,160,68915,2,0,P|371:151|335:141,1,69,2|2,0:3|0:0,0:0:0:0:
257,139,69231,2,0,P|269:181|280:225,1,69,2|8,0:3|0:0,0:0:0:0:
342,264,69546,1,2,0:0:0:0:
270,318,69704,6,0,B|193:332|203:282|128:295,1,138,4|8,0:0|0:0,0:0:0:0:
59,339,70178,2,0,P|51:305|41:266,1,69,2|2,0:3|0:0,0:0:0:0:
110,213,70494,2,0,P|121:181|110:129,1,69,2|8,0:3|0:0,0:0:0:0:
43,93,70809,1,2,0:0:0:0:
120,46,70967,6,0,P|174:55|272:71,1,138,2|8,0:0|0:0,0:0:0:0:
344,49,71441,2,0,B|380:76|380:76|355:177,1,138
281,215,71915,1,8,0:0:0:0:
337,284,72073,6,0,P|295:253|200:271,1,138,4|2,0:0|0:0,0:0:0:0:
163,327,72546,2,0,P|124:318|69:308,1,69,8|2,0:0|0:3,0:0:0:0:
20,276,72862,1,2,0:0:0:0:
20,276,73020,1,2,0:0:0:0:
77,216,73178,2,0,P|69:182|62:148,1,69,12|2,0:0|0:3,0:0:0:0:
2,96,73494,6,0,B|39:109|71:121|71:121|117:100|100:58,1,138,4|8,0:0|0:0,0:0:0:0:
186,106,73967,2,0,P|212:101|261:95,1,69,2|2,0:3|0:0,0:0:0:0:
326,41,74283,2,0,P|367:56|403:48,1,69,2|8,0:3|0:0,0:0:0:0:
480,41,74599,6,0,P|471:88|450:195,1,138,2|2,0:3|0:0,0:0:0:0:
456,266,75073,2,0,B|385:263|406:217|320:224,1,138,8|2,0:0|0:0,0:0:0:0:
239,209,75546,1,2,0:0:0:0:
239,209,75704,2,0,P|246:241|257:302,1,69,8|2,0:0|0:3,0:0:0:0:
191,342,76020,6,0,P|110:307|56:331,1,138,4|8,0:0|0:0,0:0:0:0:
9,252,76494,2,0,P|48:243|86:234,1,69,2|2,0:3|0:0,0:0:0:0:
154,191,76809,1,2,0:0:0:0:
84,134,76967,1,8,0:0:0:0:
154,191,77125,6,0,B|221:189|207:232|293:233,1,138,4|8,0:0|0:0,0:0:0:0:
364,193,77599,1,2,0:0:0:0:
440,240,77757,2,0,P|448:197|458:154,1,69,8|0,0:0|0:0,0:0:0:0:
394,104,78073,2,8,L|385:65,5,34.5
414,63,78546,6,0,B|337:77|347:27|272:40,1,138,4|8,0:0|0:0,0:0:0:0:
204,85,79020,2,0,P|186:123|191:157,1,69,2|2,0:3|0:0,0:0:0:0:
262,200,79336,2,0,P|254:243|247:289,1,69,2|8,0:3|0:0,0:0:0:0:
176,320,79652,1,2,0:0:0:0:
94,284,79809,6,0,P|80:216|67:148,1,138,2|8,0:3|0:0,0:0:0:0:
6,81,80283,2,0,P|47:71|79:61,1,69,2|2,0:3|0:0,0:0:0:0:
160,44,80599,2,0,P|152:81|144:126,1,69,2|8,0:3|0:0,0:0:0:0:
72,164,80915,1,2,0:0:0:0:
141,220,81073,6,0,P|180:188|268:197,1,138,2|8,0:0|0:0,0:0:0:0:
364,164,81546,2,0,P|356:201|345:254,1,69,2|2,0:3|0:0,0:0:0:0:
278,287,81862,1,2,0:0:0:0:
348,340,82020,1,8,0:0:0:0:
270,374,82178,6,0,P|224:364|121:344,1,138,4|2,0:0|0:0,0:0:0:0:
49,359,82652,2,0,P|17:329|51:237,1,138,8|2,0:0|0:0,0:0:0:0:
119,220,83125,1,2,0:0:0:0:
109,309,83283,1,12,0:0:0:0:
109,309,83599,6,0,P|99:256|84:169,1,138,4|8,0:0|0:0,0:0:0:0:
42,94,84073,1,0,0:0:0:0:
42,94,84231,2,0,P|78:85|118:76,1,69,8|0,0:0|0:0,0:0:0:0:
136,184,84546,2,0,P|172:193|212:202,1,69,8|0,0:0|0:0,0:0:0:0:
295,152,84862,6,0,P|285:111|276:68,1,69,8|0,0:0|0:0,0:0:0:0:
189,19,85178,2,0,P|181:52|171:95,1,69,8|0,0:0|0:0,0:0:0:0:
277,65,85494,2,0,B|346:64|330:111|418:109,1,138,8|8,0:0|0:0,0:0:0:0:
505,67,85967,5,2,0:0:0:0:
505,67,86125,2,0,P|497:103|472:217,1,138,4|8,0:2|0:0,0:0:0:0:
385,254,86599,1,0,0:0:0:0:
385,254,86757,2,0,P|376:220|365:176,1,69,8|0,0:0|0:0,0:0:0:0:
488,223,87073,2,0,P|480:256|472:290,1,69,8|0,0:0|0:0,0:0:0:0:
393,350,87388,6,0,B|320:354|336:306|251:315,1,138,8|8,0:0|0:0,0:0:0:0:
136,279,88020,2,8,L|102:286,3,34.5
86,312,88336,2,8,L|53:304,3,34.5
27,323,88652,6,0,P|20:291|-3:177,1,138,4|8,0:0|0:0,0:0:0:0:
67,141,89125,1,2,0:3:0:0:
67,141,89283,2,0,P|109:150|139:156,1,69,2|2,0:0|0:3,0:0:0:0:
204,206,89599,1,8,0:0:0:0:
276,156,89757,6,0,P|266:114|246:16,1,138,2|2,0:0|0:0,0:0:0:0:
346,0,90231,2,0,B|419:0|395:43|478:49,1,138,8|2,0:0|0:0,0:0:0:0:
408,118,90704,1,2,0:3:0:0:
408,118,90862,2,0,P|416:152|424:195,1,69,8|2,0:0|0:3,0:0:0:0:
512,183,91178,6,0,P|496:259|484:318,1,138,4|8,0:0|0:0,0:0:0:0:
412,364,91652,1,2,0:3:0:0:
412,364,91810,2,0,P|376:353|340:345,1,69,2|2,0:0|0:3,0:0:0:0:
312,262,92125,2,0,P|275:273|245:279,1,69,8|2,0:0|0:3,0:0:0:0:
191,350,92441,6,0,P|146:317|51:343,1,138,2|8,0:0|0:0,0:0:0:0:
0,202,93073,2,0,B|37:187|70:174|70:174|115:187|117:234,1,138,4|8,0:0|0:0,0:0:0:0:
113,214,93704,6,0,P|122:171|142:60,1,138,4|8,0:0|0:0,0:0:0:0:
216,25,94178,1,2,0:0:0:0:
221,29,94336,2,0,P|228:62|236:96,1,69,2|2,0:3|0:0,0:0:0:0:
315,146,94652,1,8,0:0:0:0:
263,213,94809,6,0,B|336:213|312:170|395:164,1,138,2|2,0:0|0:0,0:0:0:0:
493,135,95283,2,0,P|485:168|476:207,1,69,8|2,0:0|0:0,0:0:0:0:
436,283,95599,2,0,P|393:268|356:272,1,69,2|2,0:0|0:0,0:0:0:0:
263,213,95915,2,0,P|275:259|294:332,1,103.5,8|0,0:0|0:0,0:0:0:0:
295,323,96231,6,0,P|259:315|207:304,1,69,2|2,0:0|0:3,0:0:0:0:
147,266,96546,1,8,0:0:0:0:
73,317,96704,2,0,B|46:284|46:284|79:177,1,138,2|2,0:0|0:0,0:0:0:0:
141,146,97178,1,8,0:0:0:0:
70,93,97336,1,6,0:0:0:0:
141,146,97494,6,0,P|174:137|208:130,1,69,2|6,0:0|0:3,0:0:0:0:
278,75,97809,1,8,0:0:0:0:
350,122,97967,2,0,P|341:167|320:273,1,138,2|8,0:0|0:0,0:0:0:0:
390,324,98441,2,0,P|416:318|451:310,3,34.5,2|8|8|8,0:0|0:0|0:0|0:0,0:0:0:0:
441,320,98757,5,4,0:0:0:0:
296,245,99073,2,0,P|260:254|209:268,1,69,8|0,0:0|0:0,0:0:0:0:
157,320,99388,2,0,P|123:311|90:302,1,69,8|0,0:0|0:0,0:0:0:0:
14,251,99704,1,8,0:0:0:0:
81,196,99862,1,2,0:0:0:0:
10,137,100020,6,0,P|2:105|-9:60,1,62.0999981048585,4|2,0:0|0:3,0:0:0:0:
121,0,100336,2,0,P|113:30|106:60,1,62.0999981048585,8|2,0:0|0:3,0:0:0:0:
217,150,100652,2,0,P|205:116|207:73,1,62.0999981048585,4|2,0:0|0:3,0:0:0:0:
296,93,100968,1,8,0:0:0:0:
300,97,101283,6,0,B|373:97|349:54|432:48,1,138,4|8,0:0|0:0,0:0:0:0:
487,139,101757,1,2,0:3:0:0:
487,139,101915,2,0,P|479:172|470:211,1,69,8|2,0:0|0:0,0:0:0:0:
390,246,102231,2,0,P|398:279|407:318,1,69,8|2,0:0|0:0,0:0:0:0:
344,379,102546,6,0,P|308:368|272:360,1,69,8|2,0:0|0:3,0:0:0:0:
319,221,102862,2,0,P|282:232|252:238,1,69,8|2,0:0|0:3,0:0:0:0:
189,335,103178,2,8,P|132:305|58:324,1,138
0,184,103809,6,0,P|48:175|131:160,1,124.199996209717,4|8,0:0|0:0,0:0:0:0:
176,92,104283,1,2,0:3:0:0:
176,92,104441,2,0,P|220:102|253:109,1,62.0999981048585,10|10,0:0|0:0,0:0:0:0:
258,203,104757,2,0,P|288:196|318:189,1,62.0999981048585,10|10,0:0|0:0,0:0:0:0:
451,124,105073,6,0,B|381:134|396:83|309:96,1,124.199996209717,4|8,0:0|0:0,0:0:0:0:
224,60,105546,1,0,0:0:0:0:
224,60,105704,2,0,P|232:99|241:139,1,62.0999981048585,8|8,0:0|0:0,0:0:0:0:
313,182,106020,2,0,P|306:212|300:242,1,62.0999981048585,8|8,0:0|0:0,0:0:0:0:
262,330,106336,6,0,P|225:304|133:323,1,124.199996209717,4|8,0:0|0:0,0:0:0:0:
62,300,106809,1,0,0:0:0:0:
62,300,106967,2,0,P|102:290|142:281,1,62.0999981048585,0|2,0:0|0:0,0:0:0:0:
182,221,107283,2,0,P|167:176|156:141,1,62.0999981048585,8|2,0:0|0:0,0:0:0:0:
229,89,107599,5,4,0:0:0:0:
229,89,107757,2,0,P|267:98|309:108,1,62.0999981048585,0|2,0:0|0:0,0:0:0:0:
337,19,108073,5,4,0:0:0:0:
337,19,108231,2,0,P|377:9|417:0,1,62.0999981048585,0|2,0:0|0:0,0:0:0:0:
423,97,108546,5,4,0:0:0:0:
423,97,108704,2,0,P|463:107|503:116,1,62.0999981048585,12|2,0:0|0:3,0:0:0:0:
19,23,111388,5,4,0:0:0:0:
83,83,111546,2,0,P|78:115|72:154,1,62.0999981048585,2|2,0:0|0:0,0:0:0:0:
0,205,111862,5,8,0:0:0:0:
78,245,112020,2,0,P|116:237|154:230,1,62.0999981048585,2|2,0:0|0:0,0:0:0:0:
206,176,112336,1,8,0:0:0:0:
228,183,112652,6,0,P|219:233|203:324,1,138,4|8,0:0|0:0,0:0:0:0:
273,378,113125,1,2,0:3:0:0:
276,372,113283,2,0,P|312:361|358:366,1,69,2|2,0:0|0:0,0:0:0:0:
415,319,113599,1,8,0:0:0:0:
494,365,113757,6,0,B|521:329|521:329|484:234,1,138,2|2,0:0|0:0,0:0:0:0:
425,188,114231,1,8,0:0:0:0:
349,234,114388,2,0,B|279:250|293:196|208:211,1,138,2|8,3:2|0:0,0:0:0:0:
210,227,115020,6,0,P|181:194|216:107,1,138,4|0,0:0|3:2,0:0:0:0:
284,76,115494,1,10,0:0:0:0:
284,76,115809,5,0,3:2:0:0:
202,28,115967,2,0,P|162:39|132:45,1,69,10|0,0:0|0:0,0:0:0:0:
36,101,116283,5,0,3:2:0:0:
109,144,116441,2,0,P|149:133|179:127,1,69,10|0,0:0|0:0,0:0:0:0:
252,159,116757,5,0,3:2:0:0:
217,235,116915,1,10,0:0:0:0:
228,245,117231,5,0,3:2:0:0:
310,215,117388,1,0,3:2:0:0:
244,158,117546,1,10,0:0:0:0:
