osu file format v14

[General]
AudioFilename: Ontology.mp3
AudioLeadIn: 0
PreviewTime: 67138
Countdown: 0
SampleSet: Soft
StackLeniency: 0.7
Mode: 0
LetterboxInBreaks: 0
EpilepsyWarning: 1
WidescreenStoryboard: 1

[Editor]
Bookmarks: 38085,48191
DistanceSpacing: 0.6
BeatDivisor: 4
GridSize: 4
TimelineZoom: 1.8

[Metadata]
Title:Kyoumei Sekai no Ontology
TitleUnicode:共鳴世界の存在論
Artist:Ninomiya Asuka (CV: Aoki Shiki)
ArtistUnicode:二宮飛鳥 (CV: 青木志貴)
Creator:Ujimatsu Chiya
Version:Causality of Solitude
Source:アイドルマスター シンデレラガールズ スターライトステージ
Tags:THE iDOLM@STER Cinderella Girls Starlight Stage Affirmation [C u r i] [C_u_r_i] Reillia Nao Tomori Matsubara Kanon walaowey Neoskylove Irohas mugiwarasekai eINess [ Kuro Usagi ] [_Kuro_Usagi_] Japanese Rock Video Game MASTER 043
BeatmapID:1762762
BeatmapSetID:841338

[Difficulty]
HPDrainRate:6.8
CircleSize:4
OverallDifficulty:9
ApproachRate:9.3
SliderMultiplier:1.76
SliderTickRate:1

[Events]
//Background and Video events
0,0,"22.jpg",0,0
//Break Periods
2,38325,47677
//Storyboard Layer 0 (Background)
//Storyboard Layer 1 (Fail)
//Storyboard Layer 2 (Pass)
//Storyboard Layer 3 (Foreground)
//Storyboard Layer 4 (Overlay)
//Storyboard Sound Samples

[TimingPoints]
231,315.789473684211,4,2,0,35,1,0
2283,-142.857142857143,4,2,3,70,0,0
2362,-142.857142857143,4,2,3,55,0,0
2678,-142.857142857143,4,2,3,5,0,0
2757,-100,4,2,3,65,0,1
4020,-100,4,2,2,60,0,1
4178,-100,4,2,1,65,0,1
6546,-100,4,2,1,60,0,1
6704,-100,4,2,1,65,0,1
8994,-100,4,2,3,5,0,1
9231,-100,4,2,3,65,0,1
9309,-100,4,2,3,5,0,1
9388,-100,4,2,3,65,0,1
10888,-100,4,2,1,35,0,1
10967,-100,4,2,1,45,0,1
11125,-100,4,2,1,65,0,1
11520,-100,4,2,3,5,0,1
11678,-100,4,2,1,5,0,1
11757,-100,4,2,3,65,0,1
11836,-100,4,2,3,5,0,1
11915,-100,4,2,3,65,0,1
12862,-100,4,2,1,75,0,0
15073,-166.666666666667,4,2,3,55,0,0
15309,-166.666666666667,4,2,3,5,0,0
15388,-100,4,2,3,65,0,0
17441,-100,4,2,1,40,0,0
17757,-142.857142857143,4,2,3,65,0,1
18231,-111.111111111111,4,2,1,55,0,0
22178,-111.111111111111,4,2,2,65,0,0
22415,-111.111111111111,4,2,2,5,0,0
22494,-111.111111111111,4,2,2,65,0,0
22731,-111.111111111111,4,2,2,5,0,0
22809,-111.111111111111,4,2,1,55,0,0
27231,-111.111111111111,4,2,3,65,0,0
27546,-111.111111111111,4,2,3,65,0,0
28020,-111.111111111111,4,2,1,55,0,0
30073,-111.111111111111,4,2,3,65,0,0
30388,-111.111111111111,4,2,3,65,0,0
32283,-111.111111111111,4,2,3,65,0,0
32915,-111.111111111111,4,2,3,65,0,0
34809,-100,4,2,3,65,0,0
35441,-111.111111111111,4,2,3,65,0,0
36073,-111.111111111111,4,2,3,65,0,0
37494,-111.111111111111,4,2,1,45,0,0
37652,-111.111111111111,4,2,1,55,0,0
48231,-200,4,2,3,65,0,0
58336,-200,4,2,3,65,0,0
59599,-200,4,2,1,40,0,0
60862,-200,4,2,1,45,0,0
62125,-200,4,2,1,50,0,0
63388,-142.857142857143,4,2,1,55,0,0
64652,-125,4,2,1,60,0,0
65915,-111.111111111111,4,2,3,65,0,0
66388,-111.111111111111,4,2,1,55,0,0
66546,-111.111111111111,4,2,1,65,0,0
67020,-111.111111111111,4,2,1,55,0,0
67178,-200,4,2,3,65,0,0
67257,-200,4,2,1,5,0,0
67731,-100,4,2,3,5,0,0
67809,-125,4,2,3,70,0,0
67888,-125,4,2,1,5,0,0
68125,-100,4,2,3,5,0,0
68441,-90.9090909090909,4,2,5,80,0,1
72073,-90.9090909090909,4,2,5,80,0,1
73494,-90.9090909090909,4,2,5,80,0,1
77125,-90.9090909090909,4,2,5,80,0,1
78231,-90.9090909090909,4,2,5,80,0,1
78467,-90.9090909090909,4,2,1,75,0,0
78546,-90.9090909090909,4,2,5,80,0,1
82967,-90.9090909090909,4,2,1,85,0,1
83125,-90.9090909090909,4,2,1,75,0,1
83599,-90.9090909090909,4,2,5,80,0,1
88020,-100,4,2,5,80,0,1
88178,-90.9090909090909,4,2,1,70,0,1
88573,-90.9090909090909,4,2,1,75,0,0
88652,-90.9090909090909,4,2,5,80,0,1
98125,-90.9090909090909,4,2,5,80,0,1
98757,-90.9090909090909,4,2,5,80,0,1
107125,-90.9090909090909,4,2,1,65,0,1
107599,-90.9090909090909,4,2,1,75,0,1
107757,-90.9090909090909,4,2,1,70,0,1
108073,-90.9090909090909,4,2,1,75,0,1
108546,-90.9090909090909,4,2,1,85,0,1
108625,-100,4,2,3,90,0,1
108704,-100,4,2,1,85,0,0
111388,-100,4,2,1,75,0,0
112652,-100,4,2,3,65,0,0
114388,-100,4,2,3,65,0,0
115809,-100,4,2,1,85,0,0
116125,-100,4,2,1,75,0,0
117546,-100,4,2,3,65,0,0
117862,-100,4,2,3,5,0,0

[Colours]
Combo1 : 244,139,100
Combo2 : 0,128,255
Combo3 : 128,128,128
Combo4 : 80,11,183
Combo5 : 128,255,255

[HitObjects]
290,286,231,5,2,0:2:0:0:
273,195,388,1,2,0:2:0:0:
364,178,546,1,2,0:2:0:0:
380,269,704,1,2,0:2:0:0:
380,269,1494,5,2,0:2:0:0:
420,147,1652,1,2,0:2:0:0:
298,108,1809,1,2,0:2:0:0:
259,228,1967,1,2,0:2:0:0:
259,228,2283,6,2,P|252:147|217:66,1,153.999995300293,2|2,0:1|0:1,1:0:0:0:
214,67,2757,6,0,P|277:56|325:36,1,88,6|0,3:2|0:0,0:0:0:0:
458,158,3073,2,0,P|416:144|372:139,1,88,2|2,1:2|0:2,0:0:0:0:
200,310,3388,1,2,3:2:0:0:
145,185,3546,1,0,3:2:0:0:
429,266,3704,1,2,1:2:0:0:
286,225,3862,1,0,0:2:0:0:
317,56,4020,5,2,3:2:0:0:
270,244,4178,1,2,3:2:0:0:
84,90,4336,1,2,1:2:0:0:
286,30,4494,1,0,0:2:0:0:
408,254,4652,5,2,3:2:0:0:
304,139,4809,1,2,3:2:0:0:
208,363,4967,2,0,P|191:281|185:239,1,88,2|0,1:2|0:0,0:0:0:0:
408,254,5283,6,0,L|264:223,1,132,2|0,3:2|0:0,0:0:0:0:
262,203,5599,1,0,1:2:0:0:
208,363,5757,1,2,0:2:0:0:
31,220,5915,1,2,3:2:0:0:
61,345,6073,1,0,3:2:0:0:
145,94,6231,2,0,P|97:82|33:79,1,88,2|0,1:2|0:2,0:0:0:0:
227,184,6546,5,2,3:2:0:0:
191,30,6704,1,2,3:2:0:0:
65,218,6862,1,2,1:2:0:0:
278,107,7020,1,0,0:2:0:0:
216,309,7178,5,2,3:2:0:0:
169,173,7336,1,2,3:2:0:0:
427,238,7494,2,0,P|432:281|440:324,1,88,2|0,1:2|0:0,0:0:0:0:
256,138,7809,6,0,P|241:224|216:309,1,176,6|0,3:2|1:2,0:0:0:0:
16,231,8283,2,0,P|92:215|127:211,1,88,2|0,0:2|3:2,0:0:0:0:
204,326,8599,1,2,3:2:0:0:
158,77,8757,1,0,1:2:0:0:
423,153,8915,1,2,3:2:0:0:
441,148,9231,5,2,3:2:0:0:
144,56,9388,1,0,1:2:0:0:
228,336,9546,2,0,B|245:271|245:271|280:243|280:243|298:161,1,176,6|0,3:2|3:2,0:0:0:0:
462,310,10020,2,0,P|426:286|384:273,1,88,2|0,1:2|0:0,0:0:0:0:
135,298,10336,5,6,3:2:0:0:
287,171,10494,1,2,3:2:0:0:
12,92,10652,1,2,1:2:0:0:
287,171,10809,1,2,3:2:0:0:
315,162,10888,1,0,1:2:0:0:
343,155,10967,1,0,3:2:0:0:
138,68,11125,2,0,P|129:118|118:182,1,88,2|0,3:2|1:2,0:0:0:0:
242,346,11441,6,0,P|212:287|201:222,1,132,2|0,3:2|0:0,0:0:0:0:
201,222,11757,2,0,P|253:201|300:194,1,88,2|0,3:2|1:2,0:0:0:0:
113,318,12073,6,0,P|179:325|242:346,1,132,6|0,3:2|0:0,0:0:0:0:
319,326,12388,1,0,1:2:0:0:
313,300,12467,1,0,1:2:0:0:
316,273,12546,1,2,1:2:0:0:
327,249,12625,1,0,1:2:0:0:
346,230,12704,2,0,L|414:214,1,44,2|0,1:2|1:2,0:0:0:0:
491,320,12862,6,0,L|406:300,1,88,6|0,3:2|0:0,0:0:0:0:
405,299,13336,5,2,0:0:0:0:
405,299,13494,2,0,L|319:319,1,88
319,318,13967,5,2,0:0:0:0:
319,318,14125,2,0,L|233:297,1,88,0|0,0:0|0:0,0:0:0:0:
126,336,14441,2,0,L|211:315,1,88,0|0,0:0|0:0,0:0:0:0:
198,147,14757,2,0,L|187:234,1,88,0|0,0:0|0:0,0:0:0:0:
352,173,15073,6,2,L|342:94,1,79.1999975830079,2|2,0:1|0:1,0:0:0:0:
351,68,15388,5,4,3:2:0:0:
198,147,15546,2,0,L|90:121,1,88,0|0,3:2|1:2,0:0:0:0:
134,224,15862,5,0,3:2:0:0:
134,224,15941,1,0,3:2:0:0:
134,224,16020,1,0,3:2:0:0:
172,59,16178,1,0,3:2:0:0:
239,306,16336,2,0,L|353:283,1,88,0|0,1:2|3:2,0:0:0:0:
349,284,16573,1,0,3:2:0:0:
349,284,16652,5,0,3:2:0:0:
241,199,16809,1,0,3:2:0:0:
486,144,16967,1,0,1:2:0:0:
371,46,17125,1,0,3:2:0:0:
371,46,17204,1,0,3:2:0:0:
371,46,17283,2,0,L|385:152,1,88,0|0,3:2|3:2,0:0:0:0:
382,133,17757,6,0,L|366:264,1,123.199996240234,4|0,3:2|3:2,0:0:0:0:
232,356,18231,5,0,1:2:0:0:
217,234,18388,1,0,0:0:0:0:
74,257,18546,2,0,L|60:335,1,79.1999975830079,0|0,3:2|3:2,0:0:0:0:
93,154,18862,1,0,1:2:0:0:
226,217,19020,6,0,P|290:203|310:194,1,79.1999975830079,0|0,3:2|0:0,0:0:0:0:
245,122,19336,1,0,3:2:0:0:
292,307,19494,1,0,1:2:0:0:
482,250,19652,2,0,P|444:236|405:230,1,79.1999975830079,0|0,0:2|3:2,0:0:0:0:
341,61,19967,2,0,P|355:120|356:154,1,79.1999975830079,2|0,1:2|0:0,0:0:0:0:
292,307,20283,6,0,B|257:271|257:271|222:261|153:296,1,158.399995166016,4|0,3:2|3:2,0:0:0:0:
0,246,20757,1,0,1:2:0:0:
48,353,20915,1,0,0:0:0:0:
174,205,21073,2,0,P|119:188|73:171,1,79.1999975830079,0|0,3:2|3:2,0:0:0:0:
318,118,21388,1,0,1:2:0:0:
318,118,21546,6,0,P|280:130|242:142,1,79.1999975830079,0|0,3:2|0:0,0:0:0:0:
107,103,21862,2,0,P|120:46|129:-2,1,79.1999975830079,0|0,3:2|1:2,0:0:0:0:
174,205,22178,6,0,P|145:257|104:289,1,79.1999975830079,2|0,3:2|0:0,0:0:0:0:
197,368,22494,2,0,P|260:336|302:331,1,79.1999975830079,2|0,3:2|0:0,0:0:0:0:
395,301,22809,6,0,P|378:206|369:134,1,158.399995166016,4|0,3:2|3:2,0:0:0:0:
258,31,23283,2,0,P|293:98|299:129,1,79.1999975830079,0|0,1:2|0:0,0:0:0:0:
148,259,23599,5,0,3:2:0:0:
273,197,23757,1,0,3:2:0:0:
58,102,23915,1,0,1:2:0:0:
288,210,24073,6,0,L|395:187,1,79.1999975830079,0|0,3:2|0:0,0:0:0:0:
161,284,24388,2,0,L|127:388,1,79.1999975830079,0|0,3:2|1:2,0:0:0:0:
153,160,24704,2,0,L|79:78,1,79.1999975830079,2|0,3:2|0:2,0:0:0:0:
309,124,25020,2,0,L|416:101,1,79.1999975830079,2|0,3:2|1:2,0:0:0:0:
198,21,25336,6,0,P|150:82|153:160,1,158.399995166016,4|0,3:2|3:2,0:0:0:0:
309,124,25809,1,0,1:2:0:0:
232,351,25967,1,4,3:2:0:0:
249,337,26283,5,0,3:2:0:0:
229,190,26441,1,0,1:2:0:0:
466,266,26599,2,0,P|427:274|387:278,1,79.1999975830079,2|0,3:2|0:0,0:0:0:0:
134,202,26915,2,0,P|173:205|212:213,1,79.1999975830079,2|0,3:2|0:0,0:0:0:0:
301,374,27231,2,0,B|288:335|288:335|294:281,1,79.1999975830079,4|0,3:2|0:0,0:0:0:0:
363,139,27546,6,0,P|356:159|340:186,1,39.5999987915039,0|0,1:2|1:2,0:0:0:0:
189,164,27704,2,0,P|209:160|241:160,1,39.5999987915039,0|0,1:2|1:2,0:0:0:0:
292,297,27862,2,0,P|278:280|262:253,1,39.5999987915039,0|0,1:2|1:2,0:0:0:0:
179,83,28020,6,0,L|142:262,1,158.399995166016,4|0,3:2|1:2,0:0:0:0:
47,163,28494,1,0,0:2:0:0:
0,351,28652,2,0,P|45:340|91:340,1,79.1999975830079,0|0,3:2|3:2,0:0:0:0:
254,370,28967,1,0,1:2:0:0:
343,278,29125,6,0,L|330:167,1,79.1999975830079,0|0,3:2|0:0,0:0:0:0:
168,263,29441,1,0,3:2:0:0:
254,370,29599,1,0,1:2:0:0:
156,251,29757,2,0,L|48:264,1,79.1999975830079,2|0,3:2|3:2,0:0:0:0:
272,350,30073,2,0,L|380:363,1,79.1999975830079,2|0,1:2|0:2,0:0:0:0:
489,174,30388,6,0,L|333:199,1,158.399995166016,4|0,3:2|3:2,0:0:0:0:
244,123,30862,1,0,1:2:0:0:
184,315,31020,1,0,0:2:0:0:
80,221,31178,1,0,3:2:0:0:
80,221,31336,1,0,3:2:0:0:
357,294,31494,1,0,1:2:0:0:
396,156,31652,2,0,L|378:44,1,79.1999975830079,0|0,3:2|0:0,0:0:0:0:
148,26,31967,5,0,3:2:0:0:
217,136,32125,1,0,1:2:0:0:
80,221,32283,2,0,P|41:210|4:196,1,79.1999975830079,2|0,3:2|0:2,0:0:0:0:
211,269,32599,2,0,P|173:282|135:293,1,79.1999975830079,2|0,3:2|0:2,0:0:0:0:
356,161,32915,6,0,P|347:199|338:237,1,79.1999975830079,4|0,3:2|0:0,0:0:0:0:
201,170,33231,1,0,3:2:0:0:
328,29,33388,2,0,L|425:48,1,79.1999975830079,0|0,1:2|0:2,0:0:0:0:
238,164,33704,5,0,3:2:0:0:
338,238,33862,1,0,3:2:0:0:
135,293,34020,1,0,1:2:0:0:
275,374,34178,2,0,P|280:335|290:297,1,79.1999975830079,0|0,3:2|0:0,0:0:0:0:
393,117,34494,5,0,3:2:0:0:
161,195,34652,1,0,1:2:0:0:
290,297,34809,1,2,3:2:0:0:
290,297,35125,5,2,3:2:0:0:
258,67,35283,1,0,0:2:0:0:
467,172,35441,6,0,B|404:165|404:165|380:149|380:149|314:142,1,158.399995166016,4|0,3:2|3:2,0:0:0:0:
230,367,35915,1,0,1:2:0:0:
398,264,36073,1,4,3:2:0:0:
412,278,36388,5,0,3:2:0:0:
130,172,36546,1,0,1:2:0:0:
208,68,36704,2,0,P|260:55|300:51,1,79.1999975830079,4|0,3:2|0:2,0:0:0:0:
130,172,37020,6,0,P|90:166|52:155,1,79.1999975830079,0|0,3:2|0:2,0:0:0:0:
205,256,37336,2,0,L|182:361,1,79.1999975830079,4|0,1:2|3:2,0:0:0:0:
130,172,37652,5,0,1:2:0:0:
295,238,37809,1,0,3:2:0:0:
411,108,37967,1,0,1:2:0:0:
427,319,38125,1,4,3:2:0:0:
305,77,48231,6,0,B|344:140|402:126|402:126|445:158|443:214|443:214|423:254,1,264,6|0,0:2|0:0,0:0:0:0:
354,335,49494,2,0,B|302:293|318:232|318:232|247:257|247:257|214:243|196:206,1,264,0|0,0:0|3:2,0:0:0:0:
194,127,50599,1,2,0:0:0:0:
194,127,50678,1,0,0:0:0:0:
194,127,50757,6,0,B|132:133|119:194|119:194|74:200|52:241|52:241|44:265|44:265|58:323,1,264,2|0,0:2|0:0,0:0:0:0:
136,349,52020,2,0,P|144:319|274:273,1,176,0|0,0:2|0:0,0:0:0:0:
395,345,53046,1,2,0:2:0:0:
395,345,53125,1,2,0:2:0:0:
395,345,53204,1,2,0:2:0:0:
395,345,53283,6,0,B|412:296|412:296|391:240|391:240|403:198|403:198|449:179|449:179|465:115,1,264,2|0,0:2|0:0,0:0:0:0:
406,41,54546,2,0,B|386:114|386:114|327:146|327:146|272:131|272:131|239:70,1,264,0|0,0:0|0:2,0:0:0:0:
157,60,55652,1,0,3:2:0:0:
157,60,55809,6,0,B|131:112|88:128|88:128|31:198|95:241|95:241|98:289|98:289|139:313|139:313|189:261|272:301|272:301|284:327|277:356|277:356|315:331|369:336,1,616,2|0,3:2|0:2,0:0:0:0:
453,271,58336,5,4,3:2:0:0:
451,253,58652,1,0,3:2:0:0:
446,218,58967,1,0,3:2:0:0:
438,165,59283,1,0,3:2:0:0:
297,89,59599,5,0,3:2:0:0:
295,107,59915,1,0,3:2:0:0:
290,142,60231,1,0,3:2:0:0:
282,195,60546,1,0,3:2:0:0:
174,309,60862,5,0,3:2:0:0:
172,291,61178,1,0,3:2:0:0:
167,256,61494,1,0,3:2:0:0:
159,203,61809,1,0,3:2:0:0:
46,92,62125,5,0,3:2:0:0:
44,110,62441,1,0,3:2:0:0:
39,145,62757,1,0,3:2:0:0:
31,198,63073,1,0,3:2:0:0:
124,303,63388,6,0,P|168:292|188:281,1,61.5999981201172,4|0,3:2|0:2,0:0:0:0:
252,362,63704,2,0,P|287:333|300:315,1,61.5999981201172,0|0,3:2|0:2,0:0:0:0:
382,343,64020,2,0,P|401:302|406:279,1,61.5999981201172,0|0,3:2|0:2,0:0:0:0:
500,307,64336,2,0,P|500:261|495:239,1,61.5999981201172,0|0,3:2|0:2,0:0:0:0:
428,89,64652,6,0,L|411:178,1,70.4,4|0,3:2|0:2,0:0:0:0:
318,229,64967,2,0,L|331:159,1,70.4,0|0,3:2|0:2,0:0:0:0:
270,55,65283,2,0,L|253:144,1,70.4,0|0,3:2|0:2,0:0:0:0:
158,192,65599,2,0,L|171:122,1,70.4,0|0,3:2|0:2,0:0:0:0:
15,74,65915,6,0,P|62:62|101:54,1,79.1999975830079,4|0,3:2|0:2,0:0:0:0:
194,273,66231,1,0,3:2:0:0:
0,204,66388,1,0,3:2:0:0:
222,61,66546,5,2,3:2:0:0:
106,333,66704,1,0,3:2:0:0:
330,257,66862,1,2,3:2:0:0:
133,151,67020,1,2,3:2:0:0:
232,351,67178,6,0,P|225:291|258:201,1,154,2|0,0:2|0:2,0:0:0:0:
248,187,67809,6,0,P|222:240|214:326,1,140.8,2|0,0:2|0:2,0:0:0:0:
213,320,68441,6,0,L|82:291,1,96.8000029541017,6|0,3:2|0:2,0:0:0:0:
60,69,68757,1,2,1:2:0:0:
0,236,68915,2,0,L|131:207,1,96.8000029541017,2|0,0:2|3:2,0:0:0:0:
63,374,69231,1,2,3:2:0:0:
342,286,69388,1,0,1:2:0:0:
248,187,69546,1,2,0:2:0:0:
165,362,69704,6,0,P|148:273|147:249,1,96.8000029541017,2|0,3:2|0:2,0:0:0:0:
416,149,70020,1,2,1:2:0:0:
342,286,70178,2,0,L|220:262,1,96.8000029541017,2|0,0:2|3:2,0:0:0:0:
154,156,70494,1,2,3:2:0:0:
499,97,70652,1,0,1:2:0:0:
275,17,70809,1,2,0:2:0:0:
365,204,70967,6,0,P|373:156|385:109,1,96.8000029541017,2|0,3:2|0:2,0:0:0:0:
211,329,71283,1,2,1:2:0:0:
437,276,71441,1,2,0:2:0:0:
269,224,71599,1,0,3:2:0:0:
469,135,71757,1,2,3:2:0:0:
333,343,71915,1,0,1:2:0:0:
116,194,72073,6,0,P|172:178|212:171,1,96.8000029541017,6|0,3:2|0:0,0:0:0:0:
437,276,72388,1,2,3:2:0:0:
434,261,72467,1,2,0:2:0:0:
431,246,72546,1,2,1:2:0:0:
315,102,72704,1,2,0:2:0:0:
318,87,72783,1,0,0:0:0:0:
321,72,72862,6,0,L|311:20,1,48.4000014770508,2|0,3:2|0:0,0:0:0:0:
418,47,73020,2,0,L|427:94,1,48.4000014770508,0|0,3:2|0:0,0:0:0:0:
216,54,73178,5,6,1:2:0:0:
512,75,73336,1,0,0:0:0:0:
302,285,73494,6,0,B|338:159|338:159|315:102,1,193.600005908203,6|0,3:2|1:2,0:0:0:0:
177,253,73967,2,0,L|192:368,1,96.8000029541017,2|0,0:2|3:2,0:0:0:0:
82,216,74283,1,2,3:2:0:0:
383,312,74441,1,0,1:2:0:0:
315,102,74599,6,0,P|325:46|327:6,1,96.8000029541017,2|0,3:2|0:0,0:0:0:0:
201,148,74915,1,0,3:2:0:0:
445,243,75073,2,0,P|434:190|432:147,1,96.8000029541017,0|0,1:2|0:2,0:0:0:0:
229,251,75388,5,2,3:2:0:0:
383,312,75546,1,0,3:2:0:0:
110,371,75704,5,2,1:2:0:0:
445,243,75862,1,0,0:0:0:0:
237,117,76020,6,0,P|242:161|255:231,1,96.8000029541017,2|0,3:2|0:0,0:0:0:0:
503,79,76336,1,2,1:2:0:0:
454,229,76494,2,0,L|342:252,1,96.8000029541017,2|0,0:2|3:2,0:0:0:0:
237,352,76809,1,2,3:2:0:0:
127,160,76967,1,2,1:2:0:0:
17,318,77125,6,0,P|67:259|176:284,1,193.600005908203,6|0,3:2|3:2,0:0:0:0:
340,355,77599,1,0,3:2:0:0:
323,336,77678,1,0,3:2:0:0:
310,315,77757,1,0,3:2:0:0:
302,291,77836,1,0,3:2:0:0:
301,266,77915,1,0,3:2:0:0:
304,242,77994,1,0,3:2:0:0:
313,219,78073,1,0,3:2:0:0:
328,200,78152,1,0,3:2:0:0:
350,191,78231,6,0,L|426:206,1,48.4000014770508,2|0,1:2|1:2,0:0:0:0:
480,308,78388,2,0,L|432:298,1,48.4000014770508,0|0,1:2|1:2,0:0:0:0:
316,111,78546,6,0,L|425:99,1,96.8000029541017,6|0,3:2|0:0,0:0:0:0:
137,51,78862,1,2,1:2:0:0:
137,51,79020,2,0,L|233:61,1,96.8000029541017,2|0,0:2|3:2,0:0:0:0:
283,214,79336,1,2,3:2:0:0:
0,125,79494,1,0,1:2:0:0:
47,301,79652,1,2,0:2:0:0:
10,115,79809,6,0,P|-2:174|-13:231,1,96.8000029541017,2|0,3:2|0:0,0:0:0:0:
215,364,80125,1,2,1:2:0:0:
187,231,80283,2,0,L|283:214,1,96.8000029541017,2|0,0:2|3:2,0:0:0:0:
252,38,80599,2,0,P|233:88|225:140,1,96.8000029541017,2|0,3:2|1:2,0:0:0:0:
65,49,80915,1,2,0:2:0:0:
65,49,80994,1,0,0:0:0:0:
65,49,81073,6,0,P|77:139|80:274,1,193.600005908203,2|2,3:2|1:2,0:0:0:0:
305,341,81546,2,0,P|245:270|155:287,1,193.600005908203,2|0,0:2|3:2,0:0:0:0:
217,51,82020,1,2,1:2:0:0:
184,175,82178,6,0,B|255:165|255:165|309:135|309:135|390:119,1,193.600005908203,6|0,3:2|3:2,0:0:0:0:
503,301,82652,2,0,P|448:281|407:251,1,96.8000029541017,0|0,1:2|3:2,0:0:0:0:
227,349,82967,5,2,3:2:0:0:
412,241,83125,1,0,3:2:0:0:
236,50,83283,1,4,1:2:0:0:
228,38,83599,6,0,L|210:154,1,96.8000029541017,6|0,3:2|0:2,0:0:0:0:
322,347,83915,2,0,L|307:251,1,96.8000029541017,2|0,1:2|3:2,0:0:0:0:
46,171,84231,1,2,1:2:0:0:
172,295,84388,1,0,3:2:0:0:
382,97,84546,1,2,1:2:0:0:
321,261,84704,1,0,3:2:0:0:
321,261,84783,1,0,0:0:0:0:
321,261,84862,6,0,L|335:165,1,96.8000029541017,2|0,1:2|3:2,0:0:0:0:
432,322,85178,1,2,1:2:0:0:
223,213,85336,2,0,P|168:223|129:237,1,96.8000029541017,0|2,3:2|1:2,0:0:0:0:
428,188,85652,2,0,P|382:173|334:164,1,96.8000029541017,0|2,3:2|1:2,0:0:0:0:
252,325,85967,1,0,3:2:0:0:
202,71,86125,5,6,1:2:0:0:
129,236,86283,1,2,3:2:0:0:
335,165,86441,5,2,1:2:0:0:
64,95,86599,1,2,3:2:0:0:
252,325,86757,5,2,1:2:0:0:
214,41,86915,1,2,3:2:0:0:
44,255,87073,5,2,1:2:0:0:
435,178,87231,1,2,3:2:0:0:
214,41,87388,6,0,P|229:122|233:173,1,96.8000029541017,0|0,1:2|3:2,0:0:0:0:
44,255,87704,2,0,P|106:201|148:172,1,96.8000029541017,0|0,1:2|3:2,0:0:0:0:
322,260,88020,5,0,3:2:0:0:
199,327,88178,1,0,3:2:0:0:
205,288,88257,1,0,3:2:0:0:
211,250,88336,1,0,1:2:0:0:
217,212,88415,1,0,1:2:0:0:
223,174,88494,1,0,1:2:0:0:
230,136,88573,1,0,1:2:0:0:
236,96,88652,6,0,P|282:82|329:72,1,96.8000029541017,4|0,3:2|0:2,0:0:0:0:
388,275,88967,1,2,1:2:0:0:
480,154,89125,1,0,0:2:0:0:
217,212,89283,5,2,3:2:0:0:
412,299,89441,1,2,1:2:0:0:
131,359,89599,2,0,P|138:307|153:250,1,96.8000029541017,0|0,0:0|0:2,0:0:0:0:
54,43,89915,5,2,3:2:0:0:
76,175,90073,1,0,0:2:0:0:
317,104,90231,1,2,1:2:0:0:
184,94,90388,1,0,0:2:0:0:
279,344,90546,5,0,3:2:0:0:
257,212,90704,1,2,3:2:0:0:
16,283,90862,1,2,1:2:0:0:
149,293,91020,1,0,0:2:0:0:
107,83,91178,6,0,P|88:127|75:174,1,96.8000029541017,2|0,3:2|0:0,0:0:0:0:
336,266,91494,2,0,P|297:238|257:212,1,96.8000029541017,0|0,1:2|0:2,0:0:0:0:
61,370,91809,1,2,3:2:0:0:
174,279,91967,1,2,3:2:0:0:
0,98,92125,1,2,1:2:0:0:
186,149,92283,1,0,0:2:0:0:
16,283,92441,5,2,3:2:0:0:
16,283,92599,1,0,3:2:0:0:
257,211,92757,2,0,L|369:228,1,96.8000029541017,2|0,1:2|0:2,0:0:0:0:
123,74,93073,5,2,3:2:0:0:
174,279,93231,1,0,3:2:0:0:
384,117,93388,2,0,L|479:102,1,96.8000029541017,2|0,1:2|0:2,0:0:0:0:
274,29,93704,6,0,P|268:88|260:148,1,96.8000029541017,6|0,3:2|0:2,0:0:0:0:
378,337,94020,1,2,1:2:0:0:
378,337,94178,2,0,P|370:299|366:240,2,96.8000029541017,2|0|0,0:2|3:2|3:2,0:0:0:0:
479,102,94652,1,2,1:2:0:0:
306,191,94809,1,0,3:2:0:0:
228,54,94967,5,2,0:0:0:0:
154,268,95125,2,0,L|280:291,2,96.8000029541017,2|0|0,3:2|1:2|0:2,0:0:0:0:
297,211,95599,1,0,3:2:0:0:
62,349,95757,1,0,3:2:0:0:
36,118,95915,1,2,1:2:0:0:
160,293,96073,1,0,0:2:0:0:
417,144,96231,5,2,3:2:0:0:
207,199,96388,1,0,0:0:0:0:
479,302,96546,1,2,1:2:0:0:
411,63,96704,2,0,L|396:159,1,96.8000029541017,2|0,0:2|3:2,0:0:0:0:
204,50,97020,1,0,3:2:0:0:
194,328,97178,1,2,1:2:0:0:
396,158,97336,1,4,0:2:0:0:
479,302,97494,6,0,P|418:285|371:265,1,96.8000029541017,2|0,3:2|3:2,0:0:0:0:
244,119,97809,2,0,P|270:213|288:308,1,193.600005908203,0|2,1:2|3:2,0:0:0:0:
147,368,98283,2,0,L|93:353,1,48.4000014770508,0|0,3:2|3:2,0:0:0:0:
0,290,98441,2,0,L|54:275,1,48.4000014770508,0|0,1:2|1:2,0:0:0:0:
142,205,98599,2,0,L|88:190,1,48.4000014770508,0|0,1:2|1:2,0:0:0:0:
8,53,98757,6,0,P|17:102|32:155,1,96.8000029541017,6|0,3:2|3:2,0:0:0:0:
230,63,99073,1,2,1:2:0:0:
181,288,99231,1,0,3:2:0:0:
133,24,99388,5,2,1:2:0:0:
196,305,99546,1,0,3:2:0:0:
337,52,99704,5,2,1:2:0:0:
46,277,99862,1,0,3:2:0:0:
398,225,100020,5,2,1:2:0:0:
398,225,100178,1,0,3:2:0:0:
126,129,100336,1,2,1:2:0:0:
196,305,100494,1,0,3:2:0:0:
260,91,100652,5,2,1:2:0:0:
260,91,100809,1,0,3:2:0:0:
383,376,100967,1,2,1:2:0:0:
497,187,101125,1,0,3:2:0:0:
216,273,101283,6,0,P|291:285|325:286,1,96.8000029541017,6|0,3:2|3:2,0:0:0:0:
436,30,101599,1,2,1:2:0:0:
488,202,101757,1,0,3:2:0:0:
326,87,101915,5,2,1:2:0:0:
393,302,102073,1,0,3:2:0:0:
200,118,102231,5,2,1:2:0:0:
196,361,102388,1,0,3:2:0:0:
70,76,102546,5,2,1:2:0:0:
0,310,102704,1,0,3:2:0:0:
220,101,102862,1,2,1:2:0:0:
177,342,103020,1,0,3:2:0:0:
0,168,103178,6,0,P|60:155|106:146,1,96.8000029541017,2|0,1:2|3:2,0:0:0:0:
347,275,103494,2,0,P|287:288|241:297,1,96.8000029541017,2|0,1:2|3:2,0:0:0:0:
252,79,103809,5,4,3:2:0:0:
102,255,103967,1,0,0:0:0:0:
365,295,104125,1,0,3:2:0:0:
118,132,104283,1,0,3:2:0:0:
224,369,104441,5,0,3:2:0:0:
224,369,104599,1,0,3:2:0:0:
369,89,104757,1,0,3:2:0:0:
445,255,104915,1,0,3:2:0:0:
214,213,105073,6,0,L|119:231,1,96.8000029541017,4|0,3:2|0:0,0:0:0:0:
410,361,105388,1,0,3:2:0:0:
474,170,105546,1,0,3:2:0:0:
223,38,105704,1,0,3:2:0:0:
214,213,105862,1,0,3:2:0:0:
509,37,106020,1,0,3:2:0:0:
308,102,106178,1,0,3:2:0:0:
391,346,106336,5,4,3:2:0:0:
394,93,106494,1,0,3:2:0:0:
101,64,106652,5,0,3:2:0:0:
361,177,106809,1,0,3:2:0:0:
57,317,106967,5,0,3:2:0:0:
258,72,107125,1,0,3:2:0:0:
249,104,107204,1,0,3:0:0:0:
240,136,107283,1,0,3:2:0:0:
231,168,107362,1,0,3:0:0:0:
220,200,107441,1,0,3:2:0:0:
379,134,107599,5,6,1:2:0:0:
422,365,107757,1,0,3:2:0:0:
422,365,107836,1,0,3:2:0:0:
422,365,107915,1,0,3:2:0:0:
484,201,108073,5,2,1:2:0:0:
177,320,108231,1,0,3:2:0:0:
177,320,108309,1,0,3:2:0:0:
177,320,108388,1,0,3:2:0:0:
267,45,108546,5,2,1:2:0:0:
422,365,108704,1,2,3:2:0:0:
304,315,111388,5,4,1:2:0:0:
290,160,111546,1,0,3:2:0:0:
430,225,111704,1,0,3:2:0:0:
304,151,111862,5,0,1:2:0:0:
290,306,112020,1,0,3:2:0:0:
164,216,112178,1,0,3:2:0:0:
441,238,112336,1,0,1:2:0:0:
454,251,112652,6,0,P|440:143|434:62,1,176,4|0,3:2|1:2,0:0:0:0:
304,151,113125,1,0,3:2:0:0:
304,151,113204,1,0,3:2:0:0:
304,151,113283,2,0,P|258:135|223:118,1,88,0|0,3:2|3:2,0:0:0:0:
128,327,113599,1,0,1:2:0:0:
0,207,113757,6,0,P|39:187|81:173,2,88,2|0|0,3:2|3:2|3:2,0:0:0:0:
255,325,114231,1,0,1:2:0:0:
199,205,114388,1,2,3:2:0:0:
425,111,114546,5,0,0:0:0:0:
366,234,114704,1,2,3:2:0:0:
167,73,114862,1,0,0:0:0:0:
359,38,115020,1,4,1:2:0:0:
352,25,115336,5,0,3:2:0:0:
255,325,115494,1,0,1:2:0:0:
450,232,115652,1,0,0:0:0:0:
246,129,115809,5,0,3:2:0:0:
444,211,115967,1,0,1:2:0:0:
108,288,116125,1,0,0:0:0:0:
455,356,116283,5,0,3:2:0:0:
197,215,116441,1,2,1:2:0:0:
186,233,116757,5,0,3:2:0:0:
512,92,116915,1,2,1:2:0:0:
505,76,117231,5,0,3:2:0:0:
292,330,117388,1,0,3:2:0:0:
116,58,117546,1,2,1:2:0:0:
