osu file format v14

[General]
AudioFilename: audio.mp3
AudioLeadIn: 0
PreviewTime: 43688
Countdown: 0
SampleSet: Soft
StackLeniency: 0.7
Mode: 0
LetterboxInBreaks: 0
WidescreenStoryboard: 1

[Editor]
DistanceSpacing: 1.5
BeatDivisor: 8
GridSize: 32
TimelineZoom: 2

[Metadata]
Title:VIOLET
TitleUnicode:VIOLET
Artist:Ninomae Ina'nis
ArtistUnicode:Ninomae Ina'nis
Creator:rosario wknd
Version:HARD
Source:
Tags:hololive en english japanese inanis ina holomyth holo myth virtual youtuber vtuber cover corp corporation idol jpop j-pop pop seibin LUMINA Benicx
BeatmapID:3159467
BeatmapSetID:1539730

[Difficulty]
HPDrainRate:4
CircleSize:4.2
OverallDifficulty:6
ApproachRate:8
SliderMultiplier:2.4
SliderTickRate:1

[Events]
//Background and Video events
0,0,"octopus.jpeg",0,0
Video,-420,"violet.mp4"
//Break Periods
2,30888,32605
2,65555,75271
2,94888,96605
2,172021,173605
//Storyboard Layer 0 (Background)
//Storyboard Layer 1 (Fail)
//Storyboard Layer 2 (Pass)
//Storyboard Layer 3 (Foreground)
//Storyboard Layer 4 (Overlay)
//Storyboard Sound Samples

[TimingPoints]
1355,666.666666666667,4,2,1,30,1,0
1688,-166.666666666667,4,2,1,30,0,0
12021,-166.666666666667,4,2,1,35,0,0
12354,-111.111111111111,4,2,1,35,0,0
16688,-142.857142857143,4,2,1,35,0,0
17354,-111.111111111111,4,2,1,35,0,0
22021,-142.857142857143,4,2,1,35,0,0
22688,-111.111111111111,4,2,1,35,0,0
27354,-142.857142857143,4,2,1,35,0,0
28021,-111.111111111111,4,2,1,35,0,0
33354,-90.909090909091,4,2,1,50,0,0
41354,-90.909090909091,4,2,1,55,0,0
42021,-125,4,2,1,55,0,0
43021,-100,4,2,1,55,0,0
44021,-83.3333333333333,4,2,1,65,0,1
65355,-83.3333333333333,4,2,1,40,0,0
76021,-90.9090909090909,4,2,2,40,0,0
80688,-100,4,2,2,40,0,0
81354,-90.9090909090909,4,2,2,40,0,0
86021,-100,4,2,2,40,0,0
86688,-90.9090909090909,4,2,2,40,0,0
91354,-100,4,2,2,40,0,0
92021,-90.9090909090909,4,2,2,40,0,0
94688,-83.3333333333333,4,2,1,50,0,0
97354,-90.9090909090909,4,2,1,50,0,0
102688,-90.9090909090909,4,2,1,55,0,0
106021,-125,4,2,1,55,0,0
107021,-100,4,2,1,55,0,0
108021,-83.3333333333333,4,2,1,65,0,1
128688,-83.3333333333333,4,2,1,70,0,0
129355,-83.3333333333333,4,2,1,80,0,1
130021,-83.3333333333333,4,2,1,80,0,0
130355,-83.3333333333333,4,2,1,80,0,1
131021,-83.3333333333333,4,2,1,80,0,0
132021,-83.3333333333333,4,2,1,80,0,1
132688,-83.3333333333333,4,2,1,80,0,0
133021,-83.3333333333333,4,2,1,80,0,1
133688,-83.3333333333333,4,2,1,80,0,0
134688,-83.3333333333333,4,2,1,80,0,1
135355,-83.3333333333333,4,2,1,80,0,0
135688,-83.3333333333333,4,2,1,80,0,1
136355,-83.3333333333333,4,2,1,80,0,0
137355,-83.3333333333333,4,2,1,80,0,1
138021,-83.3333333333333,4,2,1,80,0,0
138355,-83.3333333333333,4,2,1,80,0,1
139021,-83.3333333333333,4,2,1,80,0,0
140021,-76.9230769230769,4,2,1,80,0,1
140688,-76.9230769230769,4,2,1,80,0,0
141021,-76.9230769230769,4,2,1,80,0,1
141688,-76.9230769230769,4,2,1,80,0,0
142688,-76.9230769230769,4,2,1,80,0,1
143355,-76.9230769230769,4,2,1,80,0,0
143688,-76.9230769230769,4,2,1,80,0,1
144355,-76.9230769230769,4,2,1,80,0,0
145355,-76.9230769230769,4,2,1,80,0,1
146021,-76.9230769230769,4,2,1,80,0,0
146355,-76.9230769230769,4,2,1,80,0,1
147021,-76.9230769230769,4,2,1,80,0,0
148021,-76.9230769230769,4,2,1,80,0,1
149021,-83.3333333333333,4,2,1,70,0,0
152021,-83.3333333333333,4,2,1,5,0,0
153354,-166.666666666667,4,2,1,30,0,0
164021,-111.111111111111,4,2,1,35,0,0
168688,-142.857142857143,4,2,1,35,0,0
169854,-111.111111111111,4,2,1,35,0,0
174354,-166.666666666666,4,2,1,35,0,0
174688,-83.3333333333333,4,2,1,65,0,1
195855,-83.3333333333333,4,2,1,40,0,0

[Colours]
Combo1 : 202,202,0
Combo2 : 80,45,202
SliderBorder : 210,210,210

[HitObjects]
468,16,1355,5,2,0:0:0:0:
468,16,1688,2,0,L|456:92,1,71.9999978027344,2|2,0:0|0:0,0:0:0:0:
376,197,2355,1,2,0:0:0:0:
376,197,2688,2,0,L|396:272,1,71.9999978027344,2|2,0:0|0:0,0:0:0:0:
456,309,3188,1,0,0:0:0:0:
456,309,3355,5,0,0:0:0:0:
294,353,3688,2,0,L|267:345,2,23.9999992675781
336,336,4021,2,0,B|407:359|407:359|409:365|409:365|475:386,2,143.999995605469,2|2|2,0:0|0:0|0:0,0:0:0:0:
336,336,5688,1,0,0:0:0:0:
219,366,6021,2,0,P|158:379|130:322,1,119.999996337891,2|0,0:0|0:0,0:0:0:0:
129,337,6688,6,0,L|153:251,1,71.9999978027344,2|0,0:0|0:0,0:0:0:0:
195,217,7188,1,0,0:0:0:0:
195,217,7355,2,0,L|173:138,1,71.9999978027344,2|2,0:0|0:0,0:0:0:0:
257,37,8021,2,0,P|294:33|324:65,2,71.9999978027344,2|2|0,0:0|0:0|0:0,0:0:0:0:
112,48,9021,2,0,L|104:25,2,23.9999992675781
130,89,9355,6,0,L|93:204,1,107.999996704102,2|0,0:0|0:0,0:0:0:0:
42,233,10021,2,0,L|57:314,1,71.9999978027344,2|0,0:0|0:0,0:0:0:0:
178,362,10688,5,2,0:0:0:0:
178,362,10855,2,0,B|193:328|193:328|173:291,1,71.9999978027344,2|0,0:0|0:0,0:0:0:0:
176,297,11355,1,0,0:0:0:0:
345,325,12021,5,2,0:0:0:0:
345,325,12355,6,0,L|330:261,1,53.9999983520508,2|2,0:0|0:0,0:0:0:0:
275,222,12688,2,0,L|304:110,1,107.999996704102,2|2,0:0|0:0,0:0:0:0:
363,73,13188,1,2,0:0:0:0:
218,156,13521,1,2,0:0:0:0:
218,156,13855,2,0,P|174:139|119:190,1,107.999996704102,2|0,0:0|0:0,0:0:0:0:
125,169,14355,1,2,0:0:0:0:
125,169,14688,6,0,B|88:127|88:127|124:67,1,107.999996704102,2|2,0:0|0:0,0:0:0:0:
162,23,15188,2,0,L|238:46,1,53.9999983520508,2|0,0:0|0:0,0:0:0:0:
274,83,15521,2,0,L|349:64,1,53.9999983520508,2|0,0:0|0:0,0:0:0:0:
398,21,15855,1,2,0:0:0:0:
398,21,16021,2,0,B|438:109|438:109|414:123|380:160,1,161.999995056153,0|2,0:0|0:0,0:0:0:0:
409,218,16688,2,0,P|425:255|426:208,1,125.999996154785,2|0,0:0|0:0,0:0:0:0:
388,151,17355,5,2,0:0:0:0:
388,151,17688,1,2,0:0:0:0:
281,231,18021,1,2,0:0:0:0:
281,231,18188,2,0,L|344:249,1,53.9999983520508,2|0,0:0|0:0,0:0:0:0:
385,300,18521,2,0,P|456:285|462:240,2,107.999996704102,2|2|2,0:0|0:0|0:0,0:0:0:0:
385,300,19355,1,0,0:0:0:0:
246,362,19688,1,2,0:0:0:0:
246,362,19855,1,2,0:0:0:0:
187,314,20021,6,0,L|218:193,1,107.999996704102,2|2,0:0|0:0,0:0:0:0:
282,176,20521,2,0,L|253:69,1,107.999996704102,2|2,0:0|0:0,0:0:0:0:
193,26,21021,1,2,0:0:0:0:
72,116,21355,2,0,L|6:101,2,53.9999983520508
129,165,21855,1,0,0:0:0:0:
129,165,22021,2,0,B|161:144|161:144|195:158|195:158|161:180|161:180|138:171,1,125.999996154785,2|0,0:0|0:0,0:0:0:0:
64,203,22688,5,2,0:0:0:0:
64,203,23021,2,0,L|82:275,1,53.9999983520508,2|2,0:0|0:0,0:0:0:0:
138,299,23355,2,0,P|137:350|79:369,1,107.999996704102,2|2,0:0|0:0,0:0:0:0:
20,343,23855,1,2,0:0:0:0:
117,226,24188,1,2,0:0:0:0:
29,102,24521,1,2,0:0:0:0:
29,102,24688,2,0,L|91:122,1,53.9999983520508
143,77,25021,1,2,0:0:0:0:
262,169,25355,6,0,P|315:174|353:117,1,107.999996704102,2|2,0:0|0:0,0:0:0:0:
356,61,25855,2,0,P|392:23|444:28,1,107.999996704102,2|2,0:0|0:0,0:0:0:0:
444,28,26521,1,2,0:0:0:0:
350,136,26855,1,2,0:0:0:0:
454,270,27188,1,2,0:0:0:0:
454,270,27355,2,0,B|402:288|402:288|388:305|388:305|328:325,1,125.999996154785,2|0,0:0|0:0,0:0:0:0:
285,372,28021,5,2,0:0:0:0:
285,372,28355,1,2,0:0:0:0:
224,326,28521,1,2,0:0:0:0:
152,351,28688,2,0,L|27:323,1,107.999996704102,2|2,0:0|0:0,0:0:0:0:
59,252,29188,2,0,P|57:196|13:172,2,107.999996704102,2|2|2,0:0|0:0|0:0,0:0:0:0:
59,252,30021,1,0,0:0:0:0:
172,152,30355,2,0,L|231:166,2,53.9999983520508,2|2|2,0:0|0:0|0:0,0:0:0:0:
171,152,33355,6,0,P|229:160|217:225,1,132.00000402832,6|2,3:0|0:0,0:0:0:0:
291,260,33855,1,2,0:0:0:0:
291,260,34021,2,0,P|283:318|218:306,1,132.00000402832,2|0,3:0|0:0,0:0:0:0:
152,350,34521,1,2,0:0:0:0:
152,350,34688,6,0,P|118:356|74:367,1,66.0000020141602,0|2,3:0|0:0,0:0:0:0:
28,310,35021,2,0,P|41:272|53:230,1,66.0000020141602
116,206,35355,1,0,3:0:0:0:
23,76,35688,1,2,0:0:0:0:
23,76,36021,6,0,P|75:29|141:59,1,132.00000402832,2|2,3:0|0:0,0:0:0:0:
171,111,36521,1,0,0:0:0:0:
171,111,36688,2,0,L|248:131,1,66.0000020141602,2|0,3:0|0:0,0:0:0:0:
301,84,37021,2,0,L|418:57,1,99.0000030212403,2|0,0:0|0:0,0:0:0:0:
429,37,37355,6,0,B|480:62|480:62|445:137,1,132.00000402832,0|0,3:0|0:0,0:0:0:0:
430,207,37855,1,2,0:0:0:0:
430,207,37938,1,2,0:0:0:0:
430,207,38021,2,0,P|395:193|340:180,1,66.0000020141602,2|2,3:0|0:0,0:0:0:0:
312,128,38355,1,2,0:0:0:0:
246,173,38521,1,2,0:0:0:0:
181,89,38688,6,0,P|133:98|118:192,1,132.00000402832,0|2,3:0|0:0,0:0:0:0:
152,241,39188,1,2,0:0:0:0:
152,241,39355,2,0,L|120:348,1,99.0000030212403,0|0,3:0|0:0,0:0:0:0:
150,369,39688,2,0,P|185:379|225:350,1,66.0000020141602,2|2,0:0|0:0,0:0:0:0:
278,314,40021,6,0,L|421:350,2,132.00000402832,0|2|2,3:0|0:0|3:0,0:0:0:0:
278,314,40855,1,0,0:0:0:0:
306,239,41021,2,0,P|288:177|273:133,1,99.0000030212403,2|0,0:0|0:0,0:0:0:0:
230,113,41355,5,2,3:0:0:0:
230,113,42021,2,0,B|336:144|336:88|360:22|433:42|462:55,1,240,6|0,3:0|0:0,0:0:0:0:
444,49,43021,2,0,P|427:65|433:115,1,60,0|0,3:0|0:0,0:0:0:0:
467,160,43355,5,8,0:3:0:0:
386,245,43688,1,2,3:0:0:0:
386,245,44021,2,0,P|457:240|485:318,1,143.999995605469,6|2,3:0|3:0,0:0:0:0:
343,365,44577,1,0,0:0:0:0:
343,365,44688,2,0,P|325:304|306:267,1,95.9999970703126,10|0,0:3|0:0,0:0:0:0:
277,227,45021,2,0,P|232:233|209:277,1,95.9999970703126,2|0,3:0|0:0,0:0:0:0:
162,307,45355,2,0,P|79:280|17:267,2,143.999995605469,0|2|10,3:0|3:0|0:3,0:0:0:0:
263,361,46243,1,0,0:0:0:0:
263,361,46355,2,0,P|289:298|262:268,1,95.9999970703126,2|0,3:0|0:0,0:0:0:0:
241,234,46688,6,0,B|229:211|197:185|197:185|239:113,1,143.999995605469,0|0,3:0|3:0,0:0:0:0:
319,38,47243,1,0,0:0:0:0:
319,38,47355,2,0,P|374:37|401:76,1,95.9999970703126,8|0,0:3|0:0,0:0:0:0:
398,65,47688,1,2,3:0:0:0:
319,149,47910,1,0,0:0:0:0:
319,149,48021,2,0,P|349:203|362:254,1,95.9999970703126,2|8,3:0|0:3,0:0:0:0:
392,282,48355,2,0,P|440:279|461:217,1,95.9999970703126,2|0,3:0|0:0,0:0:0:0:
453,184,48688,1,10,0:3:0:0:
506,82,48910,1,0,0:0:0:0:
506,82,49021,2,0,P|448:66|399:44,1,95.9999970703126,2|0,3:0|0:0,0:0:0:0:
361,30,49355,6,0,B|332:33|308:40|308:40|276:29|276:29|245:41|221:42,1,143.999995605469,0|0,3:0|3:0,0:0:0:0:
110,135,49910,1,0,0:0:0:0:
110,135,50021,2,0,P|78:87|110:36,1,95.9999970703126,10|0,0:3|0:0,0:0:0:0:
130,14,50355,2,0,P|190:33|240:47,1,95.9999970703126,2|0,3:0|0:0,0:0:0:0:
275,21,50688,1,0,3:0:0:0:
344,112,50910,1,8,0:3:0:0:
344,112,51021,1,2,3:0:0:0:
279,207,51243,1,0,0:0:0:0:
279,207,51355,2,0,P|226:215|161:238,1,95.9999970703126,10|0,0:3|0:0,0:0:0:0:
154,295,51688,6,0,B|96:300|108:279|52:276|59:202|133:191|181:179|151:313|261:320,1,287.999991210938,6|2,3:3|3:0,0:0:0:0:
331,362,52577,1,0,0:0:0:0:
331,362,52688,2,0,P|351:312|320:277,1,95.9999970703126,8|0,0:3|0:0,0:0:0:0:
274,254,53021,1,2,3:0:0:0:
357,159,53243,1,8,0:3:0:0:
357,159,53355,6,0,P|404:180|465:199,1,95.9999970703126,2|8,3:0|0:3,0:0:0:0:
482,239,53688,1,0,3:0:0:0:
420,345,53910,1,8,0:3:0:0:
420,345,54021,1,8,0:3:0:0:
293,303,54243,1,8,0:3:0:0:
293,303,54355,2,0,P|239:313|167:334,1,95.9999970703126,0|0,3:0|0:0,0:0:0:0:
141,319,54688,6,0,P|112:278|145:226,1,95.9999970703126,6|0,3:0|0:0,0:0:0:0:
174,202,55021,2,0,P|187:157|159:121,1,95.9999970703126,2|0,3:0|0:0,0:0:0:0:
116,82,55355,2,0,P|32:110|-7:123,1,95.9999970703126,10|0,0:3|0:0,0:0:0:0:
1,154,55688,1,2,3:0:0:0:
70,248,55910,1,0,0:0:0:0:
70,248,56021,6,0,B|114:273|150:282|150:282|134:323|152:359,1,143.999995605469,0|2,3:0|3:0,0:0:0:0:
256,367,56577,1,0,0:0:0:0:
256,367,56688,2,0,P|295:348|364:334,1,95.9999970703126,10|0,0:3|0:0,0:0:0:0:
400,353,57021,1,2,3:0:0:0:
481,272,57243,1,0,0:0:0:0:
481,272,57355,2,0,P|429:236|476:162,2,143.999995605469,0|0|8,3:0|3:0|0:3,0:0:0:0:
400,353,58243,1,0,0:0:0:0:
400,353,58355,1,2,3:0:0:0:
276,269,58577,1,0,0:0:0:0:
276,269,58688,6,0,P|286:234|302:189,1,47.9999985351563,2|0,3:0|0:0,0:0:0:0:
254,178,58910,1,8,0:3:0:0:
254,178,59021,2,0,P|243:128|221:51,1,95.9999970703126,0|0,3:0|0:0,0:0:0:0:
278,49,59355,1,8,0:3:0:0:
401,131,59577,1,0,0:0:0:0:
401,131,59688,2,0,P|465:108|464:54,1,95.9999970703126,0|0,3:0|0:0,0:0:0:0:
435,42,60021,6,0,B|368:29|368:29|362:23|362:23|292:10,1,143.999995605469,0|0,3:0|3:0,0:0:0:0:
106,121,60688,2,0,P|74:73|106:22,1,95.9999970703126,8|0,0:3|0:0,0:0:0:0:
126,0,61021,2,0,P|186:19|236:33,1,95.9999970703126,2|0,3:0|0:0,0:0:0:0:
248,77,61355,1,2,3:0:0:0:
178,168,61577,1,8,0:3:0:0:
178,168,61688,2,0,P|159:213|199:257,1,95.9999970703126,2|0,3:0|0:0,0:0:0:0:
237,265,62021,2,0,P|260:305|240:347,1,95.9999970703126,10|0,0:3|0:0,0:0:0:0:
162,361,62355,6,0,B|102:366|43:376|43:376|61:329|73:264|73:264|92:303|113:314,1,287.999991210938,6|0,3:0|3:0,0:0:0:0:
192,209,63243,1,0,0:0:0:0:
192,209,63355,2,0,P|244:201|285:253,1,95.9999970703126,8|0,0:3|0:0,0:0:0:0:
294,281,63688,1,0,3:0:0:0:
376,201,63910,6,0,B|390:164|408:142|408:142|355:82,1,143.999995605469,8|10,0:3|0:3,0:0:0:0:
304,106,64355,2,0,L|172:73,1,95.9999970703126,0|0,3:0|3:0,0:0:0:0:
167,44,64688,1,10,0:3:0:0:
138,50,64799,1,8,0:3:0:0:
110,57,64910,1,8,0:3:0:0:
81,63,65021,2,0,L|33:51,2,47.9999985351563,2|0|0,3:0|3:0|3:0,0:0:0:0:
81,63,65355,1,4,3:0:0:0:
50,329,76021,6,0,P|99:360|131:344,1,88.000002685547,0|0,3:0|0:0,0:0:0:0:
151,312,76355,2,0,P|127:270|127:256,2,44.0000013427735,10|8|8,0:3|0:3|0:3,0:0:0:0:
197,327,76688,1,10,3:3:0:0:
330,384,77021,2,0,P|409:352|431:347,1,88.000002685547,2|0,0:0|0:0,0:0:0:0:
429,306,77355,5,8,3:3:0:0:
422,280,77466,1,8,0:3:0:0:
413,255,77577,1,8,0:3:0:0:
406,229,77688,2,0,P|401:169|467:150,1,132.00000402832,8|0,3:3|3:0,0:0:0:0:
459,147,78188,1,0,3:0:0:0:
425,73,78355,1,10,3:3:0:0:
324,177,78688,6,0,P|278:159|212:141,1,88.000002685547,2|0,3:0|0:0,0:0:0:0:
200,121,79021,2,0,P|175:126|121:142,2,44.0000013427735,10|8|8,0:3|0:3|0:3,0:0:0:0:
215,75,79355,2,0,P|204:11|134:6,1,132.00000402832,8|2,3:3|0:0,0:0:0:0:
35,94,80021,6,0,P|51:143|59:169,1,44.0000013427735,8|8,3:3|0:3,0:0:0:0:
88,163,80243,1,8,0:3:0:0:
88,163,80355,2,0,L|55:275,1,88.000002685547,8|0,3:3|0:0,0:0:0:0:
53,295,80688,2,0,B|100:279|153:259|153:259|167:302|210:337,1,180,2|0,3:0|0:0,0:0:0:0:
251,279,81355,5,0,3:0:0:0:
251,279,81688,2,0,L|306:297,2,44.0000013427735,10|8|8,0:3|0:3|0:3,0:0:0:0:
220,241,82021,2,0,P|203:179|258:146,1,132.00000402832,10|2,3:3|0:0,0:0:0:0:
370,60,82688,5,8,3:3:0:0:
377,86,82799,1,8,0:3:0:0:
386,111,82910,1,8,0:3:0:0:
393,137,83021,2,0,P|374:198|360:249,1,88.000002685547,8|0,3:3|0:0,0:0:0:0:
367,221,83355,2,0,P|412:206|461:193,1,66.0000020141602,0|0,3:0|3:0,0:0:0:0:
493,238,83688,1,10,3:3:0:0:
393,363,84021,6,0,P|359:317|290:321,1,132.00000402832,10|10,3:3|0:3,0:0:0:0:
274,333,84466,1,8,0:3:0:0:
248,325,84577,1,8,0:3:0:0:
223,316,84688,2,0,B|214:276|214:276|217:270|217:270|206:212|206:212,1,88.000002685547,8|0,3:3|0:0,0:0:0:0:
246,199,85021,1,2,0:0:0:0:
147,92,85355,6,0,L|78:111,2,44.0000013427735,8|8|8,3:3|0:3|0:3,0:0:0:0:
175,52,85688,1,8,3:3:0:0:
243,75,85855,1,0,0:0:0:0:
313,58,86021,2,0,B|360:40|388:13|388:13|364:58|372:109,1,180,2|0,3:0|0:0,0:0:0:0:
434,155,86688,5,10,3:3:0:0:
434,155,87021,1,10,0:3:0:0:
434,155,87132,2,0,L|418:231,1,44.0000013427735,8|8,0:3|0:3,0:0:0:0:
401,237,87355,2,0,P|353:218|311:211,1,88.000002685547,10|0,3:3|0:0,0:0:0:0:
289,171,87688,1,2,0:0:0:0:
153,223,88021,5,8,3:3:0:0:
146,197,88132,1,8,0:3:0:0:
137,172,88243,1,8,0:3:0:0:
130,146,88355,2,0,B|150:91|150:91|154:89|154:89|181:14,1,132.00000402832,8|0,3:3|3:0,0:0:0:0:
109,0,88855,1,0,3:0:0:0:
46,34,89021,1,10,3:3:0:0:
130,146,89355,6,0,P|182:149|207:212,1,88.000002685547,2|0,3:0|0:0,0:0:0:0:
224,218,89688,2,0,P|279:208|291:206,2,44.0000013427735,10|8|8,0:3|0:3|0:3,0:0:0:0:
185,247,90021,2,0,P|139:277|164:349,1,132.00000402832,8|2,3:3|0:0,0:0:0:0:
329,169,90688,2,0,P|359:175|406:183,1,44.0000013427735,8|8,3:3|0:3,0:0:0:0:
403,215,90910,1,8,0:3:0:0:
403,215,91021,2,0,P|408:260|387:282,1,66.0000020141602,8|0,3:3|0:0,0:0:0:0:
315,274,91355,2,0,B|277:241|209:244|209:244|242:273|255:307,1,180,2|0,3:0|0:0,0:0:0:0:
297,352,92021,5,2,3:0:0:0:
153,330,92355,2,0,L|84:345,2,44.0000013427735,10|8|8,0:3|0:3|0:3,0:0:0:0:
183,291,92688,2,0,P|166:234|171:199,1,88.000002685547,10|0,3:3|0:0,0:0:0:0:
138,168,93021,1,2,0:0:0:0:
39,73,93355,5,8,3:3:0:0:
65,67,93466,1,8,0:3:0:0:
90,59,93577,1,8,0:3:0:0:
117,54,93688,2,0,P|179:60|192:119,1,132.00000402832,8|0,3:3|3:0,0:0:0:0:
138,168,94188,1,0,3:0:0:0:
69,144,94355,2,0,L|31:155,3,33.0000010070801,10|0|0|0,3:3|0:0|0:0|0:0,0:0:0:0:
37,153,94688,5,10,0:3:0:0:
69,144,97355,6,0,B|134:160|134:160|138:166|138:166|214:185,1,132.00000402832,6|2,3:0|0:0,0:0:0:0:
258,226,97855,1,2,0:0:0:0:
258,226,98021,2,0,B|323:210|323:210|327:204|327:204|403:185,1,132.00000402832,2|0,3:0|0:0,0:0:0:0:
421,120,98521,1,2,0:0:0:0:
421,120,98688,2,0,P|424:76|399:50,1,66.0000020141602,0|2,3:0|0:0,0:0:0:0:
346,15,99021,2,0,P|306:67|228:50,2,132.00000402832,0|0|2,0:0|3:0|0:0,0:0:0:0:
346,15,100021,6,0,P|327:91|318:158,1,132.00000402832,2|2,3:0|0:0,0:0:0:0:
362,210,100521,1,0,0:0:0:0:
362,210,100688,2,0,P|400:242|385:304,1,99.0000030212403,2|0,3:0|0:0,0:0:0:0:
365,311,101021,2,0,P|309:296|270:292,1,66.0000020141602,2|2,0:0|0:0,0:0:0:0:
250,355,101355,6,0,P|187:352|189:273,1,132.00000402832,0|0,3:0|0:0,0:0:0:0:
236,246,101855,1,2,0:0:0:0:
236,246,101938,1,2,0:0:0:0:
236,246,102021,2,0,P|263:185|271:168,1,66.0000020141602,2|2,3:0|0:0,0:0:0:0:
212,124,102355,1,2,0:0:0:0:
264,64,102521,1,2,0:0:0:0:
196,0,102688,6,0,B|171:18|154:39|154:39|124:20|62:9,1,132.00000402832,0|2,3:0|0:0,0:0:0:0:
27,68,103188,1,2,0:0:0:0:
27,68,103355,2,0,P|13:129|-6:179,1,99.0000030212403,0|0,3:0|0:0,0:0:0:0:
25,195,103688,2,0,P|43:254|46:275,1,66.0000020141602,2|2,0:0|0:0,0:0:0:0:
103,310,104021,2,0,P|177:307|201:367,1,132.00000402832,0|2,3:0|0:0,0:0:0:0:
277,375,104521,5,0,0:0:0:0:
330,316,104688,2,0,P|319:282|310:233,1,66.0000020141602,2|0,3:0|0:0,0:0:0:0:
350,182,105021,2,0,P|408:175|434:220,1,99.0000030212403,2|0,0:0|0:0,0:0:0:0:
444,240,105355,5,2,3:0:0:0:
444,240,106021,2,0,B|452:277|493:306|493:306|422:276|327:291,1,240,6|0,3:0|0:0,0:0:0:0:
339,289,107021,2,0,P|298:316|273:306,1,60,0|0,3:0|0:0,0:0:0:0:
231,273,107355,5,8,0:3:0:0:
325,163,107688,1,2,3:0:0:0:
325,163,108021,6,0,P|289:104|221:111,1,143.999995605469,6|2,3:0|3:0,0:0:0:0:
142,26,108577,1,0,0:0:0:0:
142,26,108688,2,0,P|124:87|109:115,1,95.9999970703126,10|0,0:3|0:0,0:0:0:0:
58,143,109021,1,2,3:0:0:0:
145,218,109243,1,0,0:0:0:0:
145,218,109355,6,0,B|180:211|208:204|208:204|248:217|248:217|314:202,1,143.999995605469,0|2,3:0|3:0,0:0:0:0:
349,113,109910,1,0,0:0:0:0:
349,113,110021,2,0,P|406:142|416:183,1,95.9999970703126,10|0,0:3|0:0,0:0:0:0:
394,222,110355,2,0,P|363:277|347:328,1,95.9999970703126,2|0,3:0|0:0,0:0:0:0:
387,353,110688,6,0,P|448:369|451:294,2,143.999995605469,0|0|8,3:0|3:0|0:3,0:0:0:0:
303,273,111577,1,0,0:0:0:0:
303,273,111688,1,2,3:0:0:0:
194,311,111910,1,0,0:0:0:0:
194,311,112021,6,0,P|165:257|201:220,1,95.9999970703126,2|8,3:0|0:3,0:0:0:0:
228,199,112355,2,0,P|243:155|214:119,1,95.9999970703126,2|0,3:0|0:0,0:0:0:0:
166,88,112688,1,10,0:3:0:0:
246,5,112910,1,0,0:0:0:0:
246,5,113021,2,0,P|323:34|354:40,1,95.9999970703126,2|0,3:0|0:0,0:0:0:0:
376,77,113355,6,0,B|401:55|416:27|416:27|457:47|524:69,1,143.999995605469,0|0,3:0|3:0,0:0:0:0:
441,162,113910,1,0,0:0:0:0:
441,162,114021,2,0,P|432:219|482:251,1,95.9999970703126,10|0,0:3|0:0,0:0:0:0:
503,277,114355,1,2,3:0:0:0:
433,369,114577,1,0,0:0:0:0:
433,369,114688,6,0,P|378:351|316:343,1,95.9999970703126,0|8,3:0|0:3,0:0:0:0:
313,293,115021,1,2,3:0:0:0:
403,221,115243,1,0,0:0:0:0:
403,221,115355,2,0,P|416:161|378:132,1,95.9999970703126,10|0,0:3|0:0,0:0:0:0:
408,69,115688,6,0,B|349:73|300:30|300:30|319:79|325:132|325:132|290:148|276:188,1,287.999991210938,6|2,3:3|3:0,0:0:0:0:
202,93,116577,1,0,0:0:0:0:
202,93,116688,1,8,0:3:0:0:
108,186,116910,1,0,0:0:0:0:
108,186,117021,2,0,P|73:134|98:86,1,95.9999970703126,2|8,3:0|0:3,0:0:0:0:
112,57,117355,6,0,P|159:78|220:97,1,95.9999970703126,2|8,3:0|0:3,0:0:0:0:
255,71,117688,1,0,3:0:0:0:
370,123,117910,1,8,0:3:0:0:
370,123,118021,2,0,P|389:178|348:218,1,95.9999970703126,8|8,0:3|0:3,0:0:0:0:
324,235,118355,1,0,3:0:0:0:
384,337,118577,1,0,0:0:0:0:
384,337,118688,6,0,P|275:363|256:374,1,95.9999970703126,6|0,3:0|0:0,0:0:0:0:
236,336,119021,2,0,P|176:324|143:360,1,95.9999970703126,2|0,3:0|0:0,0:0:0:0:
112,384,119355,1,10,0:3:0:0:
5,238,119577,1,0,0:0:0:0:
5,238,119688,2,0,P|65:257|102:268,1,95.9999970703126,2|0,3:0|0:0,0:0:0:0:
147,239,120021,6,0,P|201:187|270:224,1,143.999995605469,0|2,3:0|3:0,0:0:0:0:
360,152,120577,1,0,0:0:0:0:
360,152,120688,2,0,P|329:92|323:47,1,95.9999970703126,10|0,0:3|0:0,0:0:0:0:
283,23,121021,1,2,3:0:0:0:
192,94,121243,1,0,0:0:0:0:
192,94,121355,6,0,B|138:77|138:77|102:81|102:81|36:63,2,143.999995605469,0|0|8,3:0|3:0|0:3,0:0:0:0:
266,182,122243,1,0,0:0:0:0:
266,182,122355,1,2,3:0:0:0:
366,79,122577,1,0,0:0:0:0:
366,79,122688,6,0,P|418:96|422:97,1,47.9999985351563,2|0,3:0|0:0,0:0:0:0:
465,75,122910,1,8,0:3:0:0:
465,75,123021,2,0,P|507:108|484:183,1,95.9999970703126,0|0,3:0|0:0,0:0:0:0:
466,186,123355,1,8,0:3:0:0:
484,324,123577,1,0,0:0:0:0:
484,324,123688,2,0,P|396:296|383:294,1,95.9999970703126,0|0,3:0|0:0,0:0:0:0:
345,262,124021,6,0,B|306:192|306:192|362:134,1,143.999995605469,0|0,3:0|3:0,0:0:0:0:
207,48,124688,2,0,P|140:42|114:85,1,95.9999970703126,8|0,0:3|0:0,0:0:0:0:
133,115,125021,2,0,P|158:176|160:214,1,95.9999970703126,2|0,3:0|0:0,0:0:0:0:
110,234,125355,1,2,3:0:0:0:
203,300,125577,1,8,0:3:0:0:
203,300,125688,2,0,P|271:309|296:270,1,95.9999970703126,2|0,3:0|0:0,0:0:0:0:
309,241,126021,2,0,P|349:218|392:235,1,95.9999970703126,10|0,0:3|0:0,0:0:0:0:
434,274,126355,5,2,3:0:0:0:
502,180,126577,1,0,0:0:0:0:
502,180,126688,2,0,P|453:132|475:49,1,143.999995605469,0|0,3:0|3:0,0:0:0:0:
356,18,127243,1,0,0:0:0:0:
356,18,127355,2,0,P|284:45|253:56,1,95.9999970703126,8|0,0:3|0:0,0:0:0:0:
208,46,127688,1,0,3:0:0:0:
325,148,127910,6,0,P|397:205|375:255,1,143.999995605469,8|10,0:3|0:3,0:0:0:0:
344,283,128355,2,0,P|302:267|212:250,1,95.9999970703126,0|0,3:0|3:0,0:0:0:0:
227,219,128688,5,10,0:3:0:0:
184,226,128799,1,8,0:3:0:0:
141,234,128910,1,8,0:3:0:0:
98,239,129021,2,0,L|31:218,2,47.9999985351563,2|0|0,3:0|3:0|3:0,0:0:0:0:
126,305,129355,6,0,B|161:307|189:338|189:338|240:249|173:195,1,215.999993408203,6|0,3:0|3:0,0:0:0:0:
110,127,130021,2,0,P|155:76|210:102,1,107.999996704102,8|0,0:3|0:0,0:0:0:0:
223,122,130355,6,0,B|269:117|317:100|317:100|338:56|338:56|374:38|428:37,1,215.999993408203,4|8,3:0|0:3,0:0:0:0:
494,116,131021,2,0,P|443:109|417:168,1,95.9999970703126,0|0,3:0|0:0,0:0:0:0:
444,206,131355,2,0,B|410:333,1,95.9999970703126,8|0,0:3|0:0,0:0:0:0:
373,354,131688,1,0,3:0:0:0:
310,329,131799,1,0,3:0:0:0:
301,262,131910,1,0,3:0:0:0:
341,208,132021,6,0,B|373:159|373:159|285:81|285:81|300:134,1,215.999993408203,4|0,3:0|3:0,0:0:0:0:
220,197,132688,6,0,P|168:169|104:161,1,107.999996704102,8|0,0:3|0:0,0:0:0:0:
90,122,133021,2,0,B|110:204|58:226|-11:227|15:326,1,215.999993408203,4|8,3:0|0:3,0:0:0:0:
95,375,133688,2,0,P|139:325|202:347,1,95.9999970703126,0|0,3:0|0:0,0:0:0:0:
229,353,134021,1,8,0:3:0:0:
340,260,134243,1,8,0:3:0:0:
340,260,134355,2,0,P|404:265|414:319,1,95.9999970703126,0|0,3:0|0:0,0:0:0:0:
453,362,134688,6,0,B|409:282|409:282|438:257|465:222,1,143.999995605469,4|0,3:0|0:0,0:0:0:0:
457,76,135243,1,0,3:0:0:0:
457,76,135355,2,0,P|391:58|363:102,1,107.999996704102,8|0,0:3|0:0,0:0:0:0:
349,140,135688,6,0,B|380:148|401:158|401:158|451:148|451:148|518:172|518:172|484:180|449:197,1,215.999993408203,4|8,3:0|0:3,0:0:0:0:
396,288,136355,2,0,P|338:305|295:252,1,107.999996704102,0|0,3:0|0:0,0:0:0:0:
263,222,136688,2,0,P|258:186|244:137,2,47.9999985351563,8|0|0,0:3|0:0|0:0,0:0:0:0:
214,282,137021,2,0,P|211:308|199:363,2,47.9999985351563,0|0|0,3:0|0:0|0:0,0:0:0:0:
153,233,137355,6,0,P|89:225|55:304,1,143.999995605469,6|0,3:0|0:0,0:0:0:0:
207,329,137910,1,0,3:0:0:0:
207,329,138021,2,0,P|265:305|306:296,1,95.9999970703126,8|0,0:3|0:0,0:0:0:0:
355,241,138355,2,0,P|428:237|409:358,1,215.999993408203,6|0,3:0|0:0,0:0:0:0:
296,368,139021,6,0,P|276:304|244:257,1,95.9999970703126,0|0,3:0|0:0,0:0:0:0:
212,208,139355,2,0,P|246:141|267:90,1,95.9999970703126,8|0,0:3|0:0,0:0:0:0:
207,53,139688,1,2,3:0:0:0:
207,53,140021,6,0,P|152:42|109:90,1,103.999995239258,6|0,3:0|0:0,0:0:0:0:
46,87,140355,2,0,P|23:130|56:187,1,103.999995239258,2|0,0:0|3:0,0:0:0:0:
15,246,140688,1,10,0:3:0:0:
176,302,141021,6,0,B|142:317|120:323|120:323|105:349|105:349|64:362|33:379,1,155.999992858887,6|0,3:0|0:0,0:0:0:0:
110,243,141577,1,8,0:3:0:0:
110,243,141688,2,0,P|161:207|211:232,1,103.999995239258,2|0,3:0|0:0,0:0:0:0:
255,261,142021,1,10,0:3:0:0:
370,173,142243,1,8,0:3:0:0:
370,173,142355,2,0,P|367:133|348:82,1,51.999997619629,0|0,3:0|0:0,0:0:0:0:
337,53,142577,1,0,0:0:0:0:
337,53,142688,6,0,P|409:30|447:90,1,155.999992858887,6|0,3:0|0:0,0:0:0:0:
510,208,143243,1,0,3:0:0:0:
510,208,143355,2,0,P|447:224|397:250,1,103.999995239258,8|0,0:3|0:0,0:0:0:0:
351,198,143688,6,0,P|296:191|259:282,1,155.999992858887,6|0,3:0|0:0,0:0:0:0:
368,360,144243,1,8,0:3:0:0:
368,360,144355,2,0,P|308:366|273:294,1,103.999995239258,2|0,3:0|0:0,0:0:0:0:
254,269,144688,1,10,0:3:0:0:
146,366,144910,1,8,0:3:0:0:
146,366,145021,1,0,3:0:0:0:
52,254,145243,1,8,0:3:0:0:
52,254,145355,6,0,P|72:202|84:151,1,103.999995239258,6|0,3:0|0:0,0:0:0:0:
155,138,145688,2,0,P|183:185|235:233,1,103.999995239258,2|0,0:0|3:0,0:0:0:0:
189,287,146021,1,10,0:3:0:0:
343,132,146355,6,0,B|473:178|473:178|430:175|384:208,1,233.999989288331,6|0,3:0|0:0,0:0:0:0:
278,262,147021,2,0,P|280:327|313:343,1,103.999995239258,2|0,3:0|0:0,0:0:0:0:
379,363,147355,1,10,0:3:0:0:
414,340,147466,1,8,0:3:0:0:
455,340,147577,1,8,0:3:0:0:
493,354,147688,2,0,P|499:326|517:284,2,51.999997619629,2|0|0,3:0|3:0|3:0,0:0:0:0:
435,271,148021,6,0,P|445:241|459:187,1,51.999997619629,6|0,3:0|0:0,0:0:0:0:
484,157,148243,1,8,0:3:0:0:
484,157,148355,2,0,L|452:36,1,103.999995239258,10|0,0:3|3:0,0:0:0:0:
394,19,148688,2,0,P|361:65|285:60,1,103.999995239258,2|0,3:0|3:0,0:0:0:0:
261,36,149021,5,6,3:0:0:0:
256,192,149077,12,0,152021,0:0:0:0:
443,351,153355,5,2,0:0:0:0:
443,351,153688,2,0,L|369:329,1,71.9999978027344,2|2,0:0|0:0,0:0:0:0:
279,232,154355,1,2,0:0:0:0:
279,232,154688,2,0,L|209:251,1,71.9999978027344,2|2,0:0|0:0,0:0:0:0:
160,299,155188,1,0,0:0:0:0:
160,299,155355,5,0,0:0:0:0:
49,218,155688,2,0,L|41:191,2,23.9999992675781
73,256,156021,2,0,P|89:295|11:346,2,143.999995605469,2|2|2,0:0|0:0|0:0,0:0:0:0:
73,256,157688,1,0,0:0:0:0:
179,170,158021,2,0,L|308:203,1,119.999996337891,2|0,0:0|0:0,0:0:0:0:
295,199,158688,6,0,P|364:211|404:137,1,143.999995605469,2|0,0:0|0:0,0:0:0:0:
452,28,159688,1,2,0:0:0:0:
452,28,160021,2,0,P|420:40|365:53,2,71.9999978027344,2|2|0,0:0|0:0|0:0,0:0:0:0:
464,164,161021,2,0,L|505:175,2,23.9999992675781
434,129,161355,6,0,B|390:139|390:139|385:146|385:146|318:161,1,107.999996704102,2|0,0:0|0:0,0:0:0:0:
278,200,162021,2,0,L|209:177,1,71.9999978027344,2|0,0:0|0:0,0:0:0:0:
92,105,162688,1,2,0:0:0:0:
92,105,162855,2,0,L|172:88,1,71.9999978027344,2|0,0:0|0:0,0:0:0:0:
162,90,163355,5,0,0:0:0:0:
310,25,164021,5,2,0:0:0:0:
310,25,164355,2,0,L|296:89,1,53.9999983520508,2|2,0:0|0:0,0:0:0:0:
366,111,164688,2,0,P|417:108|454:163,1,107.999996704102,2|2,0:0|0:0,0:0:0:0:
469,221,165188,2,0,P|436:274|461:317,1,107.999996704102,2|2,0:0|0:0,0:0:0:0:
316,375,165855,2,0,L|192:343,1,107.999996704102,2|0,0:0|0:0,0:0:0:0:
155,296,166355,1,2,0:0:0:0:
155,296,166688,6,0,P|151:232|190:203,1,107.999996704102,2|2,0:0|0:0,0:0:0:0:
231,149,167188,2,0,P|220:119|203:83,1,53.9999983520508,2|0,0:0|0:0,0:0:0:0:
154,49,167521,1,2,0:0:0:0:
43,152,167855,2,0,P|54:197|70:267,2,107.999996704102,2|2|2,0:0|0:0|0:0,0:0:0:0:
33,81,168688,2,0,B|63:70|79:38|79:38|75:76|94:106,1,125.999996154785,2|0,0:0|0:0,0:0:0:0:
127,167,169355,5,2,0:0:0:0:
127,167,169688,1,2,0:0:0:0:
127,167,169855,2,0,L|199:149,1,53.9999983520508,2|0,0:0|0:0,0:0:0:0:
241,187,170188,1,2,0:0:0:0:
368,116,170521,2,0,L|334:228,1,107.999996704102,2|2,0:0|0:0,0:0:0:0:
275,357,171188,2,0,L|242:236,1,107.999996704102,2|0,0:0|0:0,0:0:0:0:
246,252,171688,1,2,0:0:0:0:
369,357,174355,6,0,L|354:301,1,53.9999983520508
345,268,174688,6,0,B|289:286|289:286|270:310|270:310|211:331,1,143.999995605469,6|2,3:0|3:0,0:0:0:0:
108,360,175243,1,0,0:0:0:0:
108,360,175355,2,0,P|97:297|145:265,1,95.9999970703126,10|0,0:3|0:0,0:0:0:0:
136,222,175688,2,0,P|112:156|100:123,1,95.9999970703126,2|0,3:0|0:0,0:0:0:0:
118,76,176021,6,0,B|170:62|196:50|196:50|216:71|251:98,2,143.999995605469,0|2|10,3:0|3:0|0:3,0:0:0:0:
239,185,176910,1,0,0:0:0:0:
239,185,177021,2,0,P|305:171|315:132,1,95.9999970703126,2|0,3:0|0:0,0:0:0:0:
338,98,177355,6,0,B|402:118|402:118|408:126|408:126|490:153,1,143.999995605469,0|0,3:0|3:0,0:0:0:0:
493,259,177910,1,0,0:0:0:0:
493,259,178021,2,0,P|423:274|386:290,1,95.9999970703126,8|0,0:3|0:0,0:0:0:0:
355,318,178355,1,2,3:0:0:0:
266,244,178577,1,0,0:0:0:0:
266,244,178688,2,0,P|258:181|316:160,1,95.9999970703126,2|8,3:0|0:3,0:0:0:0:
330,140,179021,2,0,P|357:102|341:58,1,95.9999970703126,2|0,3:0|0:0,0:0:0:0:
294,26,179355,1,10,0:3:0:0:
201,94,179577,1,0,0:0:0:0:
201,94,179688,2,0,P|143:78|94:56,1,95.9999970703126,2|0,3:0|0:0,0:0:0:0:
62,30,180021,6,0,P|11:38|52:117,2,143.999995605469,0|0|10,3:0|3:0|0:3,0:0:0:0:
108,118,180910,1,0,0:0:0:0:
108,118,181021,2,0,P|183:98|208:92,1,95.9999970703126,2|0,3:0|0:0,0:0:0:0:
245,56,181355,1,0,3:0:0:0:
324,139,181577,1,8,0:3:0:0:
324,139,181688,1,2,3:0:0:0:
221,192,181910,1,0,0:0:0:0:
221,192,182021,2,0,P|213:244|275:278,1,95.9999970703126,10|0,0:3|0:0,0:0:0:0:
311,267,182355,6,0,B|346:284|395:286|395:286|259:345|259:345|296:352|308:366,1,287.999991210938,6|2,3:3|3:0,0:0:0:0:
197,278,183243,1,0,0:0:0:0:
197,278,183355,2,0,P|150:291|73:309,1,95.9999970703126,8|0,0:3|0:0,0:0:0:0:
48,285,183688,2,0,P|22:225|64:203,1,95.9999970703126,0|8,3:0|0:3,0:0:0:0:
78,171,184021,5,2,3:0:0:0:
9,65,184243,1,8,0:3:0:0:
9,65,184355,1,0,3:0:0:0:
138,4,184577,1,8,0:3:0:0:
138,4,184688,2,0,L|214:29,1,47.9999985351563,8|0,0:3|0:0,0:0:0:0:
223,60,184910,1,8,0:3:0:0:
223,60,185021,2,0,L|346:37,1,95.9999970703126,0|0,3:0|0:0,0:0:0:0:
368,15,185355,6,0,B|419:51|419:51|372:150,1,143.999995605469,6|2,3:0|3:0,0:0:0:0:
450,287,185910,1,0,0:0:0:0:
450,287,186021,2,0,P|487:235|460:194,1,95.9999970703126,10|0,0:3|0:0,0:0:0:0:
438,167,186355,1,2,3:0:0:0:
316,224,186577,1,0,0:0:0:0:
316,224,186688,2,0,B|274:190|242:182|242:182|298:180|330:147,2,143.999995605469,0|2|10,3:0|3:0|0:3,0:0:0:0:
400,353,187577,1,0,0:0:0:0:
400,353,187688,2,0,P|320:320|298:313,1,95.9999970703126,2|0,3:0|0:0,0:0:0:0:
264,283,188021,6,0,P|175:287|182:332,1,143.999995605469,2|0,3:0|3:0,0:0:0:0:
58,356,188577,1,0,0:0:0:0:
58,356,188688,2,0,L|28:233,1,95.9999970703126,8|0,0:3|0:0,0:0:0:0:
63,212,189021,1,0,3:0:0:0:
94,75,189243,1,0,0:0:0:0:
94,75,189355,6,0,L|73:-5,2,47.9999985351563,2|0|8,3:0|0:0|0:3,0:0:0:0:
126,123,189688,2,0,P|182:134|222:83,1,95.9999970703126,0|0,3:0|0:0,0:0:0:0:
242,64,190021,1,8,0:3:0:0:
345,168,190243,1,0,0:0:0:0:
345,168,190355,2,0,P|447:137|475:130,1,95.9999970703126,0|0,3:0|0:0,0:0:0:0:
494,130,190688,6,0,B|502:83|522:46|522:46|488:23|463:-6,1,143.999995605469,0|0,3:0|3:0,0:0:0:0:
363,74,191243,1,0,0:0:0:0:
363,74,191355,2,0,L|252:38,1,95.9999970703126,8|0,0:3|0:0,0:0:0:0:
222,14,191688,2,0,P|150:16|141:64,1,95.9999970703126,2|0,3:0|0:0,0:0:0:0:
143,86,192021,1,2,3:0:0:0:
217,173,192243,1,8,0:3:0:0:
217,173,192355,2,0,P|265:198|251:263,1,95.9999970703126,2|0,3:0|0:0,0:0:0:0:
234,281,192688,2,0,P|149:252|126:249,1,95.9999970703126,10|0,0:3|0:0,0:0:0:0:
93,299,193021,6,0,B|179:203|10:133|2:292|66:277|34:284|89:318|97:371|97:371,1,287.999991210938,6|0,3:0|3:0,0:0:0:0:
182,288,193910,1,0,0:0:0:0:
182,288,194021,2,0,P|240:288|266:227,1,95.9999970703126,8|0,0:3|0:0,0:0:0:0:
297,216,194355,1,0,3:0:0:0:
398,271,194577,6,0,P|457:275|470:363,1,143.999995605469,8|8,0:3|0:3,0:0:0:0:
436,384,195021,2,0,P|344:357|313:351,1,95.9999970703126,2|0,3:0|3:0,0:0:0:0:
300,319,195355,1,10,0:3:0:0:
262,327,195466,1,0,3:0:0:0:
225,338,195577,1,8,0:3:0:0:
188,349,195688,1,2,3:0:0:0:
188,349,195855,1,2,3:0:0:0:
