osu file format v14

[General]
AudioFilename: audio.mp3
AudioLeadIn: 0
PreviewTime: -1
Countdown: 1
SampleSet: Soft
StackLeniency: 0.7
Mode: 3
LetterboxInBreaks: 0
SpecialStyle: 0
WidescreenStoryboard: 0

[Editor]
DistanceSpacing: 1.5
BeatDivisor: 2
GridSize: 16
TimelineZoom: 1

[Metadata]
Title:Fukumekei Noise Ost
TitleUnicode:Fukumekei Noise Ost
Artist:Nino
ArtistUnicode:Nino
Creator:Zecralex
Version:Easy
Source:
Tags:
BeatmapID:1469919
BeatmapSetID:694878

[Difficulty]
HPDrainRate:6
CircleSize:4
OverallDifficulty:5
ApproachRate:5
SliderMultiplier:1.4
SliderTickRate:1

[Events]
//Background and Video events
//Break Periods
//Storyboard Layer 0 (Background)
//Storyboard Layer 1 (Fail)
//Storyboard Layer 2 (Pass)
//Storyboard Layer 3 (Foreground)
Sprite,Foreground,Centre,"maxresdefault.jpg",320,240 M,0,0,755,320,238.8364,318.8364,240.0033 M,0,755,763,318.8364,240.0033,318.2545,240.0033 M,0,763,771,318.2545,240.0033 M,0,771,780,318.2545,240.0033 M,0,780,789,318.2545,240.0033 M,0,789,797,318.2545,240.0033 M,0,797,805,318.2545,240.0033 M,0,805,1528,318.2545,240.0033,318.264,239.4246 M,0,1528,1535,318.264,239.4246 M,0,1535,1544,318.264,239.4246 M,0,1544,1552,318.264,239.4246 M,0,1552,1561,318.264,239.4246 M,0,1561,1569,318.264,239.4246 M,0,1569,1578,318.264,239.4246 M,0,1578,1587,318.264,239.4246 M,0,1587,1594,318.264,239.4246 M,0,1594,1602,318.264,239.4246 M,0,1602,1611,318.264,239.4246 M,0,1611,131709,318.264,239.4246,320,240.5818
//Storyboard Sound Samples

[TimingPoints]
1384.04109589041,410.958904109589,4,2,0,100,1,0

[Colours]
Combo1 : 23,162,221
Combo2 : 17,254,176
Combo3 : 179,179,255
Combo4 : 82,255,142
Combo5 : 245,245,245
Combo6 : 177,100,255
Combo7 : 0,255,255
Combo8 : 18,214,135

[HitObjects]
358,192,1384,5,0,0:0:0:0:
153,192,1795,1,0,0:0:0:0:
358,192,2411,1,0,0:0:0:0:
320,192,3233,1,0,0:0:0:0:
192,192,3644,1,0,0:0:0:0:
320,192,4055,128,0,4466:0:0:0:0:
192,192,4877,1,0,0:0:0:0:
153,192,5288,1,0,0:0:0:0:
256,192,6521,1,0,0:0:0:0:
358,192,6931,1,0,0:0:0:0:
192,192,7342,128,0,7959:0:0:0:0:
320,192,7548,128,0,7959:0:0:0:0:
256,192,8370,1,0,0:0:0:0:
256,192,8781,1,0,0:0:0:0:
256,192,10219,1,0,0:0:0:0:
358,192,10630,1,0,0:0:0:0:
51,192,11041,1,0,0:0:0:0:
153,192,11452,1,0,0:0:0:0:
256,192,11863,1,0,0:0:0:0:
320,192,12274,128,0,13918:0:0:0:0:
256,192,15151,1,0,0:0:0:0:
358,192,15562,1,0,0:0:0:0:
358,192,15973,1,0,0:0:0:0:
153,192,16384,1,0,0:0:0:0:
448,192,17411,1,0,0:0:0:0:
358,192,17822,1,0,0:0:0:0:
64,192,18233,128,0,18849:0:0:0:0:
256,192,19055,1,0,0:0:0:0:
256,192,19466,1,0,0:0:0:0:
448,192,20904,1,0,0:0:0:0:
358,192,21315,1,0,0:0:0:0:
153,192,21726,1,0,0:0:0:0:
256,192,22342,1,0,0:0:0:0:
64,192,23164,1,0,0:0:0:0:
320,192,23164,1,0,0:0:0:0:
320,192,24603,128,0,26041:0:0:0:0:
64,192,25219,128,0,26041:0:0:0:0:
256,192,26247,1,0,0:0:0:0:
153,192,26658,1,0,0:0:0:0:
153,192,27068,1,0,0:0:0:0:
256,192,27685,1,0,0:0:0:0:
256,192,28096,128,0,29945:0:0:0:0:
256,192,32411,1,0,0:0:0:0:
153,192,32822,1,0,0:0:0:0:
153,192,33233,1,0,0:0:0:0:
358,192,33644,1,0,0:0:0:0:
51,192,34466,1,0,0:0:0:0:
51,192,34877,1,0,0:0:0:0:
358,192,35288,128,0,36110:0:0:0:0:
153,192,36315,1,0,0:0:0:0:
320,192,36726,1,0,0:0:0:0:
358,192,37753,1,0,0:0:0:0:
358,192,38164,1,0,0:0:0:0:
153,192,38781,128,0,39603:0:0:0:0:
256,192,39808,1,0,0:0:0:0:
256,192,40219,1,0,0:0:0:0:
320,192,41452,1,0,0:0:0:0:
448,192,41863,1,0,0:0:0:0:
153,192,42274,1,0,0:0:0:0:
51,192,42685,1,0,0:0:0:0:
153,192,43096,1,0,0:0:0:0:
256,192,43507,128,0,45356:0:0:0:0:
448,192,44329,128,0,45356:0:0:0:0:
358,192,46384,1,0,0:0:0:0:
358,192,46794,1,0,0:0:0:0:
153,192,47205,1,0,0:0:0:0:
153,192,47616,1,0,0:0:0:0:
448,192,48438,1,0,0:0:0:0:
256,192,48849,1,0,0:0:0:0:
153,192,49466,128,0,50082:0:0:0:0:
256,192,50288,1,0,0:0:0:0:
358,192,50699,1,0,0:0:0:0:
256,192,52137,1,0,0:0:0:0:
153,192,52548,1,0,0:0:0:0:
51,192,52959,1,0,0:0:0:0:
358,192,53370,1,0,0:0:0:0:
448,192,54397,1,0,0:0:0:0:
256,192,55630,128,0,56452:0:0:0:0:
153,192,56452,128,0,57068:0:0:0:0:
358,192,57479,1,0,0:0:0:0:
256,192,57890,1,0,0:0:0:0:
153,192,59123,128,0,59740:0:0:0:0:
460,192,60151,1,0,0:0:0:0:
256,192,60973,1,0,0:0:0:0:
153,192,61384,1,0,0:0:0:0:
256,192,62205,1,0,0:0:0:0:
358,192,63027,1,0,0:0:0:0:
358,192,63233,1,0,0:0:0:0:
153,192,63644,1,0,0:0:0:0:
256,192,64466,1,0,0:0:0:0:
256,192,64877,1,0,0:0:0:0:
358,192,65288,1,0,0:0:0:0:
153,192,65699,1,0,0:0:0:0:
153,192,66110,128,0,66931:0:0:0:0:
256,192,67137,1,0,0:0:0:0:
358,192,67548,1,0,0:0:0:0:
448,192,67959,1,0,0:0:0:0:
358,192,68370,1,0,0:0:0:0:
358,192,68781,1,0,0:0:0:0:
448,192,69192,1,0,0:0:0:0:
153,192,69397,1,0,0:0:0:0:
51,192,69808,1,0,0:0:0:0:
256,192,70630,1,0,0:0:0:0:
358,192,71452,1,0,0:0:0:0:
64,192,71863,1,0,0:0:0:0:
448,192,72274,1,0,0:0:0:0:
256,192,72685,1,0,0:0:0:0:
153,192,73096,1,0,0:0:0:0:
256,192,73507,1,0,0:0:0:0:
358,192,74123,1,0,0:0:0:0:
448,192,74534,1,0,0:0:0:0:
256,192,74945,1,0,0:0:0:0:
153,192,75356,1,0,0:0:0:0:
153,192,75767,1,0,0:0:0:0:
256,192,76384,1,0,0:0:0:0:
358,192,76794,1,0,0:0:0:0:
153,192,77205,1,0,0:0:0:0:
358,192,77411,1,0,0:0:0:0:
256,192,77616,128,0,79466:0:0:0:0:
256,192,80493,1,0,0:0:0:0:
192,192,81315,1,0,0:0:0:0:
448,192,81315,1,0,0:0:0:0:
256,192,82548,1,0,0:0:0:0:
256,192,82753,1,0,0:0:0:0:
51,192,83370,1,0,0:0:0:0:
448,192,83370,1,0,0:0:0:0:
256,192,83986,1,0,0:0:0:0:
358,192,84397,1,0,0:0:0:0:
153,192,84808,1,0,0:0:0:0:
448,192,84808,1,0,0:0:0:0:
256,192,85630,1,0,0:0:0:0:
256,192,86041,1,0,0:0:0:0:
153,192,87068,1,0,0:0:0:0:
448,192,87068,1,0,0:0:0:0:
256,192,87479,1,0,0:0:0:0:
358,192,87890,1,0,0:0:0:0:
256,192,88301,1,0,0:0:0:0:
153,192,88712,1,0,0:0:0:0:
320,192,88712,1,0,0:0:0:0:
358,192,89123,1,0,0:0:0:0:
256,192,89740,1,0,0:0:0:0:
256,192,90151,1,0,0:0:0:0:
256,192,90562,1,0,0:0:0:0:
153,192,90973,128,0,92411:0:0:0:0:
358,192,90973,128,0,92411:0:0:0:0:
256,192,93644,128,0,94260:0:0:0:0:
153,192,94466,128,0,95082:0:0:0:0:
256,192,95904,1,0,0:0:0:0:
256,192,96110,1,0,0:0:0:0:
256,192,97137,1,0,0:0:0:0:
51,192,97548,1,0,0:0:0:0:
256,192,97959,128,0,98575:0:0:0:0:
256,192,99397,1,0,0:0:0:0:
256,192,99603,1,0,0:0:0:0:
256,192,100630,1,0,0:0:0:0:
64,192,101041,1,0,0:0:0:0:
153,192,101452,128,0,102068:0:0:0:0:
256,192,102890,1,0,0:0:0:0:
256,192,103096,1,0,0:0:0:0:
153,192,103712,128,0,104123:0:0:0:0:
358,192,103918,1,0,0:0:0:0:
256,192,104329,1,0,0:0:0:0:
256,192,104534,1,0,0:0:0:0:
256,192,104945,128,0,105973:0:0:0:0:
256,192,106384,1,0,0:0:0:0:
256,192,106589,1,0,0:0:0:0:
153,192,107616,1,0,0:0:0:0:
358,192,108027,1,0,0:0:0:0:
256,192,108644,128,0,109466:0:0:0:0:
256,192,109877,1,0,0:0:0:0:
256,192,110082,1,0,0:0:0:0:
448,192,110699,1,0,0:0:0:0:
256,192,111110,1,0,0:0:0:0:
358,192,111726,1,0,0:0:0:0:
153,192,112137,1,0,0:0:0:0:
256,192,113370,1,0,0:0:0:0:
51,192,113781,1,0,0:0:0:0:
153,192,114603,1,0,0:0:0:0:
256,192,115014,1,0,0:0:0:0:
358,192,115630,1,0,0:0:0:0:
51,192,116041,1,0,0:0:0:0:
153,192,116658,1,0,0:0:0:0:
358,192,117068,1,0,0:0:0:0:
256,192,117685,1,0,0:0:0:0:
153,192,118301,1,0,0:0:0:0:
256,192,118918,1,0,0:0:0:0:
320,192,119534,128,0,121589:0:0:0:0:
153,192,119945,128,0,121384:0:0:0:0:
51,192,120356,128,0,121178:0:0:0:0:
