osu file format v14

[General]
AudioFilename: Bloons TD Battles.mp3
AudioLeadIn: 0
PreviewTime: 26042
Countdown: 1
SampleSet: Soft
StackLeniency: 0.7
Mode: 3
LetterboxInBreaks: 1
SpecialStyle: 0
WidescreenStoryboard: 1

[Editor]
DistanceSpacing: 1.7
BeatDivisor: 4
GridSize: 16
TimelineZoom: 1.2

[Metadata]
Title:Bloons TD Battles Theme (Extended ver.)
TitleUnicode:Bloons TD Battles Theme (Extended ver.)
Artist:NinjaKiwi, Kaiparasoft
ArtistUnicode:NinjaKiwi, Kaiparasoft
Creator:Eeneehaww30PH
Version:4K HD
Source:Bloons TD battles
Tags:monkey td bloonstdbattles eeneehaww30ph btd5 btdb bloonstd5 ninjakiwi ninja kiwi
BeatmapID:858850
BeatmapSetID:394644

[Difficulty]
HPDrainRate:7
CircleSize:4
OverallDifficulty:7
ApproachRate:5
SliderMultiplier:1.4
SliderTickRate:1

[Events]
//Background and Video events
0,0,"unnamed.png",0,0
//Break Periods
//Storyboard Layer 0 (Background)
//Storyboard Layer 1 (Fail)
//Storyboard Layer 2 (Pass)
//Storyboard Layer 3 (Foreground)
//Storyboard Sound Samples

[TimingPoints]
14.1101367955673,433.808112211698,4,2,2,72,1,0
122,-100,4,2,1,72,0,0
26042,-100,4,2,1,72,0,1
26151,-100,4,2,1,72,0,0
27777,-100,4,2,2,72,0,1
27886,-100,4,2,2,72,0,1
41225,-100,4,2,1,72,0,1
41551,-100,4,2,1,72,0,0
41659,-100,4,2,2,72,0,1
41768,-100,4,2,2,72,0,1
41876,-100,4,2,2,72,0,1
55107,-100,4,2,1,72,0,1
55541,-100,4,2,2,72,0,0
55650,-100,4,2,1,72,0,0
81570,-100,4,2,1,72,0,1
81678,-100,4,2,1,72,0,0
83305,-100,4,2,2,72,0,1
96753,-100,4,2,1,72,0,1
97078,-100,4,2,1,72,0,0
97187,-100,4,2,2,72,0,1
110635,-100,4,2,1,72,0,0
111068,-100,4,2,2,72,0,0

[HitObjects]
64,192,14,5,4,0:0:0:0:
448,192,14,128,0,3484:0:0:0:0:
320,192,14,1,4,0:0:0:0:
192,192,231,1,0,0:0:0:0:
64,192,447,1,8,0:0:0:0:
320,192,447,1,8,0:0:0:0:
192,192,881,1,0,0:0:0:0:
64,192,1315,1,8,0:0:0:0:
320,192,1315,1,8,0:0:0:0:
192,192,1749,1,0,0:0:0:0:
320,192,1966,1,0,0:0:0:0:
192,192,2183,1,8,0:0:0:0:
64,192,2183,1,8,0:0:0:0:
320,192,2616,1,0,0:0:0:0:
192,192,3050,1,8,0:0:0:0:
64,192,3050,1,8,0:0:0:0:
192,192,3484,1,0,0:0:0:0:
64,192,3701,1,0,0:0:0:0:
192,192,3918,1,8,0:0:0:0:
448,192,3918,1,8,0:0:0:0:
320,192,4352,1,0,0:0:0:0:
192,192,4569,1,2,0:0:0:0:
320,192,4785,1,2,0:0:0:0:
64,192,4785,1,8,0:0:0:0:
448,192,5002,1,2,0:0:0:0:
64,192,5219,1,0,0:0:0:0:
192,192,5436,1,0,0:0:0:0:
320,192,5653,1,8,0:0:0:0:
448,192,5653,1,2,0:0:0:0:
192,192,5870,1,0,0:0:0:0:
64,192,6087,1,2,0:0:0:0:
448,192,6087,1,0,0:0:0:0:
320,192,6304,1,0,0:0:0:0:
64,192,6521,1,8,0:0:0:0:
192,192,6521,1,2,0:0:0:0:
64,192,6955,1,0,0:0:0:0:
320,192,6955,1,2,0:0:0:0:
192,192,7171,1,0,0:0:0:0:
64,192,7388,1,8,0:0:0:0:
448,192,7388,1,0,0:0:0:0:
192,192,7822,1,0,0:0:0:0:
64,192,8256,1,8,0:0:0:0:
320,192,8256,1,0,0:0:0:0:
320,192,8690,1,0,0:0:0:0:
64,192,8690,1,0,0:0:0:0:
192,192,8907,1,0,0:0:0:0:
320,192,9124,1,0,0:0:0:0:
448,192,9124,1,8,0:0:0:0:
192,192,9557,1,0,0:0:0:0:
320,192,9774,1,0,0:0:0:0:
64,192,9991,1,8,0:0:0:0:
448,192,9991,1,0,0:0:0:0:
192,192,10425,1,0,0:0:0:0:
448,192,10425,1,0,0:0:0:0:
320,192,10642,1,0,0:0:0:0:
64,192,10859,1,0,0:0:0:0:
448,192,10859,1,8,0:0:0:0:
192,192,11293,1,0,0:0:0:0:
320,192,11726,1,8,0:0:0:0:
448,192,11726,1,0,0:0:0:0:
64,192,12160,1,0,0:0:0:0:
448,192,12377,1,0,0:0:0:0:
192,192,12594,1,8,0:0:0:0:
320,192,12594,1,0,0:0:0:0:
448,192,13028,1,0,0:0:0:0:
320,192,13028,1,0,0:0:0:0:
64,192,13245,1,0,0:0:0:0:
192,192,13462,1,0,0:0:0:0:
320,192,13462,1,8,0:0:0:0:
448,192,13895,1,0,0:0:0:0:
64,192,13895,128,0,17366:0:0:0:0:
192,192,14112,1,0,0:0:0:0:
320,192,14329,1,8,0:0:0:0:
448,192,14329,1,0,0:0:0:0:
320,192,14763,1,0,0:0:0:0:
192,192,15197,1,0,0:0:0:0:
448,192,15197,1,8,0:0:0:0:
192,192,15631,1,0,0:0:0:0:
448,192,15631,1,0,0:0:0:0:
320,192,15848,1,0,0:0:0:0:
192,192,16065,1,8,0:0:0:0:
448,192,16065,1,0,0:0:0:0:
320,192,16498,1,0,0:0:0:0:
448,192,16932,1,8,0:0:0:0:
192,192,16932,1,0,0:0:0:0:
448,192,17366,1,0,0:0:0:0:
192,192,17366,1,0,0:0:0:0:
320,192,17583,1,0,0:0:0:0:
64,192,17800,1,0,0:0:0:0:
448,192,17800,1,8,0:0:0:0:
320,192,18234,1,0,0:0:0:0:
64,192,18450,1,2,0:0:0:0:
192,192,18667,1,8,0:0:0:0:
448,192,18667,1,2,0:0:0:0:
320,192,18884,1,2,0:0:0:0:
64,192,19101,1,0,0:0:0:0:
448,192,19101,1,0,0:0:0:0:
192,192,19318,1,0,0:0:0:0:
64,192,19535,1,2,0:0:0:0:
320,192,19535,1,8,0:0:0:0:
192,192,19752,1,0,0:0:0:0:
64,192,19969,1,0,0:0:0:0:
448,192,19969,1,2,0:0:0:0:
320,192,19969,1,0,0:0:0:0:
192,192,20186,1,0,0:0:0:0:
320,192,20403,1,8,0:0:0:0:
448,192,20403,1,2,0:0:0:0:
192,192,20836,1,0,0:0:0:0:
64,192,20836,1,2,0:0:0:0:
448,192,20836,1,0,0:0:0:0:
320,192,21053,1,0,0:0:0:0:
64,192,21270,1,8,0:0:0:0:
448,192,21270,1,0,0:0:0:0:
320,192,21704,1,0,0:0:0:0:
192,192,22138,1,0,0:0:0:0:
320,192,22138,1,8,0:0:0:0:
64,192,22572,1,0,0:0:0:0:
448,192,22572,1,0,0:0:0:0:
320,192,22789,1,0,0:0:0:0:
64,192,23005,1,8,0:0:0:0:
192,192,23005,1,0,0:0:0:0:
448,192,23439,1,0,0:0:0:0:
192,192,23656,1,0,0:0:0:0:
320,192,23873,1,0,0:0:0:0:
448,192,23873,1,8,0:0:0:0:
192,192,24307,1,0,0:0:0:0:
320,192,24307,1,0,0:0:0:0:
64,192,24524,1,0,0:0:0:0:
320,192,24741,1,0,0:0:0:0:
448,192,24741,1,8,0:0:0:0:
192,192,25174,1,0,0:0:0:0:
448,192,25174,1,0,0:0:0:0:
320,192,25391,1,0,0:0:0:0:
192,192,25608,1,0,0:0:0:0:
64,192,25608,1,8,0:0:0:0:
448,192,25608,1,0,0:0:0:0:
320,192,25825,1,0,0:0:0:0:
192,192,26042,1,0,0:0:0:0:
64,192,26042,1,0,0:0:0:0:
320,192,26259,1,8,0:0:0:0:
448,192,26259,1,8,0:0:0:0:
320,192,26693,1,0,0:0:0:0:
448,192,26693,1,0,0:0:0:0:
64,192,26910,1,8,0:0:0:0:
192,192,26910,1,8,0:0:0:0:
448,192,27127,1,0,0:0:0:0:
320,192,27235,1,0,0:0:0:0:
192,192,27344,1,8,0:0:0:0:
64,192,27452,1,8,0:0:0:0:
192,192,27560,1,0,0:0:0:0:
64,192,27777,1,4,0:0:0:0:
448,192,27777,1,4,0:0:0:0:
192,192,27994,1,0,0:0:0:0:
320,192,28211,1,8,0:0:0:0:
64,192,28211,1,10,0:0:0:0:
448,192,28428,1,0,0:0:0:0:
64,192,28645,1,2,0:0:0:0:
192,192,28862,1,0,0:0:0:0:
320,192,29079,1,8,0:0:0:0:
448,192,29079,1,10,0:0:0:0:
64,192,29296,1,0,0:0:0:0:
448,192,29513,1,2,0:0:0:0:
320,192,29729,1,0,0:0:0:0:
192,192,29946,1,10,0:0:0:0:
448,192,29946,1,8,0:0:0:0:
64,192,30163,1,0,0:0:0:0:
448,192,30380,1,2,0:0:0:0:
320,192,30597,1,0,0:0:0:0:
64,192,30706,1,0,0:0:0:0:
192,192,30814,1,10,0:0:0:0:
320,192,30814,1,8,0:0:0:0:
64,192,31031,1,0,0:0:0:0:
320,192,31248,1,2,0:0:0:0:
192,192,31465,1,0,0:0:0:0:
64,192,31682,1,8,0:0:0:0:
448,192,31682,1,10,0:0:0:0:
192,192,31899,1,0,0:0:0:0:
320,192,32115,1,2,0:0:0:0:
448,192,32332,1,0,0:0:0:0:
320,192,32549,1,10,0:0:0:0:
64,192,32549,1,8,0:0:0:0:
192,192,32766,1,0,0:0:0:0:
320,192,32983,1,2,0:0:0:0:
448,192,32983,128,0,33417:0:0:0:0:
192,192,33200,1,0,0:0:0:0:
64,192,33417,1,10,0:0:0:0:
320,192,33417,1,8,0:0:0:0:
320,192,33634,1,0,0:0:0:0:
192,192,33851,1,2,0:0:0:0:
64,192,33851,128,0,34284:0:0:0:0:
320,192,34068,1,0,0:0:0:0:
448,192,34284,1,10,0:0:0:0:
192,192,34284,1,8,0:0:0:0:
320,192,34501,1,0,0:0:0:0:
448,192,34718,1,4,0:0:0:0:
64,192,34718,1,4,0:0:0:0:
320,192,34935,1,0,0:0:0:0:
192,192,35152,1,8,0:0:0:0:
448,192,35152,1,10,0:0:0:0:
64,192,35369,1,0,0:0:0:0:
448,192,35586,1,2,0:0:0:0:
320,192,35803,1,0,0:0:0:0:
64,192,36020,1,10,0:0:0:0:
192,192,36020,1,8,0:0:0:0:
320,192,36237,1,0,0:0:0:0:
64,192,36453,1,2,0:0:0:0:
192,192,36670,1,0,0:0:0:0:
320,192,36887,1,10,0:0:0:0:
64,192,36887,1,8,0:0:0:0:
448,192,37104,1,0,0:0:0:0:
64,192,37321,1,2,0:0:0:0:
192,192,37538,1,0,0:0:0:0:
448,192,37646,1,0,0:0:0:0:
192,192,37755,1,8,0:0:0:0:
320,192,37755,1,10,0:0:0:0:
448,192,37972,1,0,0:0:0:0:
192,192,38189,1,2,0:0:0:0:
320,192,38406,1,0,0:0:0:0:
448,192,38623,1,8,0:0:0:0:
64,192,38623,1,10,0:0:0:0:
320,192,38839,1,0,0:0:0:0:
192,192,39056,1,2,0:0:0:0:
64,192,39273,1,0,0:0:0:0:
448,192,39490,1,8,0:0:0:0:
192,192,39490,1,10,0:0:0:0:
320,192,39707,1,0,0:0:0:0:
64,192,39924,1,0,0:0:0:0:
192,192,39924,1,0,0:0:0:0:
320,192,40141,1,8,0:0:0:0:
448,192,40141,1,8,0:0:0:0:
320,192,40575,1,0,0:0:0:0:
448,192,40575,1,0,0:0:0:0:
64,192,40792,1,8,0:0:0:0:
192,192,40792,1,8,0:0:0:0:
448,192,41008,1,0,0:0:0:0:
320,192,41117,1,0,0:0:0:0:
192,192,41225,1,8,0:0:0:0:
320,192,41334,1,8,0:0:0:0:
448,192,41442,1,0,0:0:0:0:
64,192,41659,1,4,0:0:0:0:
448,192,41659,1,4,0:0:0:0:
192,192,41876,1,0,0:0:0:0:
64,192,42093,1,10,0:0:0:0:
320,192,42093,1,8,0:0:0:0:
448,192,42310,1,0,0:0:0:0:
64,192,42527,1,2,0:0:0:0:
192,192,42744,1,0,0:0:0:0:
320,192,42961,1,8,0:0:0:0:
448,192,42961,1,10,0:0:0:0:
64,192,43178,1,0,0:0:0:0:
448,192,43394,1,2,0:0:0:0:
320,192,43611,1,0,0:0:0:0:
192,192,43828,1,10,0:0:0:0:
448,192,43828,1,8,0:0:0:0:
64,192,44045,1,0,0:0:0:0:
448,192,44262,1,2,0:0:0:0:
320,192,44479,1,0,0:0:0:0:
64,192,44587,1,0,0:0:0:0:
320,192,44696,1,8,0:0:0:0:
192,192,44696,1,10,0:0:0:0:
64,192,44913,1,0,0:0:0:0:
320,192,45130,1,2,0:0:0:0:
192,192,45347,1,0,0:0:0:0:
64,192,45563,1,8,0:0:0:0:
448,192,45563,1,10,0:0:0:0:
192,192,45780,1,0,0:0:0:0:
320,192,45997,1,2,0:0:0:0:
448,192,46214,1,0,0:0:0:0:
64,192,46431,1,8,0:0:0:0:
320,192,46431,1,10,0:0:0:0:
192,192,46648,1,0,0:0:0:0:
448,192,46865,128,0,47299:0:0:0:0:
320,192,46865,1,2,0:0:0:0:
192,192,47082,1,0,0:0:0:0:
320,192,47299,1,8,0:0:0:0:
64,192,47299,1,10,0:0:0:0:
320,192,47516,1,0,0:0:0:0:
192,192,47733,1,2,0:0:0:0:
64,192,47733,128,0,48166:0:0:0:0:
320,192,47949,1,0,0:0:0:0:
192,192,48166,1,8,0:0:0:0:
448,192,48166,1,10,0:0:0:0:
320,192,48383,1,0,0:0:0:0:
448,192,48600,1,4,0:0:0:0:
64,192,48600,1,4,0:0:0:0:
320,192,48817,1,0,0:0:0:0:
192,192,49034,1,8,0:0:0:0:
448,192,49034,1,10,0:0:0:0:
64,192,49251,1,0,0:0:0:0:
448,192,49468,1,2,0:0:0:0:
320,192,49685,1,0,0:0:0:0:
64,192,49902,1,10,0:0:0:0:
192,192,49902,1,8,0:0:0:0:
320,192,50118,1,0,0:0:0:0:
64,192,50335,1,2,0:0:0:0:
192,192,50552,1,0,0:0:0:0:
320,192,50769,1,10,0:0:0:0:
64,192,50769,1,8,0:0:0:0:
448,192,50986,1,0,0:0:0:0:
64,192,51203,1,2,0:0:0:0:
448,192,51420,1,0,0:0:0:0:
320,192,51528,1,0,0:0:0:0:
64,192,51637,1,8,0:0:0:0:
192,192,51637,1,10,0:0:0:0:
448,192,51854,1,0,0:0:0:0:
192,192,52071,1,2,0:0:0:0:
320,192,52287,1,0,0:0:0:0:
64,192,52504,1,10,0:0:0:0:
448,192,52504,1,8,0:0:0:0:
320,192,52721,1,0,0:0:0:0:
192,192,52938,1,2,0:0:0:0:
64,192,53155,1,0,0:0:0:0:
192,192,53372,1,10,0:0:0:0:
448,192,53372,1,8,0:0:0:0:
320,192,53589,1,0,0:0:0:0:
64,192,53806,1,0,0:0:0:0:
192,192,53806,1,0,0:0:0:0:
448,192,54023,1,8,0:0:0:0:
320,192,54023,1,8,0:0:0:0:
448,192,54457,1,0,0:0:0:0:
320,192,54457,1,0,0:0:0:0:
192,192,54673,1,8,0:0:0:0:
64,192,54673,1,8,0:0:0:0:
448,192,54890,1,0,0:0:0:0:
320,192,54999,1,0,0:0:0:0:
192,192,55107,1,8,0:0:0:0:
320,192,55216,1,8,0:0:0:0:
448,192,55324,1,0,0:0:0:0:
320,192,55541,5,4,0:0:0:0:
64,192,55541,1,0,0:0:0:0:
320,192,55758,1,0,0:0:0:0:
192,192,55975,1,0,0:0:0:0:
448,192,55975,1,8,0:0:0:0:
192,192,56409,1,0,0:0:0:0:
320,192,56842,1,0,0:0:0:0:
64,192,56842,1,8,0:0:0:0:
320,192,57276,1,0,0:0:0:0:
64,192,57276,1,0,0:0:0:0:
320,192,57493,1,0,0:0:0:0:
192,192,57710,1,0,0:0:0:0:
448,192,57710,1,8,0:0:0:0:
320,192,58144,1,0,0:0:0:0:
192,192,58578,1,0,0:0:0:0:
64,192,58578,1,0,0:0:0:0:
320,192,59012,1,0,0:0:0:0:
192,192,59012,1,0,0:0:0:0:
64,192,59228,1,0,0:0:0:0:
448,192,59445,1,8,0:0:0:0:
192,192,59445,1,0,0:0:0:0:
320,192,59879,1,0,0:0:0:0:
192,192,60096,1,2,0:0:0:0:
320,192,60313,1,2,0:0:0:0:
64,192,60313,1,8,0:0:0:0:
448,192,60530,1,2,0:0:0:0:
64,192,60747,1,0,0:0:0:0:
64,192,60964,1,0,0:0:0:0:
448,192,61181,1,2,0:0:0:0:
320,192,61181,1,8,0:0:0:0:
192,192,61397,1,0,0:0:0:0:
448,192,61614,1,0,0:0:0:0:
64,192,61614,1,2,0:0:0:0:
320,192,61831,1,0,0:0:0:0:
64,192,62048,1,8,0:0:0:0:
192,192,62048,1,2,0:0:0:0:
320,192,62482,1,2,0:0:0:0:
64,192,62482,1,0,0:0:0:0:
64,192,62699,1,0,0:0:0:0:
192,192,62916,1,8,0:0:0:0:
320,192,62916,1,0,0:0:0:0:
448,192,63350,1,0,0:0:0:0:
320,192,63783,1,0,0:0:0:0:
64,192,63783,1,8,0:0:0:0:
64,192,64217,1,0,0:0:0:0:
192,192,64217,1,0,0:0:0:0:
64,192,64434,1,0,0:0:0:0:
448,192,64651,1,8,0:0:0:0:
320,192,64651,1,0,0:0:0:0:
192,192,65085,1,0,0:0:0:0:
320,192,65302,1,0,0:0:0:0:
448,192,65519,1,0,0:0:0:0:
64,192,65519,1,8,0:0:0:0:
448,192,65952,1,0,0:0:0:0:
192,192,65952,1,0,0:0:0:0:
448,192,66169,1,0,0:0:0:0:
320,192,66386,1,8,0:0:0:0:
64,192,66386,1,0,0:0:0:0:
192,192,66820,1,0,0:0:0:0:
320,192,67254,1,8,0:0:0:0:
448,192,67254,1,0,0:0:0:0:
64,192,67688,1,0,0:0:0:0:
64,192,67905,1,0,0:0:0:0:
320,192,68121,1,0,0:0:0:0:
192,192,68121,1,8,0:0:0:0:
320,192,68555,1,0,0:0:0:0:
448,192,68555,1,0,0:0:0:0:
320,192,68772,1,0,0:0:0:0:
192,192,68989,1,0,0:0:0:0:
64,192,68989,1,8,0:0:0:0:
448,192,69423,1,0,0:0:0:0:
64,192,69423,1,0,0:0:0:0:
64,192,69640,1,0,0:0:0:0:
448,192,69857,1,0,0:0:0:0:
320,192,69857,1,8,0:0:0:0:
320,192,70291,1,0,0:0:0:0:
192,192,70724,1,0,0:0:0:0:
448,192,70724,1,8,0:0:0:0:
448,192,71158,1,0,0:0:0:0:
192,192,71158,1,0,0:0:0:0:
448,192,71375,1,0,0:0:0:0:
64,192,71592,1,8,0:0:0:0:
320,192,71592,1,0,0:0:0:0:
192,192,72026,1,0,0:0:0:0:
192,192,72460,1,0,0:0:0:0:
64,192,72460,1,8,0:0:0:0:
64,192,72893,1,0,0:0:0:0:
320,192,72893,1,0,0:0:0:0:
64,192,73110,1,0,0:0:0:0:
192,192,73327,1,0,0:0:0:0:
448,192,73327,1,8,0:0:0:0:
320,192,73761,1,0,0:0:0:0:
448,192,73978,1,2,0:0:0:0:
448,192,74195,1,2,0:0:0:0:
192,192,74195,1,8,0:0:0:0:
320,192,74412,1,2,0:0:0:0:
64,192,74629,1,0,0:0:0:0:
448,192,74629,1,0,0:0:0:0:
448,192,74846,1,0,0:0:0:0:
320,192,75062,1,8,0:0:0:0:
192,192,75062,1,2,0:0:0:0:
320,192,75279,1,0,0:0:0:0:
448,192,75496,1,2,0:0:0:0:
64,192,75496,1,0,0:0:0:0:
192,192,75496,1,0,0:0:0:0:
64,192,75713,1,0,0:0:0:0:
448,192,75930,1,2,0:0:0:0:
320,192,75930,1,8,0:0:0:0:
192,192,76364,1,0,0:0:0:0:
448,192,76364,1,0,0:0:0:0:
64,192,76364,1,2,0:0:0:0:
320,192,76581,1,0,0:0:0:0:
192,192,76798,1,8,0:0:0:0:
320,192,76798,1,0,0:0:0:0:
320,192,77231,1,0,0:0:0:0:
192,192,77665,1,0,0:0:0:0:
320,192,77665,1,8,0:0:0:0:
64,192,78099,1,0,0:0:0:0:
448,192,78099,1,0,0:0:0:0:
320,192,78316,1,0,0:0:0:0:
64,192,78533,1,8,0:0:0:0:
192,192,78533,1,0,0:0:0:0:
448,192,78967,1,0,0:0:0:0:
192,192,79184,1,0,0:0:0:0:
448,192,79400,1,8,0:0:0:0:
320,192,79400,1,0,0:0:0:0:
320,192,79834,1,0,0:0:0:0:
192,192,79834,1,0,0:0:0:0:
320,192,80051,1,0,0:0:0:0:
64,192,80268,1,0,0:0:0:0:
448,192,80268,1,8,0:0:0:0:
448,192,80702,1,0,0:0:0:0:
192,192,80702,1,0,0:0:0:0:
320,192,80919,1,0,0:0:0:0:
320,192,81136,1,0,0:0:0:0:
448,192,81136,1,0,0:0:0:0:
64,192,81136,1,8,0:0:0:0:
192,192,81353,1,0,0:0:0:0:
320,192,81570,1,0,0:0:0:0:
448,192,81570,1,0,0:0:0:0:
64,192,81786,1,8,0:0:0:0:
192,192,81786,1,8,0:0:0:0:
64,192,82220,1,0,0:0:0:0:
192,192,82220,1,0,0:0:0:0:
320,192,82437,1,8,0:0:0:0:
448,192,82437,1,8,0:0:0:0:
64,192,82654,1,0,0:0:0:0:
192,192,82763,1,0,0:0:0:0:
320,192,82871,1,8,0:0:0:0:
448,192,82979,1,8,0:0:0:0:
320,192,83088,1,0,0:0:0:0:
64,192,83305,1,4,0:0:0:0:
448,192,83305,1,4,0:0:0:0:
320,192,83522,1,0,0:0:0:0:
192,192,83739,1,8,0:0:0:0:
448,192,83739,1,10,0:0:0:0:
64,192,83955,1,0,0:0:0:0:
448,192,84172,1,2,0:0:0:0:
320,192,84389,1,0,0:0:0:0:
192,192,84606,1,8,0:0:0:0:
64,192,84606,1,10,0:0:0:0:
64,192,84823,1,0,0:0:0:0:
64,192,85040,1,2,0:0:0:0:
192,192,85257,1,0,0:0:0:0:
320,192,85474,1,10,0:0:0:0:
64,192,85474,1,8,0:0:0:0:
448,192,85691,1,0,0:0:0:0:
64,192,85908,1,2,0:0:0:0:
192,192,86125,1,0,0:0:0:0:
320,192,86341,1,10,0:0:0:0:
192,192,86341,1,8,0:0:0:0:
448,192,86558,1,0,0:0:0:0:
192,192,86775,1,2,0:0:0:0:
320,192,86992,1,0,0:0:0:0:
64,192,87209,1,10,0:0:0:0:
448,192,87209,1,8,0:0:0:0:
320,192,87426,1,0,0:0:0:0:
192,192,87643,1,2,0:0:0:0:
64,192,87860,1,0,0:0:0:0:
192,192,88077,1,10,0:0:0:0:
448,192,88077,1,8,0:0:0:0:
320,192,88294,1,0,0:0:0:0:
192,192,88510,1,2,0:0:0:0:
64,192,88510,128,0,88944:0:0:0:0:
320,192,88727,1,0,0:0:0:0:
192,192,88944,1,8,0:0:0:0:
448,192,88944,1,10,0:0:0:0:
192,192,89161,1,0,0:0:0:0:
320,192,89378,1,2,0:0:0:0:
448,192,89378,128,0,89812:0:0:0:0:
192,192,89595,1,0,0:0:0:0:
320,192,89812,1,8,0:0:0:0:
64,192,89812,1,10,0:0:0:0:
192,192,90029,1,0,0:0:0:0:
448,192,90246,1,4,0:0:0:0:
64,192,90246,1,4,0:0:0:0:
320,192,90463,1,0,0:0:0:0:
192,192,90680,1,8,0:0:0:0:
448,192,90680,1,10,0:0:0:0:
64,192,90896,1,0,0:0:0:0:
448,192,91113,1,2,0:0:0:0:
320,192,91330,1,0,0:0:0:0:
64,192,91547,1,10,0:0:0:0:
192,192,91547,1,8,0:0:0:0:
64,192,91764,1,0,0:0:0:0:
64,192,91981,1,2,0:0:0:0:
192,192,92198,1,0,0:0:0:0:
320,192,92415,1,10,0:0:0:0:
64,192,92415,1,8,0:0:0:0:
448,192,92632,1,0,0:0:0:0:
64,192,92849,1,2,0:0:0:0:
192,192,93065,1,0,0:0:0:0:
192,192,93282,1,8,0:0:0:0:
320,192,93282,1,10,0:0:0:0:
448,192,93499,1,0,0:0:0:0:
192,192,93716,1,2,0:0:0:0:
320,192,93933,1,0,0:0:0:0:
64,192,94150,1,10,0:0:0:0:
448,192,94150,1,8,0:0:0:0:
320,192,94367,1,0,0:0:0:0:
192,192,94584,1,2,0:0:0:0:
64,192,94801,1,0,0:0:0:0:
192,192,95018,1,10,0:0:0:0:
448,192,95018,1,8,0:0:0:0:
320,192,95234,1,0,0:0:0:0:
64,192,95451,1,0,0:0:0:0:
192,192,95451,1,0,0:0:0:0:
448,192,95668,1,8,0:0:0:0:
320,192,95668,1,8,0:0:0:0:
448,192,96102,1,0,0:0:0:0:
320,192,96102,1,0,0:0:0:0:
192,192,96319,1,8,0:0:0:0:
64,192,96319,1,8,0:0:0:0:
448,192,96536,1,0,0:0:0:0:
320,192,96644,1,0,0:0:0:0:
192,192,96753,1,8,0:0:0:0:
320,192,96861,1,8,0:0:0:0:
448,192,96970,1,0,0:0:0:0:
64,192,97187,1,4,0:0:0:0:
448,192,97187,1,4,0:0:0:0:
320,192,97404,1,0,0:0:0:0:
448,192,97620,1,10,0:0:0:0:
192,192,97620,1,8,0:0:0:0:
64,192,97837,1,0,0:0:0:0:
448,192,98054,1,2,0:0:0:0:
320,192,98271,1,0,0:0:0:0:
192,192,98488,1,8,0:0:0:0:
64,192,98488,1,10,0:0:0:0:
64,192,98705,1,0,0:0:0:0:
64,192,98922,1,2,0:0:0:0:
192,192,99139,1,0,0:0:0:0:
64,192,99356,1,8,0:0:0:0:
320,192,99356,1,10,0:0:0:0:
448,192,99573,1,0,0:0:0:0:
64,192,99789,1,2,0:0:0:0:
192,192,100006,1,0,0:0:0:0:
192,192,100223,1,8,0:0:0:0:
320,192,100223,1,10,0:0:0:0:
448,192,100440,1,0,0:0:0:0:
192,192,100657,1,2,0:0:0:0:
320,192,100874,1,0,0:0:0:0:
448,192,101091,1,8,0:0:0:0:
64,192,101091,1,10,0:0:0:0:
320,192,101308,1,0,0:0:0:0:
192,192,101525,1,2,0:0:0:0:
64,192,101742,1,0,0:0:0:0:
192,192,101959,1,10,0:0:0:0:
448,192,101959,1,8,0:0:0:0:
320,192,102175,1,0,0:0:0:0:
192,192,102392,1,2,0:0:0:0:
64,192,102392,128,0,102826:0:0:0:0:
320,192,102609,1,0,0:0:0:0:
448,192,102826,1,10,0:0:0:0:
192,192,102826,1,8,0:0:0:0:
192,192,103043,1,0,0:0:0:0:
320,192,103260,1,2,0:0:0:0:
448,192,103260,128,0,103694:0:0:0:0:
192,192,103477,1,0,0:0:0:0:
64,192,103694,1,10,0:0:0:0:
320,192,103694,1,8,0:0:0:0:
192,192,103911,1,0,0:0:0:0:
448,192,104128,1,4,0:0:0:0:
64,192,104128,1,4,0:0:0:0:
320,192,104344,1,0,0:0:0:0:
192,192,104561,1,8,0:0:0:0:
448,192,104561,1,10,0:0:0:0:
64,192,104778,1,0,0:0:0:0:
448,192,104995,1,2,0:0:0:0:
320,192,105212,1,0,0:0:0:0:
64,192,105429,1,10,0:0:0:0:
192,192,105429,1,8,0:0:0:0:
64,192,105646,1,0,0:0:0:0:
64,192,105863,1,2,0:0:0:0:
192,192,106080,1,0,0:0:0:0:
64,192,106297,1,8,0:0:0:0:
320,192,106297,1,10,0:0:0:0:
448,192,106514,1,0,0:0:0:0:
64,192,106730,1,2,0:0:0:0:
192,192,106947,1,0,0:0:0:0:
320,192,107164,1,10,0:0:0:0:
192,192,107164,1,8,0:0:0:0:
448,192,107381,1,0,0:0:0:0:
192,192,107598,1,2,0:0:0:0:
320,192,107815,1,0,0:0:0:0:
64,192,108032,1,10,0:0:0:0:
448,192,108032,1,8,0:0:0:0:
320,192,108249,1,0,0:0:0:0:
192,192,108466,1,2,0:0:0:0:
64,192,108683,1,0,0:0:0:0:
448,192,108899,1,8,0:0:0:0:
192,192,108899,1,10,0:0:0:0:
320,192,109116,1,0,0:0:0:0:
64,192,109333,1,0,0:0:0:0:
192,192,109333,1,0,0:0:0:0:
448,192,109550,1,8,0:0:0:0:
320,192,109550,1,8,0:0:0:0:
320,192,109984,1,0,0:0:0:0:
448,192,109984,1,0,0:0:0:0:
192,192,110201,1,8,0:0:0:0:
64,192,110201,1,8,0:0:0:0:
448,192,110418,1,0,0:0:0:0:
320,192,110526,1,0,0:0:0:0:
192,192,110635,1,8,0:0:0:0:
320,192,110743,1,8,0:0:0:0:
448,192,110852,1,0,0:0:0:0:
320,192,111068,5,4,0:0:0:0:
64,192,111068,1,0,0:0:0:0:
