osu file format v14

[General]
AudioFilename: audio.mp3
AudioLeadIn: 0
PreviewTime: 199027
Countdown: 0
SampleSet: Soft
StackLeniency: 0.7
Mode: 0
LetterboxInBreaks: 0
WidescreenStoryboard: 1

[Editor]
Bookmarks: 31286,76448,86770,99673,109996,143544,153866,166769,177092,199027,209349,242898
DistanceSpacing: 1.05
BeatDivisor: 12
GridSize: 4
TimelineZoom: 2.3

[Metadata]
Title:Africa
TitleUnicode:Africa
Artist:Ninja Sex Party
ArtistUnicode:Ninja Sex Party
Creator:Krisom
Version:Tough
Source:
Tags:Under The Covers Cover Soft Rock Toto English NSP Volume II 2 Dan Avidan Danny Sexbang Brian Wecht
BeatmapID:2769861
BeatmapSetID:1337088

[Difficulty]
HPDrainRate:5.5
CircleSize:4
OverallDifficulty:5.9
ApproachRate:6.9
SliderMultiplier:2.72
SliderTickRate:2

[Events]
//Background and Video events
0,0,"BGNSP.jpg",0,0
//Break Periods
2,99873,109081
2,166968,176176
//Storyboard Layer 0 (Background)
//Storyboard Layer 1 (Fail)
//Storyboard Layer 2 (Pass)
//Storyboard Layer 3 (Foreground)
//Storyboard Layer 4 (Overlay)
//Storyboard Sound Samples

[TimingPoints]
319,645.161290322581,4,2,1,60,1,0
38867,-125,4,2,1,60,0,0
40157,-100,4,2,1,60,0,0
40319,645.161290322581,4,2,1,45,1,0
42899,-100,4,2,1,60,0,0
51770,-100,4,2,1,60,0,0
51931,645.161290322581,4,2,1,45,1,0
54511,-100,4,2,1,60,0,0
62092,-117.647058823529,4,2,1,60,0,0
63383,-100,4,2,1,60,0,0
63544,645.161290322581,4,2,1,45,1,0
66125,-100,4,2,1,60,0,0
76447,-100,4,2,1,70,0,1
93060,-90.9090909090909,4,2,1,70,0,1
93544,-100,4,2,1,70,0,1
99673,-100,4,2,1,60,0,0
119027,645.161290322581,4,2,1,45,1,0
121608,-100,4,2,1,60,0,0
130639,645.161290322581,4,2,1,45,1,0
133221,-100,4,2,1,60,0,0
143542,-100,4,2,1,70,0,1
160155,-90.9090909090909,4,2,1,70,0,1
160639,-100,4,2,1,70,0,1
166768,-100,4,2,1,60,0,0
186124,645.161290322581,4,2,1,45,1,0
188382,-100,4,2,1,60,0,0
194833,-90.9090909090909,4,2,1,60,0,0
196446,-100,4,2,1,60,0,0
199027,-100,4,2,1,70,0,1
213059,-121.951219512195,4,2,1,70,0,1
214188,-100,4,2,1,70,0,1
242898,-100,4,2,1,70,0,0

[Colours]
Combo1 : 253,152,0
Combo2 : 198,134,15

[HitObjects]
0,360,31286,5,8,0:0:0:0:
40,300,31448,1,0,0:0:0:0:
112,300,31609,1,0,0:0:0:0:
152,240,31771,1,0,0:0:0:0:
152,168,31931,2,0,P|256:94|360:168,1,272,0|8,1:0|0:0,0:0:0:0:
359,239,32738,2,0,B|252:324,1,136,0|4,0:0|0:3,0:0:0:0:
296,380,33222,2,0,B|404:295,1,136,0|0,1:0|0:0,0:0:0:0:
460,252,33706,1,2,0:0:0:0:
48,28,34512,5,0,1:0:0:0:
48,28,34996,1,0,0:0:0:0:
120,28,35157,2,0,L|256:28,1,136,8|0,0:0|0:0,0:0:0:0:
256,172,35802,2,0,L|120:172,1,136,0|0,1:0|0:0,0:0:0:0:
48,172,36286,1,2,3:0:0:0:
120,296,36609,2,0,L|256:296,1,136,2|2,0:0|3:0,0:0:0:0:
327,296,37093,2,0,P|347:232|327:168,2,136,0|0|8,1:0|0:0|0:0,0:0:0:0:
352,364,37899,2,0,B|388:340|416:360|416:368|444:388|480:364,1,136,2|4,0:0|0:3,0:0:0:0:
496,296,38383,2,0,P|517:232|497:168,1,136,0|0,1:0|0:0,0:0:0:0:
480,100,38867,6,0,B|464:76|380:32|392:88|380:180|224:180|352:40|288:16|256:152|224:16|160:40|288:180|132:180|120:88|132:32|48:76|32:100,1,489.6,2|4,0:0|0:0,0:0:0:0:
220,204,40802,6,0,P|159:228|97:204,2,136,4|4|4,0:0|0:0|0:0,0:0:0:0:
292,204,41609,2,0,P|353:228|415:204,2,136,12|4|4,0:0|0:0|1:2,0:0:0:0:
512,360,42899,5,12,0:0:0:0:
420,252,43222,2,0,B|388:272|356:264|356:240|324:232|292:252,1,136,2|0,0:0|1:0,0:0:0:0:
220,252,43706,2,0,B|188:272|156:264|156:240|124:232|92:252,2,136,2|2|2,3:3|0:0|3:3,0:0:0:0:
188,188,44512,1,0,0:0:0:0:
220,48,44835,1,0,1:0:0:0:
292,48,44996,1,0,0:0:0:0:
324,188,45319,1,0,0:0:0:0:
464,28,46125,5,0,1:0:0:0:
464,28,46609,1,0,0:0:0:0:
448,96,46770,1,8,0:0:0:0:
428,164,46931,2,0,B|404:152|404:152|324:176|324:176|300:164,1,136,2|0,0:3|3:0,0:0:0:0:
84,164,47738,1,0,0:0:0:0:
84,164,48060,6,0,B|108:152|108:152|188:176|188:176|212:164,1,136,10|0,0:0|0:0,0:0:0:0:
184,100,48544,2,0,P|220:36|328:72,1,204,2|0,0:3|0:0,0:0:0:0:
428,164,49351,2,0,B|404:152|404:152|324:176|324:176|300:164,1,136,10|0,0:0|0:0,0:0:0:0:
256,220,49835,2,0,P|140:236|68:168,1,204,2|0,0:3|0:0,0:0:0:0:
12,60,50641,6,0,B|48:124|112:112|188:100|172:4|256:-4|340:4|324:100|400:112|464:124|500:60,1,544,8|12,0:0|0:0,0:0:0:0:
292,124,52414,6,0,B|306:158|337:170|351:150|382:162|396:197,2,136,4|4|4,0:0|0:0|0:0,0:0:0:0:
220,124,53221,2,0,B|205:158|174:170|160:150|129:162|115:197,2,136,12|4|4,0:0|0:0|0:0,0:0:0:0:
256,368,54511,5,12,0:0:0:0:
124,316,54834,2,0,B|44:316|44:316|4:272,2,136,0|0|0,0:0|1:0|0:0,0:0:0:0:
174,265,55640,2,0,B|254:265|254:265|294:221,2,136,2|2|2,0:3|0:0|0:3,0:0:0:0:
123,214,56447,2,0,B|43:214|43:214|3:170,1,136,0|0,1:0|0:0,0:0:0:0:
5,100,56931,1,2,0:3:0:0:
472,352,57737,5,0,1:0:0:0:
472,352,58382,2,0,L|400:352,1,68,8|0,0:0|0:0,0:0:0:0:
372,288,58705,1,0,0:0:0:0:
348,220,58866,2,0,B|256:176|256:176|164:220,1,204,2|0,0:3|0:0,0:0:0:0:
48,308,59672,6,0,P|81:366|144:368,1,136,8|0,0:0|0:0,0:0:0:0:
188,308,60156,2,0,L|324:308,1,136,2|0,0:3|0:0,0:0:0:0:
367,367,60640,2,0,P|432:365|464:308,1,136,2|8,0:0|0:0,0:0:0:0:
384,112,61447,5,0,0:0:0:0:
384,112,61608,1,0,1:0:0:0:
256,48,61931,1,0,0:0:0:0:
120,8,62253,6,0,B|64:20|32:64|-8:116|168:152|172:192|168:232|-8:268|32:320|64:364|120:376,1,462.40000881958,8|12,0:0|0:0,0:0:0:0:
292,248,64027,6,0,B|316:237|316:237|349:160|349:160|374:149,2,136,4|4|4,0:0|0:0|0:0,0:0:0:0:
220,248,64834,2,0,B|195:237|195:237|162:160|162:160|137:149,2,136,12|4|4,0:0|0:0|1:2,0:0:0:0:
256,8,66124,5,12,0:0:0:0:
388,68,66447,2,0,B|468:68|468:68|508:112,2,136,0|0|0,0:0|1:0|0:0,0:0:0:0:
338,119,67253,2,0,B|258:119|258:119|218:163,1,136,2|0,0:3|0:0,0:0:0:0:
292,284,67898,1,2,0:0:0:0:
436,284,68221,1,0,0:0:0:0:
508,160,68544,1,2,0:0:0:0:
256,364,69350,5,0,1:0:0:0:
256,84,69995,1,8,0:0:0:0:
256,84,70156,1,0,0:0:0:0:
160,188,70479,2,0,P|256:218|352:188,1,204,2|0,0:0|0:0,0:0:0:0:
256,84,71285,1,8,0:0:0:0:
197,40,71447,2,0,P|256:12|317:41,2,136,2|2|2,0:3|0:0|0:3,0:0:0:0:
140,84,72253,6,0,B|92:156|92:156|116:236|116:236|212:296|212:296|256:260|256:260|300:296|300:296|396:236|396:236|420:156|420:156|372:84,1,680,2|0,0:0|0:0,0:0:0:0:
372,84,74511,1,2,1:2:0:0:
372,84,75156,1,0,0:0:0:0:
372,84,75802,1,8,0:3:0:0:
472,356,76447,5,4,0:0:0:0:
399,343,76608,2,0,L|332:332,2,68,2|0|2,0:0|3:0|0:0,0:0:0:0:
422,275,77092,2,0,B|352:264|352:264|316:256|301:227,1,136,0|0,1:0|0:0,0:0:0:0:
332,164,77576,2,0,P|256:107|180:164,1,204,2|0,0:0|0:0,0:0:0:0:
210,227,78221,2,0,B|196:256|160:264|160:264|89:275,1,136,2|0,0:3|0:0,0:0:0:0:
20,284,78705,1,0,0:0:0:0:
20,284,79027,2,0,B|72:324|72:324|224:328|224:328|256:284|256:284|288:240|288:240|440:244|440:244|492:284,2,544,8|8|4,0:0|0:0|3:2,0:0:0:0:
20,140,81931,6,0,P|88:152|140:104,1,136,2|0,0:0|1:0,0:0:0:0:
184,56,82414,1,2,0:0:0:0:
256,44,82576,1,2,0:3:0:0:
328,56,82737,1,2,0:0:0:0:
372,112,82898,2,0,B|403:144|403:144|341:239|341:239|372:272,1,204,8|2,0:0|0:0,0:0:0:0:
256,356,83705,1,0,0:0:0:0:
140,272,84027,6,0,B|171:239|171:239|109:144|109:144|188:64,1,272,2|0,0:0|0:0,0:0:0:0:
256,40,84834,1,0,1:0:0:0:
328,60,84995,1,0,0:0:0:0:
384,192,85318,2,2,B|424:264|424:264|384:340|384:340|304:340|304:340|256:372|256:372|208:340|208:340|128:340|128:340|88:264|88:264|128:192,1,612,2|4,0:0|3:2,0:0:0:0:
196,68,87092,6,0,P|256:40|316:68,2,136,2|0|0,0:3|1:0|0:0,0:0:0:0:
136,108,87898,2,0,B|164:144|204:148|235:130|256:113|256:113|277:130|308:148|348:144|376:108,1,272,2|0,0:0|0:0,0:0:0:0:
440,76,88705,2,0,B|456:112|448:144|432:144|424:176|440:212,1,136,0|0,1:0|0:0,0:0:0:0:
464,276,89189,6,0,B|396:276|396:276|372:276|352:288|352:288|324:276|296:276|296:276|256:276|256:276|196:276|136:216|136:124|220:92,1,476,2|2,0:0|0:0,0:0:0:0:
292,92,90479,2,2,B|376:124|376:216|316:276|256:276|256:276|216:276|216:276|188:276|160:288|160:288|140:276|116:276|116:276|48:276,1,476,0|0,3:0|3:0,0:0:0:0:
72,136,91931,6,0,B|92:84|144:84|144:84|184:84,1,136,4|2,3:2|0:3,0:0:0:0:
256,84,92414,1,2,0:0:0:0:
327,84,92576,2,0,B|368:84|368:84|420:84|440:136,1,136,0|0,1:0|0:0,0:0:0:0:
368,156,93060,2,0,L|144:156,1,224.400006848145,2|0,0:0|0:0,0:0:0:0:
72,156,93705,1,2,0:3:0:0:
72,156,94027,1,0,0:0:0:0:
132,360,94511,6,0,B|208:308|208:308|220:260,1,136,8|2,0:0|0:0,0:0:0:0:
293,265,94995,2,0,B|304:308|304:308|380:360,1,136,2|0,0:3|0:0,0:0:0:0:
488,184,95802,6,4,B|520:100|472:56|424:16|400:16|348:24|320:56|316:92|324:112|332:136|368:160|388:160|408:160|440:152|460:120|468:96|468:72|460:36|440:36|420:24|400:4|348:-12|320:-12|276:0|224:16|200:20|184:32|180:56|172:64|176:96|196:120|208:136|212:144|224:152|240:148|256:148|272:148|288:152|300:144|304:136|316:120|336:96|340:64|332:56|328:32|312:20|288:16|236:0|192:-12|164:-12|112:4|92:24|72:36|52:36|44:72|44:96|52:120|72:152|104:160|124:160|144:160|180:136|188:112|196:92|192:56|164:24|112:16|88:16|40:56|-8:100|24:184,1,1428
256,288,99673,5,4,0:0:0:0:
288,328,109995,5,8,0:0:0:0:
220,308,110156,1,0,0:0:0:0:
168,256,110318,1,0,0:0:0:0:
144,188,110479,1,0,0:0:0:0:
160,120,110640,2,0,B|176:72|176:72|256:40|256:40|336:72|336:72|352:120,1,272,0|8,1:0|0:0,0:0:0:0:
324,184,111447,2,0,B|188:200,1,136
184,272,111931,2,0,B|320:256,1,136,0|0,1:0|0:0,0:0:0:0:
384,224,112415,1,2,0:0:0:0:
128,224,113221,5,0,1:0:0:0:
128,224,113543,2,0,P|184:192|184:120,1,136,2|0,3:0|1:0,0:0:0:0:
152,64,114027,1,2,3:3:0:0:
292,40,114350,1,2,0:0:0:0:
384,160,114673,2,0,P|328:192|328:264,1,136,2|0,0:3|0:0,0:0:0:0:
360,320,115156,5,8,0:0:0:0:
472,228,115479,1,0,0:0:0:0:
420,96,115802,2,0,P|356:92|292:128,1,136,0|0,1:0|0:0,0:0:0:0:
217,258,116447,2,0,P|159:291|92:288,1,136,8|0,0:0|0:0,0:0:0:0:
76,216,116931,2,0,P|134:183|201:186,1,136,2|0,0:0|0:0,0:0:0:0:
12,88,117737,6,0,B|44:28|128:16|196:16|200:132|256:132|312:132|316:16|384:16|468:28|500:88,1,544,8|12,0:0|0:0,0:0:0:0:
316,196,119510,6,0,P|256:224|196:196,2,136,4|4|4,0:0|0:0|0:0,0:0:0:0:
368,148,120317,1,12,0:0:0:0:
256,60,120639,1,4,0:0:0:0:
144,148,120962,1,4,1:2:0:0:
476,344,121607,5,12,0:0:0:0:
332,344,121930,2,0,B|276:344|276:344|224:344|212:304,2,136,2|0|0,0:0|1:0|0:0,0:0:0:0:
382,293,122736,2,0,B|438:293|438:293|490:293|502:253,1,136,2|0,0:0|0:0,0:0:0:0:
476,116,123381,1,2,0:3:0:0:
356,40,123704,1,0,0:0:0:0:
216,20,124027,1,2,0:3:0:0:
296,364,124833,5,0,1:0:0:0:
152,364,125156,1,0,0:0:0:0:
72,248,125478,1,8,0:0:0:0:
48,180,125639,1,0,0:0:0:0:
24,112,125801,1,0,0:0:0:0:
0,44,125962,2,0,P|44:4|124:20,1,136,2|2,0:3|0:0,0:0:0:0:
132,228,126768,5,8,0:0:0:0:
256,156,127091,1,0,0:0:0:0:
376,84,127414,2,0,P|420:124|500:108,1,136,0|0,1:0|0:0,0:0:0:0:
512,44,127897,2,0,P|468:4|388:20,2,136,2|2|2,0:3|0:0|0:3,0:0:0:0:
491,114,128704,1,0,1:0:0:0:
468,256,129027,1,0,0:0:0:0:
384,372,129349,6,0,B|256:327|256:327|128:372,1,272,8|0,0:0|1:0,0:0:0:0:
104,304,130156,1,2,0:0:0:0:
84,236,130317,1,0,0:0:0:0:
64,168,130478,1,0,0:0:0:0:
40,100,130639,5,12,0:0:0:0:
256,96,131122,1,4,0:0:0:0:
328,220,131445,1,4,0:0:0:0:
184,220,131768,1,4,0:0:0:0:
188,292,131929,2,0,L|324:292,2,136,12|4|4,0:0|0:0|1:2,0:0:0:0:
476,32,133219,5,12,0:0:0:0:
476,176,133542,2,0,P|412:196|348:176,1,136,2|0,0:0|1:0,0:0:0:0:
256,64,134187,1,0,0:0:0:0:
256,64,134348,2,0,L|216:196,1,136,2|0,0:3|0:0,0:0:0:0:
164,60,134993,1,2,3:0:0:0:
28,60,135316,2,0,L|68:192,1,136,2|0,0:0|0:0,0:0:0:0:
103,259,135800,6,0,P|188:308|272:259,1,204,8|0,0:2|0:0,0:0:0:0:
240,196,136445,2,0,P|323:146|408:195,1,204,0|0,1:0|0:0,0:0:0:0:
440,260,137090,1,8,0:0:0:0:
476,328,137251,1,2,0:3:0:0:
476,328,137574,2,0,L|272:328,1,204,2|0,0:0|0:0,0:0:0:0:
136,284,138380,6,0,P|164:220|220:192,1,136,8|2,0:0|0:0,0:0:0:0:
291,191,138864,2,0,P|350:222|376:284,1,136,2|0,0:3|0:0,0:0:0:0:
448,284,139348,2,0,P|256:55|64:284,1,680,2|2,0:0|0:0,0:0:0:0:
63,283,141606,1,2,1:2:0:0:
63,283,142251,1,8,3:0:0:0:
63,283,142897,1,8,0:3:0:0:
63,283,143542,5,4,0:0:0:0:
64,356,143703,2,0,P|24:348|4:328,2,68,2|2|2,0:0|0:3|0:0,0:0:0:0:
134,353,144187,2,0,B|134:301|134:301|134:254|172:231,1,136,0|2,1:0|0:0,0:0:0:0:
180,160,144671,2,0,P|256:103|332:160,1,204,2|0,0:0|0:0,0:0:0:0:
340,231,145316,2,0,B|378:254|378:301|378:301|378:353,1,136,2|0,0:3|0:0,0:0:0:0:
449,353,145800,1,0,0:0:0:0:
450,217,146122,2,0,P|254:59|58:217,2,544,8|8|4,0:0|0:0|3:2,0:0:0:0:
476,352,149026,6,0,B|416:352|416:352|376:352|352:312,1,136,2|0,0:0|1:0,0:0:0:0:
324,252,149509,1,2,0:0:0:0:
256,228,149671,1,2,0:3:0:0:
188,252,149832,1,2,0:0:0:0:
159,314,149993,2,0,P|96:276|124:160,1,204,8|2,0:0|0:0,0:0:0:0:
256,120,150800,1,0,0:0:0:0:
393,162,151122,6,0,P|428:252|285:285,1,272,2|0,0:0|0:0,0:0:0:0:
232,252,151929,1,0,1:0:0:0:
176,208,152090,1,0,0:0:0:0:
48,148,152413,2,2,B|48:116|48:116|48:88|76:88|76:88|152:88|152:88|152:16|256:-60|360:16|360:88|360:88|436:88|436:88|464:88|464:116|464:116|464:148,1,612,2|4,0:0|0:0,0:0:0:0:
316,216,154187,6,0,P|256:244|196:216,2,136,2|0|0,0:3|1:0|0:0,0:0:0:0:
372,256,154993,2,0,P|256:316|140:256,1,272,2|0,0:0|0:0,0:0:0:0:
67,247,155800,2,0,P|13:212|13:147,1,136,0|0,1:0|0:0,0:0:0:0:
36,80,156284,6,0,B|140:68|140:68|208:60|240:76|256:108|256:124|272:156|304:172|372:164|372:164|476:152,1,476,2|2,0:0|0:0,0:0:0:0:
476,80,157574,2,2,B|372:68|372:68|304:60|272:76|256:108|256:124|240:156|208:172|140:164|140:164|36:152,1,476,0|0,3:0|3:0,0:0:0:0:
112,276,159026,6,0,P|164:332|224:320,1,136,4|2,0:0|0:3,0:0:0:0:
256,264,159509,1,2,0:0:0:0:
296,324,159671,2,0,P|361:327|401:275,1,136,0|0,1:0|0:0,0:0:0:0:
332,260,160155,2,0,P|256:191|180:260,1,224.400006848145,2|0,0:0|0:0,0:0:0:0:
184,332,160800,1,2,0:3:0:0:
328,332,161122,1,0,0:0:0:0:
324,116,161606,6,0,B|188:116,1,136,8|0,0:0|0:0,0:0:0:0:
188,188,162090,2,0,B|324:188,1,136,2|0,0:3|0:0,0:0:0:0:
488,200,162897,6,0,B|520:284|472:328|424:368|400:368|348:360|320:328|316:292|324:272|332:248|368:224|388:224|408:224|440:232|460:264|468:288|468:312|460:348|440:348|420:360|400:380|348:396|320:396|276:384|224:368|200:364|184:352|180:328|172:320|176:288|196:264|208:248|212:240|224:232|240:236|256:236|272:236|288:232|300:240|304:248|316:264|336:288|340:320|332:328|328:352|312:364|288:368|236:384|192:396|164:396|112:380|92:360|72:348|52:348|44:312|44:288|52:264|72:232|104:224|124:224|144:224|180:248|188:272|196:292|192:328|164:360|112:368|88:368|40:328|-8:284|24:200,1,1428,4|4,0:0|0:0,0:0:0:0:
256,96,166768,5,4,0:0:0:0:
172,36,177090,5,4,3:0:0:0:
100,36,177251,2,0,L|20:36,2,68,2|0|0,0:0|0:3|0:3,0:0:0:0:
92,108,177735,2,0,L|22:148,2,68,2|0|0,1:2|0:0|0:0,0:0:0:0:
121,174,178219,2,0,L|81:243,2,68,2|8|0,0:0|0:0|0:0,0:0:0:0:
179,216,178703,2,0,L|179:295,2,68,2|0|0,0:0|0:0|1:2,0:0:0:0:
239,174,179187,1,2,0:0:0:0:
308,196,179348,1,0,0:0:0:0:
376,216,179509,1,0,0:0:0:0:
412,152,179671,6,0,P|432:124|464:108,2,68,10|0|0,0:0|0:0|0:0,0:0:0:0:
376,216,180155,1,2,0:0:0:0:
352,284,180316,1,0,1:0:0:0:
320,348,180477,1,0,0:0:0:0:
256,376,180639,2,2,P|156:376|136:220,1,272,2|0,0:0|0:0,0:0:0:0:
136,216,181391,1,0,0:0:0:0:
148,200,181499,1,0,0:0:0:0:
160,184,181606,2,0,P|216:220|284:208,1,136,0|0,1:0|0:0,0:0:0:0:
244,72,182251,5,4,0:3:0:0:
316,60,182413,2,0,L|360:52,2,34,0|0|2,0:0|0:0|0:0,0:0:0:0:
244,72,182735,1,0,0:0:0:0:
172,80,182897,2,0,P|108:112|100:172,1,136,0|0,1:0|0:0,0:0:0:0:
120,240,183380,1,0,0:0:0:0:
156,304,183542,2,0,B|256:324|256:324|356:304,1,204,8|2,0:0|0:0,0:0:0:0:
420,272,184187,2,0,P|448:192|356:136,1,204,0|0,1:0|0:0,0:0:0:0:
296,168,184832,2,0,B|248:200|200:180|200:156|152:136|104:168,1,204,8|0,0:0|0:0,0:0:0:0:
48,212,185477,2,0,P|28:244|32:308,2,102,2|0|0,1:2|3:0|3:0,0:0:0:0:
76,188,186042,1,0,3:0:0:0:
103,168,186122,5,12,0:0:0:0:
256,16,186607,1,4,0:0:0:0:
328,140,186930,1,4,0:0:0:0:
184,140,187253,1,4,0:0:0:0:
184,212,187414,1,4,1:2:0:0:
328,212,187737,1,4,0:0:0:0:
256,336,188060,1,12,0:0:0:0:
256,336,188704,6,0,P|284:316|320:304,2,68,4|0|0,3:0|0:0|0:0,0:0:0:0:
204,288,189188,2,0,P|176:268|140:256,2,68,2|0|0,0:0|1:0|0:0,0:0:0:0:
244,228,189672,2,0,P|268:200|284:168,2,68,2|0|8,0:0|0:0|0:0,0:0:0:0:
184,188,190156,1,2,0:0:0:0:
132,140,190317,1,0,0:0:0:0:
116,72,190478,1,2,0:0:0:0:
256,96,190855,1,2,0:0:0:0:
396,124,191177,2,2,P|400:204|198:259,1,317.333333333333,2|0,0:0|1:0,0:0:0:0:
24,24,192575,5,8,0:0:0:0:
24,24,192736,1,0,0:0:0:0:
24,168,193059,2,0,B|72:198|120:186|120:150|168:138|215:168,1,204,2|0,0:0|0:0,0:0:0:0:
356,196,193865,1,8,0:0:0:0:
420,164,194027,2,0,P|416:84|368:48,2,136,0|2|2,0:0|3:0|0:0,0:0:0:0:
428,236,194833,6,0,B|400:384|216:368|168:368|160:280|188:192|256:196|324:192|352:280|344:368|296:368|112:384|84:236,1,748.000022827149,2|0,2:0|3:0,0:0:0:0:
83,235,197091,1,2,1:2:0:0:
83,235,197736,1,4,3:0:0:0:
83,235,198382,1,8,0:3:0:0:
83,235,199027,5,4,0:0:0:0:
84,164,199188,1,2,0:0:0:0:
136,112,199349,1,2,0:3:0:0:
188,60,199511,1,2,0:0:0:0:
260,60,199672,2,0,B|312:60|312:60|360:60|384:108,1,136,0|0,1:0|0:0,0:0:0:0:
344,164,200156,2,0,B|324:216|256:200|256:184|188:168|168:220,1,204,2|0,0:0|0:0,0:0:0:0:
131,282,200801,2,0,B|152:324|200:324|200:324|252:324,1,136,2|0,0:3|0:0,0:0:0:0:
324,324,201285,1,0,0:0:0:0:
466,324,201607,6,0,B|493:264|447:220|395:216|345:242|349:181|297:151|346:124|372:79|361:17|296:6,1,408,8|2,0:0|0:0,0:0:0:0:
215,6,202736,2,2,B|150:17|139:79|165:124|214:151|162:181|166:242|116:216|64:220|18:264|46:324,1,408
108,364,203865,1,0,0:0:0:0:
256,336,204188,5,4,3:2:0:0:
320,208,204511,2,0,P|256:188|192:208,1,136,2|0,0:0|1:0,0:0:0:0:
136,164,204994,1,2,0:0:0:0:
188,112,205156,1,2,0:3:0:0:
256,92,205317,1,2,0:0:0:0:
324,112,205478,1,8,0:0:0:0:
376,164,205640,1,2,0:0:0:0:
256,240,205962,1,2,0:0:0:0:
136,316,206285,1,2,0:0:0:0:
35,211,206607,6,0,P|68:88|192:92,1,272,2|0,0:0|0:0,0:0:0:0:
256,128,207414,1,0,1:0:0:0:
321,91,207575,1,0,0:0:0:0:
320,91,207898,2,2,P|446:89|476:211,1,272,2|0,0:0|0:0,0:0:0:0:
441,275,208704,1,0,1:0:0:0:
441,275,209027,1,0,0:0:0:0:
306,322,209349,5,4,0:0:0:0:
232,196,209672,2,0,P|193:151|120:140,2,136,2|0|0,0:3|1:0|0:0,0:0:0:0:
304,185,210478,2,0,P|219:83|87:74,1,272,2|0,0:0|0:0,0:0:0:0:
28,116,211285,2,0,B|8:148|16:180|40:180|48:212|28:244,1,136,0|0,1:0|0:0,0:0:0:0:
32,316,211769,6,0,B|64:348|120:364|176:376|200:280|256:272|312:280|336:376|392:364|448:348|480:316,1,476,2|2,0:0|0:0,0:0:0:0:
439,260,213059,2,2,B|406:305|360:271|340:247|303:229|256:239|209:229|172:247|152:271|106:305|73:260,1,390.320005955811,0|0,3:0|3:0,0:0:0:0:
256,336,214511,5,4,0:0:0:0:
280,196,214833,2,0,P|318:151|391:140,2,136,2|0|0,0:3|1:0|0:0,0:0:0:0:
208,185,215639,2,0,P|292:83|424:74,1,272,2|0,0:0|0:0,0:0:0:0:
484,116,216446,2,0,B|504:148|496:180|472:180|464:212|484:244,1,136,0|0,1:0|0:0,0:0:0:0:
480,316,216930,6,0,B|448:348|396:304|320:288|256:348|256:348|192:288|116:304|64:348|32:316,1,476,2|2,0:0|0:0,0:0:0:0:
68,252,218220,2,2,B|84:200|120:168|224:144|256:120|256:120|288:144|392:168|428:200|444:252,1,476,0|0,3:0|3:0,0:0:0:0:
256,356,219672,5,4,0:0:0:0:
192,228,219994,2,0,P|256:208|320:228,2,136,2|0|0,0:3|1:0|0:0,0:0:0:0:
132,188,220801,2,0,P|256:140|380:188,1,272,2|0,0:0|0:0,0:0:0:0:
432,240,221607,2,0,B|456:272|432:304|408:336|432:372,1,136,0|0,1:0|0:0,0:0:0:0:
496,340,222091,6,0,B|245:363|245:363|149:372|132:232|229:215,1,476,2|2,0:0|0:0,0:0:0:0:
237,288,223382,2,2,P|76:174|255:89,1,476,0|0,3:0|3:0,0:0:0:0:
256,356,224833,5,4,0:0:0:0:
320,228,225156,2,0,P|256:208|192:228,2,136,2|0|0,0:3|1:0|0:0,0:0:0:0:
380,188,225963,2,0,P|256:140|132:188,1,272,2|0,0:0|3:0,0:0:0:0:
80,240,226769,2,0,B|56:272|80:304|104:336|80:372,1,136,0|0,1:0|0:0,0:0:0:0:
16,340,227253,6,0,B|267:363|267:363|363:372|380:232|283:215,1,476,2|2,0:0|0:0,0:0:0:0:
274,288,228544,2,2,P|435:174|256:89,1,476,0|0,3:0|3:0,0:0:0:0:
256,356,229994,5,4,0:0:0:0:
148,260,230317,1,0,0:0:0:0:
256,168,230640,1,0,1:0:0:0:
364,260,230962,1,0,0:0:0:0:
376,188,231124,2,0,B|344:180|320:184|308:232|284:260|256:232|228:260|204:232|192:184|168:180|136:188,1,272,2|0,0:0|0:0,0:0:0:0:
63,176,231930,2,0,P|20:226|17:293,1,136,0|0,1:0|0:0,0:0:0:0:
32,364,232414,6,0,B|108:392|208:360|256:319|256:319|304:360|404:392|480:364,1,476,2|2,0:0|0:0,0:0:0:0:
456,296,233704,2,2,P|256:185|56:296,1,476,0|0,3:0|0:0,0:0:0:0:
256,356,235156,5,4,0:0:0:0:
396,332,235478,1,2,0:0:0:0:
456,296,235640,1,0,0:0:0:0:
456,224,235801,1,0,1:0:0:0:
356,128,236124,1,0,0:0:0:0:
356,128,236285,2,0,P|256:112|156:128,1,204,2|0,0:0|0:0,0:0:0:0:
84,128,236930,2,0,P|112:187|176:197,1,136,2|0,0:3|0:0,0:0:0:0:
428,128,237736,6,0,P|399:187|335:197,1,136,8|0,0:0|0:0,0:0:0:0:
292,140,238220,2,0,P|320:80|384:70,1,136,2|0,0:3|0:0,0:0:0:0:
256,244,239027,5,4,0:0:0:0:
256,192,239188,12,4,242414,0:0:0:0:
256,192,242898,5,4,0:0:0:0:
