osu file format v14

[General]
AudioFilename: audio.mp3
AudioLeadIn: 0
PreviewTime: 199027
Countdown: 0
SampleSet: Soft
StackLeniency: 0.7
Mode: 0
LetterboxInBreaks: 0
WidescreenStoryboard: 1

[Editor]
Bookmarks: 31286,76448,86770,99673,109996,143544,153866,166769,177092,199027,209349,242898
DistanceSpacing: 1
BeatDivisor: 4
GridSize: 4
TimelineZoom: 1.1

[Metadata]
Title:Africa
TitleUnicode:Africa
Artist:Ninja Sex Party
ArtistUnicode:Ninja Sex Party
Creator:Krisom
Version:Average
Source:
Tags:Under The Covers Cover Soft Rock Toto English NSP Volume II 2 Dan Avidan Danny Sexbang Brian Wecht
BeatmapID:2769858
BeatmapSetID:1337088

[Difficulty]
HPDrainRate:5
CircleSize:3.5
OverallDifficulty:4.4
ApproachRate:5.7
SliderMultiplier:2.16
SliderTickRate:1

[Events]
//Background and Video events
0,0,"BGNSP.jpg",0,0
//Break Periods
2,99873,108795
2,166968,175890
//Storyboard Layer 0 (Background)
//Storyboard Layer 1 (Fail)
//Storyboard Layer 2 (Pass)
//Storyboard Layer 3 (Foreground)
//Storyboard Layer 4 (Overlay)
//Storyboard Sound Samples

[TimingPoints]
319,645.161290322581,4,2,1,60,1,0
40157,-100,4,2,1,60,0,0
40319,645.161290322581,4,2,1,45,1,0
42899,-100,4,2,1,60,0,0
51770,-100,4,2,1,60,0,0
51931,645.161290322581,4,2,1,45,1,0
54511,-100,4,2,1,60,0,0
58220,-100,4,2,1,5,0,0
58382,-100,4,2,1,60,0,0
63383,-100,4,2,1,60,0,0
63544,645.161290322581,4,2,1,45,1,0
66125,-100,4,2,1,60,0,0
76447,-100,4,2,1,70,0,1
99673,-100,4,2,1,60,0,0
119027,645.161290322581,4,2,1,45,1,0
121608,-100,4,2,1,60,0,0
130639,645.161290322581,4,2,1,45,1,0
133221,-100,4,2,1,60,0,0
136929,-100,4,2,1,5,0,0
137090,-100,4,2,1,60,0,0
143542,-100,4,2,1,70,0,1
166768,-100,4,2,1,60,0,0
184670,-100,4,2,1,5,0,0
184832,-100,4,2,1,60,0,0
186124,645.161290322581,4,2,1,45,1,0
188382,-100,4,2,1,60,0,0
199027,-100,4,2,1,70,0,1
242898,-100,4,2,1,70,0,0

[Colours]
Combo1 : 253,152,0
Combo2 : 198,134,15

[HitObjects]
52,324,31286,5,8,0:0:0:0:
84,220,31609,1,0,0:0:0:0:
187,249,31931,1,0,1:0:0:0:
402,182,32577,1,8,0:0:0:0:
376,134,32738,2,0,B|320:106|278:151|219:118,2,162,0|0|2,0:0|1:0|0:0,0:0:0:0:
215,351,34512,6,0,P|173:286|92:261,1,162,0|0,1:0|0:0,0:0:0:0:
41,264,35157,2,0,P|90:220|90:172,1,108,8|0,0:0|0:0,0:0:0:0:
47,82,35802,1,0,1:0:0:0:
140,28,36125,1,0,0:0:0:0:
183,60,36286,6,0,B|219:96|256:82|295:67|369:84|405:118|413:176,1,270,2|0,3:0|1:0,0:0:0:0:
430,270,37415,1,0,0:0:0:0:
360,351,37738,2,0,P|283:324|203:315,1,162,8|4,0:0|0:3,0:0:0:0:
150,325,38383,1,0,1:0:0:0:
122,220,38706,1,0,0:0:0:0:
108,168,38867,6,0,B|84:92|172:32|240:32|256:2|256:2|272:32|340:32|428:92|404:168,1,486,2|4,0:0|0:0,0:0:0:0:
284,277,40802,2,0,B|316:275|332:295|347:315|384:312,2,108,4|4|4,0:0|0:0|0:0,0:0:0:0:
228,277,41609,2,0,B|196:275|179:295|165:315|128:312,2,108,12|4|4,0:0|0:0|1:2,0:0:0:0:
169,69,42899,5,12,0:0:0:0:
272,38,43222,1,2,0:0:0:0:
378,53,43544,1,0,1:0:0:0:
387,106,43706,2,0,P|398:160|420:210,2,108,2|2|2,3:3|0:0|3:3,0:0:0:0:
378,53,44512,1,0,0:0:0:0:
275,86,44835,2,0,P|241:86|220:76,1,54,0|2,1:0|0:0,0:0:0:0:
116,50,45319,1,2,0:0:0:0:
58,313,46125,6,0,B|113:290|131:311|151:335|221:311,1,162,0|0,1:0|0:0,0:0:0:0:
263,288,46770,2,0,P|329:273|402:335,2,162,8|0|0,0:0|3:0|0:0,0:0:0:0:
194,204,48060,6,0,P|169:133|97:64,2,162,10|2|0,0:0|0:3|0:0,0:0:0:0:
263,287,49351,2,0,B|316:293|333:265|348:238|416:251,2,162,10|2|0,0:0|0:3|0:0,0:0:0:0:
170,342,50641,6,0,P|41:194|186:62,1,432,8|12,0:0|0:0,0:0:0:0:
342,34,52414,2,0,P|394:14|464:51,2,108,4|4|4,0:0|0:0|0:0,0:0:0:0:
307,75,53221,2,0,P|260:115|212:115,2,108,12|4|4,0:0|0:0|0:0,0:0:0:0:
95,30,54511,5,12,0:0:0:0:
43,125,54834,1,0,0:0:0:0:
56,232,55156,2,0,P|126:222|201:280,2,162,0|2|0,1:0|0:3|0:0,0:0:0:0:
105,327,56447,1,0,1:0:0:0:
260,372,56931,1,2,0:3:0:0:
464,196,57737,6,0,B|422:161|399:185|375:209|317:183|307:131,1,162,0|0,1:0|2:0,0:0:0:0:
292,108,58382,2,0,P|259:60|157:42,2,162,8|2|0,0:0|0:3|0:0,0:0:0:0:
288,216,59672,5,8,0:0:0:0:
165,322,60156,1,2,0:3:0:0:
26,237,60640,2,0,P|92:129|216:156,1,270,2|0,0:0|0:0,0:0:0:0:
268,172,61608,1,0,1:0:0:0:
372,204,61931,1,0,0:0:0:0:
448,284,62253,6,0,B|408:340|328:332|304:308|320:240|256:236|192:240|208:308|184:332|104:340|64:284,1,432,8|12,0:0|0:0,0:0:0:0:
121,132,64027,2,0,P|71:95|24:86,2,108,4|4|4,0:0|0:0|0:0,0:0:0:0:
174,120,64834,2,0,P|209:78|264:74,2,108,12|4|4,0:0|0:0|1:2,0:0:0:0:
73,310,66124,5,12,0:0:0:0:
164,367,66447,1,0,0:0:0:0:
271,359,66769,2,0,P|343:346|389:261,1,162,0|2,1:0|0:3,0:0:0:0:
401,167,67576,1,0,0:0:0:0:
379,61,67898,1,2,0:0:0:0:
274,34,68221,1,0,0:0:0:0:
190,103,68544,1,2,0:0:0:0:
44,330,69350,5,0,1:0:0:0:
30,114,69995,2,0,P|99:133|182:84,2,162,8|2|0,0:0|0:0|0:0,0:0:0:0:
92,25,71285,1,8,0:0:0:0:
252,44,71769,1,2,0:0:0:0:
410,94,72253,2,0,B|429:154|471:270|415:371|268:392|183:322|180:202|295:166|333:213,1,540,2|0,0:0|0:0,0:0:0:0:
458,350,74511,5,4,3:0:0:0:
458,350,75156,1,0,0:0:0:0:
458,350,75802,1,4,0:3:0:0:
458,350,76447,5,4,0:0:0:0:
468,242,76769,1,2,0:3:0:0:
476,134,77092,2,0,P|401:124|314:166,2,162,0|2|0,1:0|0:0|0:0,0:0:0:0:
466,187,78221,2,0,P|427:234|425:288,1,108,2|0,0:3|0:0,0:0:0:0:
430,332,78705,1,0,0:0:0:0:
322,357,79027,6,0,B|272:400|176:408|80:352|76:228|184:136|248:148|264:236|348:288|436:156|416:20|340:-24|252:-60|136:-32|92:56|116:144|192:148|215:130,1,864,8|4,0:0|3:2,0:0:0:0:
116,188,81931,5,2,0:0:0:0:
24,244,82253,1,0,1:0:0:0:
72,340,82576,1,2,0:3:0:0:
180,340,82898,2,0,B|232:316|248:332|264:356|304:364|344:332,1,162,8|2,0:0|0:0,0:0:0:0:
428,280,83705,1,0,0:0:0:0:
468,180,84027,2,0,P|343:137|226:196,1,270,2|0,0:0|1:0,0:0:0:0:
138,333,85318,6,2,B|97:379|21:362|-5:281|59:241|59:241|-14:211|12:144|12:144|96:154|145:103,1,486,2|4,0:0|3:2,0:0:0:0:
243,61,87092,5,2,0:3:0:0:
348,32,87414,1,0,1:0:0:0:
444,80,87737,1,0,0:0:0:0:
464,132,87898,2,0,B|394:145|362:211|362:211|303:159|233:175,1,270,2|0,0:0|1:0,0:0:0:0:
128,188,89027,1,0,0:0:0:0:
76,208,89189,6,0,B|0:244|-24:336|44:424|164:420|200:300|200:300|256:344|256:344|312:300|312:300|348:420|468:424|536:336|512:244|436:208,1,918,2|4,0:0|3:2,0:0:0:0:
364,126,92253,5,2,0:3:0:0:
268,75,92576,2,0,P|204:58|105:84,2,162,0|2|0,1:0|0:0|0:0,0:0:0:0:
314,102,93705,1,2,0:3:0:0:
397,170,94027,1,0,0:0:0:0:
435,327,94511,2,0,P|375:336|279:295,1,162,8|2,0:0|0:3,0:0:0:0:
201,227,95318,1,0,0:0:0:0:
256,76,95802,5,4,0:0:0:0:
256,192,95963,12,4,99673,0:0:0:0:
460,60,109995,5,8,0:0:0:0:
354,36,110318,1,0,0:0:0:0:
260,90,110640,1,0,1:0:0:0:
83,214,111286,1,8,0:0:0:0:
115,256,111447,2,0,P|180:297|270:268,2,162,0|0|2,0:0|1:0|0:0,0:0:0:0:
294,53,113221,5,0,1:0:0:0:
401,40,113543,1,2,3:0:0:0:
469,123,113866,2,0,P|420:167|437:261,1,162,0|2,1:0|0:0,0:0:0:0:
496,342,114673,1,2,0:3:0:0:
346,281,115156,6,0,P|288:261|231:268,1,108,8|0,0:0|0:0,0:0:0:0:
152,324,115802,2,0,P|96:337|42:314,1,108,0|0,1:0|0:0,0:0:0:0:
8,220,116447,2,0,P|45:158|136:129,1,162,8|2,0:0|0:0,0:0:0:0:
231,153,117253,1,0,0:0:0:0:
388,204,117737,6,0,B|408:260|352:328|292:344|256:324|256:324|220:344|160:328|104:260|124:204,1,432,8|12,0:0|0:0,0:0:0:0:
224,76,119511,2,0,B|192:78|176:58|161:38|124:41,2,108,4|4|4,0:0|0:0|0:0,0:0:0:0:
288,76,120318,2,0,B|320:78|337:58|351:38|388:41,2,108,12|4|4,0:0|0:0|1:2,0:0:0:0:
413,251,121607,6,0,B|380:241|362:262|347:280|306:262,1,108,12|2,0:0|0:0,0:0:0:0:
201,252,122253,1,0,1:0:0:0:
110,193,122575,1,0,0:0:0:0:
78,148,122736,2,0,P|137:121|197:129,1,108,2|0,0:0|0:0,0:0:0:0:
281,156,123381,1,2,0:3:0:0:
382,119,123704,1,0,0:0:0:0:
459,43,124027,1,2,0:3:0:0:
454,313,124834,6,0,P|397:319|330:287,1,108,0|0,1:0|0:0,0:0:0:0:
253,255,125478,2,0,P|169:207|88:221,1,162,8|2,0:0|0:3,0:0:0:0:
12,265,126285,1,2,0:0:0:0:
137,366,126768,5,8,0:0:0:0:
244,359,127091,1,0,0:0:0:0:
344,319,127414,2,0,P|389:281|400:169,1,162,0|2,1:0|0:3,0:0:0:0:
345,92,128220,1,2,0:0:0:0:
199,19,128704,1,0,1:0:0:0:
124,96,129027,1,0,0:0:0:0:
60,184,129349,6,0,B|152:272|256:232|256:152|360:112|452:200,1,432,8|12,0:0|0:0,0:0:0:0:
356,332,131123,2,0,L|464:360,2,108,4|4|4,0:0|0:0|0:0,0:0:0:0:
300,328,131930,2,0,P|253:288|205:288,2,108,12|4|4,0:0|0:0|1:2,0:0:0:0:
352,120,133220,5,12,0:0:0:0:
420,204,133543,1,2,0:0:0:0:
460,304,133864,2,0,P|380:324|296:280,1,162,0|2,1:0|0:3,0:0:0:0:
248,204,134671,1,0,0:0:0:0:
300,108,134993,1,2,3:0:0:0:
216,40,135316,2,0,P|128:32|48:76,1,162,2|8,0:0|0:2,0:0:0:0:
16,272,136446,6,0,P|92:288|164:240,1,162,0|0,1:0|2:0,0:0:0:0:
172,192,137090,1,8,0:0:0:0:
240,44,137574,2,0,P|320:40|376:96,1,162,2|0,0:0|0:0,0:0:0:0:
332,192,138380,1,8,0:0:0:0:
264,340,138864,1,2,0:3:0:0:
116,276,139348,2,0,B|68:252|56:184|100:136|172:164|172:164|188:108|252:88|320:116|308:192|360:240|456:192,1,540,2|2,0:0|0:0,0:0:0:0:
484,24,141606,5,2,1:2:0:0:
484,24,142251,1,8,3:0:0:0:
484,24,142897,1,0,0:0:0:0:
484,24,143542,5,4,0:0:0:0:
396,88,143864,1,2,0:3:0:0:
288,108,144187,2,0,P|213:118|126:76,2,162,0|2|0,1:0|0:0|0:0,0:0:0:0:
328,68,145316,2,0,P|375:29|429:27,1,108,2|0,0:3|0:0,0:0:0:0:
464,56,145800,1,0,0:0:0:0:
476,164,146122,6,0,B|448:216|424:244|256:244|320:244|144:260|112:204|148:84|176:20|256:112|336:20|364:84|400:204|368:260|192:244|256:244|88:244|64:216|36:164,1,864,8|4,0:0|3:2,0:0:0:0:
28,56,149026,5,2,0:0:0:0:
132,28,149348,1,0,1:0:0:0:
232,72,149671,1,2,0:3:0:0:
308,148,149993,2,0,B|360:172|376:156|392:132|432:124|472:156,1,162,8|2,0:0|0:0,0:0:0:0:
500,252,150800,1,0,0:0:0:0:
440,340,151122,2,0,P|315:383|198:324,1,270,2|0,0:0|1:0,0:0:0:0:
64,232,152413,6,2,B|92:176|132:272|140:176|228:224|84:124|184:96|256:64|256:216|312:156|372:168|268:64|364:68|404:32|428:128|492:48,1,486,2|4,0:0|0:0,0:0:0:0:
500,160,154187,5,2,0:3:0:0:
428,240,154509,1,0,1:0:0:0:
328,284,154832,1,0,0:0:0:0:
276,272,154993,2,0,B|218:255|218:255|183:245|150:260|139:299|159:330|194:340|194:340|251:356,1,270,2|0,0:0|1:0,0:0:0:0:
360,348,156122,1,0,0:0:0:0:
392,304,156284,6,0,B|460:196|432:148|408:88|352:36|296:44|296:44|296:92|296:92|296:140|256:156|216:140|216:92|216:92|216:44|216:44|160:36|104:88|80:148|52:196|120:304,1,918,2|4,0:0|0:0,0:0:0:0:
216,356,159348,5,2,0:3:0:0:
336,360,159671,2,0,B|380:392|428:388|460:348|504:368,2,162,0|2|0,1:0|0:0|0:0,0:0:0:0:
300,320,160800,1,2,0:3:0:0:
228,240,161122,1,0,0:0:0:0:
280,88,161606,2,0,P|220:79|124:120,1,162,8|2,0:0|0:3,0:0:0:0:
96,220,162413,1,0,0:0:0:0:
256,248,162897,5,4,0:0:0:0:
256,192,163058,12,4,166768,0:0:0:0:
32,348,177090,6,0,B|100:348|100:348|160:348|176:296,1,162,4|0,3:0|0:3,0:0:0:0:
188,248,177735,2,0,P|256:210|324:248,1,162,2|2,1:2|0:0,0:0:0:0:
352,292,178380,2,0,P|352:212|384:136,1,162,8|0,0:0|0:0,0:0:0:0:
404,88,179026,2,0,B|368:64|328:72|328:104|288:112|252:88,1,162,0|0,1:2|0:0,0:0:0:0:
208,56,179671,5,10,0:0:0:0:
104,28,179993,1,0,0:0:0:0:
40,116,180316,1,0,1:0:0:0:
48,224,180639,2,2,P|108:196|276:344,1,324,2|0,0:0|1:0,0:0:0:0:
504,368,182251,5,4,0:3:0:0:
484,260,182574,1,2,0:0:0:0:
464,152,182897,2,0,L|292:152,1,162,0|0,1:0|0:0,0:0:0:0:
248,152,183542,1,8,0:0:0:0:
176,232,183864,1,0,0:0:0:0:
104,312,184187,2,0,P|178:339|251:309,1,162,0|0,1:0|2:0,0:0:0:0:
288,272,184832,5,8,0:0:0:0:
232,180,185155,1,0,0:0:0:0:
180,84,185477,2,0,B|144:60|104:68|104:100|64:108|28:84,1,162,2|0,1:2|3:0,0:0:0:0:
24,28,186124,6,0,L|36:196,1,162,12|4,0:0|0:0,0:0:0:0:
48,296,186930,1,4,0:0:0:0:
140,352,187253,1,4,0:0:0:0:
192,340,187414,2,0,B|236:324|248:340|256:352|300:336,2,108,4|4|12,1:2|0:0|0:0,0:0:0:0:
132,132,188704,5,4,3:0:0:0:
204,56,189027,1,0,0:0:0:0:
308,56,189349,1,0,1:0:0:0:
380,132,189672,1,2,0:0:0:0:
320,224,189994,2,0,P|256:266|192:224,1,162,8|2,0:0|0:0,0:0:0:0:
256,114,190855,1,2,0:0:0:0:
352,66,191177,2,2,P|256:-3|160:66,1,252,2|0,0:0|1:0,0:0:0:0:
196,300,192575,6,0,P|148:324|44:304,2,162,8|2|0,0:0|0:0|0:0,0:0:0:0:
260,212,193865,2,0,B|320:172|364:224|424:184,1,162,8|2,0:0|3:0,0:0:0:0:
488,108,194672,1,2,0:0:0:0:
504,64,194833,6,0,B|420:-28|224:-28|368:112|144:112|288:-28|92:-28|8:64,1,540,2|0,2:0|3:0,0:0:0:0:
52,276,197091,1,10,0:0:0:0:
52,276,197736,1,4,3:0:0:0:
52,276,198382,1,2,0:0:0:0:
52,276,199027,5,4,0:0:0:0:
112,188,199349,1,2,0:3:0:0:
176,100,199672,2,0,B|236:80|276:136|336:112,2,162,0|2|0,1:0|0:0|0:0,0:0:0:0:
124,108,200801,2,0,P|120:160|84:208,1,108,2|0,0:3|0:0,0:0:0:0:
64,252,201285,1,0,0:0:0:0:
48,360,201607,6,0,B|144:388|176:296|256:308|336:296|368:388|464:360,2,432,8|8|4,0:0|0:0|3:2,0:0:0:0:
40,252,204511,5,2,0:0:0:0:
92,156,204833,1,0,1:0:0:0:
180,96,205156,1,2,0:3:0:0:
280,56,205478,2,0,P|344:40|448:68,1,162,8|2,0:0|0:0,0:0:0:0:
512,140,206285,1,2,0:0:0:0:
484,244,206607,2,0,B|412:280|348:256|272:232|232:304,1,270,2|0,0:0|1:0,0:0:0:0:
80,352,207898,6,2,B|32:220|32:220|96:236|172:204|184:140|200:64|324:84,1,486,2|4,0:0|0:0,0:0:0:0:
416,144,209672,5,2,0:3:0:0:
372,244,209994,1,0,1:0:0:0:
280,188,210317,1,0,0:0:0:0:
244,148,210478,2,0,P|232:200|40:248,1,270,2|0,0:0|1:0,0:0:0:0:
20,148,211607,1,0,0:0:0:0:
8,96,211769,6,0,P|128:16|280:152,1,378,2|2,0:0|0:0,0:0:0:0:
231,152,213059,2,2,P|346:18|504:96,1,378,0|0,3:0|3:0,0:0:0:0:
496,204,214511,5,4,0:0:0:0:
456,304,214833,1,2,0:3:0:0:
360,355,215156,2,0,P|315:384|264:371,1,108,0|0,1:0|0:0,0:0:0:0:
228,332,215640,2,0,B|292:292|204:272|216:196|316:220|332:156|252:140|284:80,1,270,2|0,0:0|1:0,0:0:0:0:
364,16,216769,1,0,0:0:0:0:
416,20,216930,6,0,P|448:180|274:209,1,378,2|2,0:0|0:0,0:0:0:0:
237,174,218220,2,2,P|68:197|95:363,1,378,0|0,3:0|3:0,0:0:0:0:
204,352,219672,5,4,0:0:0:0:
280,276,219994,1,2,0:3:0:0:
384,308,220317,1,0,1:0:0:0:
448,220,220640,1,0,0:0:0:0:
472,172,220801,2,0,B|440:100|368:80|280:148|228:88,1,270,2|0,0:0|1:0,0:0:0:0:
136,44,221930,1,0,0:0:0:0:
96,20,222091,6,0,P|64:180|238:209,1,378,2|2,0:0|0:0,0:0:0:0:
274,174,223381,2,2,P|444:197|417:363,1,378,0|0,3:0|3:0,0:0:0:0:
308,352,224833,5,4,0:0:0:0:
203,381,225156,1,2,0:3:0:0:
144,296,225478,1,0,1:0:0:0:
216,216,225801,1,0,0:0:0:0:
268,236,225962,2,0,P|340:248|472:120,1,270,2|0,0:0|1:0,0:0:0:0:
492,16,227091,1,0,0:0:0:0:
440,36,227253,6,0,B|288:36|288:36|224:36|172:80|172:152|239:190,1,378,2|2,0:0|0:0,0:0:0:0:
277,187,228543,2,2,B|340:152|340:80|288:36|224:36|224:36|72:36,1,378,0|0,3:0|3:0,0:0:0:0:
28,136,229994,5,4,0:0:0:0:
28,244,230317,1,0,0:0:0:0:
100,324,230640,1,0,1:0:0:0:
200,364,230962,1,0,0:0:0:0:
252,352,231124,2,0,B|272:316|324:312|304:368|380:368|344:296|416:284|408:360|488:352|504:300,1,270,2|0,0:0|1:0,0:0:0:0:
496,200,232253,1,0,0:0:0:0:
495,147,232414,6,0,B|428:96|356:208|308:244|232:252|184:160|228:112,1,378,2|2,0:0|0:0,0:0:0:0:
285,114,233704,2,2,B|328:160|280:252|204:244|156:208|84:96|16:147,1,378,0|0,3:0|0:0,0:0:0:0:
40,252,235156,5,4,0:0:0:0:
132,308,235478,1,2,0:0:0:0:
240,292,235801,2,0,P|320:296|392:248,2,162,0|2|0,1:0|0:0|0:0,0:0:0:0:
204,248,236930,1,2,0:3:0:0:
136,164,237252,1,0,0:0:0:0:
256,56,237736,2,0,P|316:47|412:88,1,162,8|2,0:0|0:3,0:0:0:0:
368,184,238543,1,0,0:0:0:0:
256,300,239027,5,4,0:0:0:0:
256,192,239188,12,4,242898,0:0:0:0:
