osu file format v14

[General]
AudioFilename: audio.mp3
AudioLeadIn: 0
PreviewTime: 54956
Countdown: 0
SampleSet: Normal
StackLeniency: 0.7
Mode: 1
LetterboxInBreaks: 0
WidescreenStoryboard: 1

[Editor]
Bookmarks: 671,18956,55528,73813
DistanceSpacing: 1
BeatDivisor: 2
GridSize: 8
TimelineZoom: 1

[Metadata]
Title:MOOZ (Cut Ver.)
TitleUnicode:MOOZ (Cut Ver.)
Artist:NINETY ONE
ArtistUnicode:NINETY ONE
Creator:tadahitotsu
Version:Kantan
Source:Ninety one
Tags:JUZ Entertainment 91 pop q-pop qpop kz kazakh Qarangy Zharyq soundtrack ost movie Қазақ Batyrkhan Abaiuly Malikov Батырхан Абайұлы Мәлікoв Azamat Qairatuly Ashmaqyn Қайратұлы Ашмақын Dylat Bolatuly Muhametqali Болатұлы Мұхаметқали Daniiar Qulymshin Құлымшин Azamat Baibylatuly Zenkaev Байбyлатұлы Зенкаев
BeatmapID:2865434
BeatmapSetID:1387330

[Difficulty]
HPDrainRate:8
CircleSize:5
OverallDifficulty:2
ApproachRate:5
SliderMultiplier:1.6
SliderTickRate:1

[Events]
//Background and Video events
0,0,"6KIHEF.jpg",0,0
//Break Periods
//Storyboard Layer 0 (Background)
//Storyboard Layer 1 (Fail)
//Storyboard Layer 2 (Pass)
//Storyboard Layer 3 (Foreground)
//Storyboard Layer 4 (Overlay)
//Storyboard Sound Samples

[TimingPoints]
717,571.428571428571,4,1,0,40,1,0
19002,-97.0873786407767,4,1,0,60,0,0
55574,-94.3396226415094,4,1,0,70,0,1
73859,-94.3396226415094,4,1,0,60,0,0

[HitObjects]
149,140,717,5,8,0:0:0:0:
248,169,3002,1,8,0:0:0:0:
227,243,5288,1,0,0:0:0:0:
261,224,7574,1,0,0:0:0:0:
195,287,9859,1,8,0:0:0:0:
248,169,12145,1,8,0:0:0:0:
227,243,14431,1,0,0:0:0:0:
261,224,16716,1,0,0:0:0:0:
281,217,19002,1,8,0:0:0:0:
262,160,20145,1,0,0:0:0:0:
262,160,20716,1,0,0:0:0:0:
263,158,21288,1,8,0:0:0:0:
279,158,22431,1,8,0:0:0:0:
278,95,23002,1,0,0:0:0:0:
270,90,23574,1,8,0:0:0:0:
225,88,24431,1,0,0:0:0:0:
279,82,25288,1,0,0:0:0:0:
236,98,25859,1,8,0:0:0:0:
236,98,26716,1,0,0:0:0:0:
268,198,28145,1,8,0:0:0:0:
266,202,29288,1,0,0:0:0:0:
266,202,29859,1,0,0:0:0:0:
266,202,30431,1,8,0:0:0:0:
266,202,31574,1,8,0:0:0:0:
266,202,32145,1,0,0:0:0:0:
266,202,32716,1,8,0:0:0:0:
265,197,33574,1,0,0:0:0:0:
265,197,34431,1,8,0:0:0:0:
265,197,35002,1,8,0:0:0:0:
265,197,35859,1,0,0:0:0:0:
299,176,37288,1,12,0:0:0:0:
192,157,37859,1,8,0:0:0:0:
301,171,38431,1,8,0:0:0:0:
257,142,39574,1,8,0:0:0:0:
266,124,40145,1,0,0:0:0:0:
266,124,40716,1,8,0:0:0:0:
201,134,41859,1,0,0:0:0:0:
201,134,42431,1,0,0:0:0:0:
201,134,43002,1,8,0:0:0:0:
203,133,44145,1,8,0:0:0:0:
215,162,46431,1,4,0:0:0:0:
216,119,47002,1,0,0:0:0:0:
216,119,47574,1,8,0:0:0:0:
217,117,48716,1,8,0:0:0:0:
217,117,49288,1,0,0:0:0:0:
217,117,49859,1,8,0:0:0:0:
217,117,51002,1,8,0:0:0:0:
217,117,51574,1,0,0:0:0:0:
217,117,52145,1,8,0:0:0:0:
217,117,53288,1,0,0:0:0:0:
226,104,55574,1,12,0:0:0:0:
323,186,55859,1,0,0:0:0:0:
274,140,56145,1,0,0:0:0:0:
296,116,56716,1,8,0:0:0:0:
296,116,57859,1,0,0:0:0:0:
229,137,58145,1,0,0:0:0:0:
245,113,58431,1,8,0:0:0:0:
245,113,59002,1,8,0:0:0:0:
245,113,60145,1,8,0:0:0:0:
245,113,60716,1,8,0:0:0:0:
246,113,61288,1,0,0:0:0:0:
354,115,61859,1,0,0:0:0:0:
120,135,62145,1,0,0:0:0:0:
273,101,62431,1,8,0:0:0:0:
273,101,63574,1,8,0:0:0:0:
273,101,64716,1,4,0:0:0:0:
273,101,65288,1,0,0:0:0:0:
250,87,65574,1,0,0:0:0:0:
273,101,65859,1,8,0:0:0:0:
273,91,67002,1,8,0:0:0:0:
245,136,67574,1,0,0:0:0:0:
141,137,67859,1,0,0:0:0:0:
271,85,68145,1,8,0:0:0:0:
276,82,69288,1,8,0:0:0:0:
159,129,69859,1,0,0:0:0:0:
214,137,70145,1,0,0:0:0:0:
288,126,70431,1,0,0:0:0:0:
271,85,71002,1,8,0:0:0:0:
314,140,71574,1,0,0:0:0:0:
314,140,72716,1,8,0:0:0:0:
208,166,73859,1,12,0:0:0:0:
214,155,74431,1,0,0:0:0:0:
214,155,75002,1,8,0:0:0:0:
254,82,76145,1,8,0:0:0:0:
254,82,76716,1,8,0:0:0:0:
274,95,77002,1,0,0:0:0:0:
254,82,77288,1,0,0:0:0:0:
258,82,78431,1,0,0:0:0:0:
258,82,79002,1,8,0:0:0:0:
279,128,79288,1,0,0:0:0:0:
258,82,79574,1,8,0:0:0:0:
258,82,80145,1,0,0:0:0:0:
258,82,80716,1,8,0:0:0:0:
258,82,81859,1,0,0:0:0:0:
212,204,83002,1,12,0:0:0:0:
219,205,83574,1,0,0:0:0:0:
268,74,83859,1,0,0:0:0:0:
219,205,84145,1,0,0:0:0:0:
255,202,85288,1,8,0:0:0:0:
255,202,85859,1,0,0:0:0:0:
255,202,86431,1,8,0:0:0:0:
255,202,87574,1,0,0:0:0:0:
255,202,88145,1,8,0:0:0:0:
255,202,88716,1,0,0:0:0:0:
255,202,89288,1,8,0:0:0:0:
236,124,89574,1,0,0:0:0:0:
255,202,89859,1,8,0:0:0:0:
255,202,91002,1,8,0:0:0:0:
168,151,91574,1,8,0:0:0:0:
168,151,92145,1,0,0:0:0:0:
