osu file format v14

[General]
AudioFilename: audio.mp3
AudioLeadIn: 0
PreviewTime: 85511
Countdown: 0
SampleSet: Normal
StackLeniency: 1
Mode: 1
LetterboxInBreaks: 0
WidescreenStoryboard: 0

[Editor]
Bookmarks: 52,26027,49247,51545,57062,69017,104189,137063,170166,208036,245405,278139,296759
DistanceSpacing: 0.6
BeatDivisor: 8
GridSize: 32
TimelineZoom: 3.2

[Metadata]
Title:The Inevitable Degradation of Flesh
TitleUnicode:The Inevitable Degradation of Flesh
Artist:Nile
ArtistUnicode:Nile
Creator:Axer
Version:Taiko God
Source:
Tags:argentine dream _w6 _WWWWWW_WWWWWW_ english 2012 at the gate of sethu extreme brutal technical death metal karl sanders
BeatmapID:2361806
BeatmapSetID:1130664

[Difficulty]
HPDrainRate:5
CircleSize:2
OverallDifficulty:8
ApproachRate:10
SliderMultiplier:1.4
SliderTickRate:1

[Events]
//Background and Video events
0,0,"skulltomb.jpg",0,-50
//Break Periods
//Storyboard Layer 0 (Background)
//Storyboard Layer 1 (Fail)
//Storyboard Layer 2 (Pass)
//Storyboard Layer 3 (Foreground)
//Storyboard Layer 4 (Overlay)
//Storyboard Sound Samples

[TimingPoints]
52,229.885057471264,4,1,0,85,1,0
5569,229.885057471264,5,1,0,85,1,0
7867,229.885057471264,4,1,0,85,1,0
13384,229.885057471264,5,1,0,85,1,0
16832,229.885057471264,4,1,0,85,1,0
31544,229.885057471264,5,1,0,85,1,0
33842,229.885057471264,7,1,0,85,1,0
35451,229.885057471264,4,1,0,85,1,0
39129,229.885057471264,5,1,0,85,1,0
43669,229.885057471264,5,1,0,85,1,8
43730,229.885057471264,4,1,0,85,1,0
49247,229.885057471264,5,1,0,85,1,0
51545,229.885057471264,4,1,0,85,1,0
57062,229.885057471264,5,1,0,85,1,0
61602,229.885057471264,5,1,0,85,1,8
61661,229.885057471264,4,1,0,85,1,0
85569,-100,4,1,0,85,0,1
103037,-103.092783505155,4,1,0,85,0,1
103152,-105.263157894737,4,1,0,85,0,1
103267,-107.52688172043,4,1,0,85,0,1
103959,-111.111111111111,4,1,0,85,0,0
117750,-107.52688172043,4,1,0,85,0,0
117980,-105.263157894737,4,1,0,85,0,0
118209,-103.092783505155,4,1,0,85,0,0
118672,-100,4,1,0,85,0,1
131772,-98.0392156862745,4,1,0,85,0,1
132462,-97.0873786407767,4,1,0,85,0,1
132922,-96.1538461538461,4,1,0,85,0,1
133382,-95.2380952380952,4,1,0,85,0,1
137063,-100,4,1,0,85,0,0
151775,-100,4,1,0,85,0,1
169244,-102.040816326531,4,1,0,85,0,1
169359,-104.166666666667,4,1,0,85,0,1
169474,-106.382978723404,4,1,0,85,0,1
170048,-108.695652173913,4,1,0,85,0,1
170166,-111.111111111111,4,1,0,85,0,0
183959,-111.111111111111,4,1,0,85,0,0
184074,-111.518401093772,4,1,0,85,0,0
184189,-111.928813274757,4,1,0,85,0,0
184304,-112.342131220103,4,1,0,85,0,0
184419,-112.7586401308,4,1,0,85,0,0
184534,-113.178120858388,4,1,0,85,0,0
184649,-113.600863366562,4,1,0,85,0,0
184764,-114.026645746578,4,1,0,85,0,0
184879,263.157894736842,4,1,0,85,1,0
184879,-100,4,1,0,85,0,0
260668,229.885057471264,4,1,0,85,1,0
266185,229.885057471264,5,1,0,85,1,0
268483,229.885057471264,4,1,0,85,1,0
274000,229.885057471264,5,1,0,85,1,0
276068,229.885057471264,5,1,0,85,1,8
276300,229.885057471264,4,1,0,85,1,0
278139,-100,4,1,0,85,0,1
295607,-102.040816326531,4,1,0,85,0,1
295837,-102.564102564103,4,1,0,85,0,1
295897,-103.199174406605,4,1,0,85,0,1
295955,-104.166666666667,4,1,0,85,0,1
296012,-105.263157894737,4,1,0,85,0,1
296067,-106.382978723404,4,1,0,85,0,1
296296,-108.695652173913,4,1,0,85,0,1
296529,-111.111111111111,4,1,0,85,0,0
312159,-117.647058823529,4,1,0,60,0,0
313078,-125,4,1,0,55,0,0
313998,-133.333333333333,4,1,0,50,0,0
314917,-142.857142857143,4,1,0,45,0,0
315837,-153.846153846154,4,1,0,40,0,0
316756,-166.666666666667,4,1,0,35,0,0
317676,-181.818181818182,4,1,0,30,0,0
318595,-200,4,1,0,25,0,0
319515,-222.222222222222,4,1,0,20,0,0
320434,-250,4,1,0,10,0,0
321354,-285.714285714286,4,1,0,5,0,0
322274,-333.333333333333,4,1,0,5,0,0
323193,-400,4,1,0,5,0,0
324113,-434.782608695652,4,1,0,5,0,0
325032,-500,4,1,0,5,0,0
325952,-588.235294117647,4,1,0,5,0,0
326871,-666.666666666667,4,1,0,5,0,0
327791,-769.230769230769,4,1,0,5,0,0

[HitObjects]
160,288,52,5,4,0:0:0:0:
352,96,281,1,8,0:0:0:0:
352,96,511,1,8,0:0:0:0:
352,96,741,1,8,0:0:0:0:
352,96,971,1,8,0:0:0:0:
352,96,1201,1,8,0:0:0:0:
352,96,1431,1,8,0:0:0:0:
352,96,1661,1,8,0:0:0:0:
160,288,1891,1,4,0:0:0:0:
352,96,2120,1,8,0:0:0:0:
160,96,2178,1,0,0:0:0:0:
352,96,2235,1,8,0:0:0:0:
160,96,2293,1,0,0:0:0:0:
352,96,2350,1,8,0:0:0:0:
352,96,2408,1,8,0:0:0:0:
160,96,2465,1,0,0:0:0:0:
160,96,2523,1,0,0:0:0:0:
352,96,2580,1,8,0:0:0:0:
160,96,2638,1,0,0:0:0:0:
160,96,2695,1,0,0:0:0:0:
160,96,2753,1,0,0:0:0:0:
352,96,2810,1,8,0:0:0:0:
352,96,2868,1,8,0:0:0:0:
160,96,2925,1,0,0:0:0:0:
160,96,2983,1,0,0:0:0:0:
352,96,3040,1,8,0:0:0:0:
160,96,3097,1,0,0:0:0:0:
352,96,3155,1,8,0:0:0:0:
352,96,3212,1,8,0:0:0:0:
160,96,3270,1,0,0:0:0:0:
352,96,3347,1,8,0:0:0:0:
352,96,3423,1,8,0:0:0:0:
160,288,3500,1,4,0:0:0:0:
352,288,3730,1,12,0:0:0:0:
352,96,3960,1,8,0:0:0:0:
160,96,4017,1,0,0:0:0:0:
352,96,4074,1,8,0:0:0:0:
352,96,4132,1,8,0:0:0:0:
160,96,4189,1,0,0:0:0:0:
160,96,4247,1,0,0:0:0:0:
352,96,4304,1,8,0:0:0:0:
352,96,4362,1,8,0:0:0:0:
160,96,4419,1,0,0:0:0:0:
160,96,4477,1,0,0:0:0:0:
352,96,4534,1,8,0:0:0:0:
352,96,4592,1,8,0:0:0:0:
160,96,4649,1,0,0:0:0:0:
160,96,4707,1,0,0:0:0:0:
352,96,4764,1,8,0:0:0:0:
352,96,4822,1,8,0:0:0:0:
160,96,4879,1,0,0:0:0:0:
160,96,4937,1,0,0:0:0:0:
352,96,4994,1,8,0:0:0:0:
352,96,5051,1,8,0:0:0:0:
160,96,5109,1,0,0:0:0:0:
160,96,5166,1,0,0:0:0:0:
352,96,5224,1,8,0:0:0:0:
352,96,5281,1,8,0:0:0:0:
160,288,5339,1,4,0:0:0:0:
352,288,5569,1,12,0:0:0:0:
160,96,5683,1,0,0:0:0:0:
160,96,5741,1,0,0:0:0:0:
352,96,5798,1,8,0:0:0:0:
160,96,5856,1,0,0:0:0:0:
352,96,5913,1,8,0:0:0:0:
160,96,5971,1,0,0:0:0:0:
352,96,6028,1,8,0:0:0:0:
160,96,6143,1,0,0:0:0:0:
160,96,6258,1,0,0:0:0:0:
160,96,6316,1,0,0:0:0:0:
352,96,6373,1,8,0:0:0:0:
160,96,6431,1,0,0:0:0:0:
352,96,6488,1,8,0:0:0:0:
352,96,6546,1,8,0:0:0:0:
160,96,6603,1,0,0:0:0:0:
352,288,6718,1,12,0:0:0:0:
160,96,6833,1,0,0:0:0:0:
160,96,6890,1,0,0:0:0:0:
352,96,6948,1,8,0:0:0:0:
160,96,7005,1,0,0:0:0:0:
352,96,7063,1,8,0:0:0:0:
160,96,7120,1,0,0:0:0:0:
352,96,7178,1,8,0:0:0:0:
160,96,7293,1,0,0:0:0:0:
160,96,7408,1,0,0:0:0:0:
160,96,7465,1,0,0:0:0:0:
352,96,7523,1,8,0:0:0:0:
352,96,7580,1,8,0:0:0:0:
160,96,7637,1,0,0:0:0:0:
352,96,7695,1,8,0:0:0:0:
160,96,7752,1,0,0:0:0:0:
352,288,7867,1,12,0:0:0:0:
160,96,7981,1,0,0:0:0:0:
352,96,8096,1,8,0:0:0:0:
160,96,8154,1,0,0:0:0:0:
352,96,8211,1,8,0:0:0:0:
160,96,8326,1,0,0:0:0:0:
352,96,8384,1,8,0:0:0:0:
160,96,8441,1,0,0:0:0:0:
352,96,8499,1,8,0:0:0:0:
160,96,8556,1,0,0:0:0:0:
160,96,8671,1,0,0:0:0:0:
352,96,8786,1,8,0:0:0:0:
160,96,8844,1,0,0:0:0:0:
352,96,8901,1,8,0:0:0:0:
160,96,8958,1,0,0:0:0:0:
352,96,9016,1,8,0:0:0:0:
352,96,9131,1,8,0:0:0:0:
160,96,9246,1,0,0:0:0:0:
352,96,9303,1,8,0:0:0:0:
160,96,9361,1,0,0:0:0:0:
352,96,9418,1,8,0:0:0:0:
160,96,9476,1,0,0:0:0:0:
352,96,9591,1,8,0:0:0:0:
160,288,9706,1,4,0:0:0:0:
160,96,9821,1,0,0:0:0:0:
352,96,9878,1,8,0:0:0:0:
160,96,9935,1,0,0:0:0:0:
352,96,10050,1,8,0:0:0:0:
160,288,10165,1,4,0:0:0:0:
160,96,10280,1,0,0:0:0:0:
352,288,10395,1,12,0:0:0:0:
352,96,10510,1,8,0:0:0:0:
160,96,10625,1,0,0:0:0:0:
160,96,10683,1,0,0:0:0:0:
352,96,10740,1,8,0:0:0:0:
160,96,10798,1,0,0:0:0:0:
352,96,10855,1,8,0:0:0:0:
352,96,10912,1,8,0:0:0:0:
160,96,10970,1,0,0:0:0:0:
160,96,11027,1,0,0:0:0:0:
352,96,11085,1,8,0:0:0:0:
160,96,11162,1,0,0:0:0:0:
160,96,11238,1,0,0:0:0:0:
352,288,11315,1,12,0:0:0:0:
160,288,11545,1,4,0:0:0:0:
352,96,11775,1,8,0:0:0:0:
160,96,11832,1,0,0:0:0:0:
352,96,11889,1,8,0:0:0:0:
160,96,12004,1,0,0:0:0:0:
352,96,12062,1,8,0:0:0:0:
160,96,12119,1,0,0:0:0:0:
352,96,12177,1,8,0:0:0:0:
160,96,12234,1,0,0:0:0:0:
352,96,12349,1,8,0:0:0:0:
160,288,12464,1,4,0:0:0:0:
160,96,12579,1,0,0:0:0:0:
352,288,12694,1,12,0:0:0:0:
352,96,12809,1,8,0:0:0:0:
352,96,12924,1,8,0:0:0:0:
160,96,12981,1,0,0:0:0:0:
352,96,13039,1,8,0:0:0:0:
352,96,13096,1,8,0:0:0:0:
160,96,13154,1,0,0:0:0:0:
352,288,13384,1,12,0:0:0:0:
160,96,13498,1,0,0:0:0:0:
160,96,13556,1,0,0:0:0:0:
352,96,13613,1,8,0:0:0:0:
160,96,13671,1,0,0:0:0:0:
352,96,13728,1,8,0:0:0:0:
160,96,13786,1,0,0:0:0:0:
352,96,13843,1,8,0:0:0:0:
160,96,13958,1,0,0:0:0:0:
160,96,14073,1,0,0:0:0:0:
160,96,14131,1,0,0:0:0:0:
352,96,14188,1,8,0:0:0:0:
160,96,14246,1,0,0:0:0:0:
352,96,14303,1,8,0:0:0:0:
352,96,14361,1,8,0:0:0:0:
160,96,14418,1,0,0:0:0:0:
352,288,14533,1,12,0:0:0:0:
160,96,14648,1,0,0:0:0:0:
160,96,14705,1,0,0:0:0:0:
352,96,14763,1,8,0:0:0:0:
160,96,14820,1,0,0:0:0:0:
352,96,14878,1,8,0:0:0:0:
160,96,14935,1,0,0:0:0:0:
352,96,14993,1,8,0:0:0:0:
160,96,15108,1,0,0:0:0:0:
160,96,15223,1,0,0:0:0:0:
160,96,15280,1,0,0:0:0:0:
352,96,15338,1,8,0:0:0:0:
352,96,15395,1,8,0:0:0:0:
160,96,15452,1,0,0:0:0:0:
352,96,15510,1,8,0:0:0:0:
160,96,15567,1,0,0:0:0:0:
352,288,15682,1,12,0:0:0:0:
160,96,15797,1,0,0:0:0:0:
160,96,15855,1,0,0:0:0:0:
352,96,15912,1,8,0:0:0:0:
160,96,15970,1,0,0:0:0:0:
352,96,16027,1,8,0:0:0:0:
160,96,16085,1,0,0:0:0:0:
352,96,16142,1,8,0:0:0:0:
160,96,16257,1,0,0:0:0:0:
160,96,16372,1,0,0:0:0:0:
160,96,16429,1,0,0:0:0:0:
352,96,16487,1,8,0:0:0:0:
160,96,16544,1,0,0:0:0:0:
352,96,16602,1,8,0:0:0:0:
352,96,16659,1,8,0:0:0:0:
160,96,16717,1,0,0:0:0:0:
352,288,16832,1,12,0:0:0:0:
160,96,16946,1,0,0:0:0:0:
160,96,17004,1,0,0:0:0:0:
160,96,17061,1,0,0:0:0:0:
160,96,17119,1,0,0:0:0:0:
160,96,17176,1,0,0:0:0:0:
352,288,17291,1,12,0:0:0:0:
160,96,17406,1,0,0:0:0:0:
160,96,17464,1,0,0:0:0:0:
160,96,17521,1,0,0:0:0:0:
160,96,17579,1,0,0:0:0:0:
160,96,17636,1,0,0:0:0:0:
352,96,17751,1,8,0:0:0:0:
352,96,17809,1,8,0:0:0:0:
160,96,17866,1,0,0:0:0:0:
160,96,17923,1,0,0:0:0:0:
352,96,17981,1,8,0:0:0:0:
160,96,18038,1,0,0:0:0:0:
160,96,18096,1,0,0:0:0:0:
160,96,18153,1,0,0:0:0:0:
352,96,18211,1,8,0:0:0:0:
352,96,18268,1,8,0:0:0:0:
160,96,18326,1,0,0:0:0:0:
160,96,18383,1,0,0:0:0:0:
352,96,18441,1,8,0:0:0:0:
352,96,18517,1,8,0:0:0:0:
352,96,18594,1,8,0:0:0:0:
160,288,18671,1,4,0:0:0:0:
160,96,18900,1,0,0:0:0:0:
160,96,18958,1,0,0:0:0:0:
352,96,19015,1,8,0:0:0:0:
160,96,19073,1,0,0:0:0:0:
352,96,19130,1,8,0:0:0:0:
352,96,19188,1,8,0:0:0:0:
160,96,19245,1,0,0:0:0:0:
160,96,19303,1,0,0:0:0:0:
352,96,19360,1,8,0:0:0:0:
160,96,19418,1,0,0:0:0:0:
160,96,19475,1,0,0:0:0:0:
160,96,19533,1,0,0:0:0:0:
352,96,19590,1,8,0:0:0:0:
352,96,19648,1,8,0:0:0:0:
160,96,19705,1,0,0:0:0:0:
160,96,19763,1,0,0:0:0:0:
352,96,19820,1,8,0:0:0:0:
160,96,19877,1,0,0:0:0:0:
160,96,19935,1,0,0:0:0:0:
160,96,19992,1,0,0:0:0:0:
352,96,20050,1,8,0:0:0:0:
352,96,20107,1,8,0:0:0:0:
352,96,20165,1,8,0:0:0:0:
352,96,20222,1,8,0:0:0:0:
160,96,20280,1,0,0:0:0:0:
352,96,20356,1,8,0:0:0:0:
352,96,20433,1,8,0:0:0:0:
160,288,20510,1,4,0:0:0:0:
160,96,20740,1,0,0:0:0:0:
160,96,20797,1,0,0:0:0:0:
160,96,20854,1,0,0:0:0:0:
160,96,20912,1,0,0:0:0:0:
352,96,20969,1,8,0:0:0:0:
352,96,21027,1,8,0:0:0:0:
352,96,21084,1,8,0:0:0:0:
352,96,21142,1,8,0:0:0:0:
160,96,21199,1,0,0:0:0:0:
160,96,21257,1,0,0:0:0:0:
160,96,21314,1,0,0:0:0:0:
160,96,21372,1,0,0:0:0:0:
352,96,21429,1,8,0:0:0:0:
352,96,21487,1,8,0:0:0:0:
352,96,21544,1,8,0:0:0:0:
352,96,21602,1,8,0:0:0:0:
160,96,21659,1,0,0:0:0:0:
160,96,21717,1,0,0:0:0:0:
160,96,21774,1,0,0:0:0:0:
160,96,21831,1,0,0:0:0:0:
352,96,21889,1,8,0:0:0:0:
352,96,21946,1,8,0:0:0:0:
160,96,22004,1,0,0:0:0:0:
160,96,22061,1,0,0:0:0:0:
352,96,22119,1,8,0:0:0:0:
160,96,22195,1,0,0:0:0:0:
160,96,22272,1,0,0:0:0:0:
352,288,22349,1,12,0:0:0:0:
160,96,22579,1,0,0:0:0:0:
352,288,22809,1,12,0:0:0:0:
352,96,23038,1,8,0:0:0:0:
352,96,23096,1,8,0:0:0:0:
160,96,23153,1,0,0:0:0:0:
160,96,23211,1,0,0:0:0:0:
352,96,23268,1,8,0:0:0:0:
352,96,23326,1,8,0:0:0:0:
160,96,23383,1,0,0:0:0:0:
160,96,23441,1,0,0:0:0:0:
352,96,23498,1,8,0:0:0:0:
160,96,23556,1,0,0:0:0:0:
352,96,23613,1,8,0:0:0:0:
352,96,23671,1,8,0:0:0:0:
160,96,23728,1,0,0:0:0:0:
352,96,23805,1,8,0:0:0:0:
352,96,23881,1,8,0:0:0:0:
160,96,23958,1,0,0:0:0:0:
160,96,24073,1,0,0:0:0:0:
352,288,24188,1,12,0:0:0:0:
352,288,26027,1,12,0:0:0:0:
160,96,26142,1,0,0:0:0:0:
160,96,26199,1,0,0:0:0:0:
160,96,26257,1,0,0:0:0:0:
160,96,26372,1,0,0:0:0:0:
160,96,26487,1,0,0:0:0:0:
160,96,26544,1,0,0:0:0:0:
352,96,26602,1,8,0:0:0:0:
352,96,26659,1,8,0:0:0:0:
160,96,26717,1,0,0:0:0:0:
160,96,26831,1,0,0:0:0:0:
352,96,26946,1,8,0:0:0:0:
160,96,27061,1,0,0:0:0:0:
160,96,27119,1,0,0:0:0:0:
160,96,27176,1,0,0:0:0:0:
160,96,27291,1,0,0:0:0:0:
352,96,27406,1,8,0:0:0:0:
352,96,27464,1,8,0:0:0:0:
160,96,27521,1,0,0:0:0:0:
160,96,27579,1,0,0:0:0:0:
352,96,27636,1,8,0:0:0:0:
160,96,27751,1,0,0:0:0:0:
352,288,27866,1,12,0:0:0:0:
160,96,27981,1,0,0:0:0:0:
352,96,28096,1,8,0:0:0:0:
160,96,28211,1,0,0:0:0:0:
352,96,28326,1,8,0:0:0:0:
352,96,28383,1,8,0:0:0:0:
160,96,28441,1,0,0:0:0:0:
352,96,28556,1,8,0:0:0:0:
160,96,28671,1,0,0:0:0:0:
352,96,28786,1,8,0:0:0:0:
160,96,28843,1,0,0:0:0:0:
160,96,28900,1,0,0:0:0:0:
352,96,29015,1,8,0:0:0:0:
160,96,29130,1,0,0:0:0:0:
352,96,29245,1,8,0:0:0:0:
160,96,29303,1,0,0:0:0:0:
352,96,29360,1,8,0:0:0:0:
352,96,29475,1,8,0:0:0:0:
160,96,29533,1,0,0:0:0:0:
352,96,29590,1,8,0:0:0:0:
352,288,29705,1,12,0:0:0:0:
160,96,29820,1,0,0:0:0:0:
160,96,29877,1,0,0:0:0:0:
160,96,29935,1,0,0:0:0:0:
160,96,30050,1,0,0:0:0:0:
160,96,30165,1,0,0:0:0:0:
160,96,30222,1,0,0:0:0:0:
352,96,30280,1,8,0:0:0:0:
352,96,30337,1,8,0:0:0:0:
160,96,30395,1,0,0:0:0:0:
160,96,30510,1,0,0:0:0:0:
352,96,30625,1,8,0:0:0:0:
352,96,30682,1,8,0:0:0:0:
160,96,30740,1,0,0:0:0:0:
160,96,30797,1,0,0:0:0:0:
352,96,30854,1,8,0:0:0:0:
160,96,30969,1,0,0:0:0:0:
352,96,31084,1,8,0:0:0:0:
352,96,31142,1,8,0:0:0:0:
352,96,31199,1,8,0:0:0:0:
352,96,31257,1,8,0:0:0:0:
160,96,31314,1,0,0:0:0:0:
352,288,31544,1,12,0:0:0:0:
160,96,31658,1,0,0:0:0:0:
160,96,31716,1,0,0:0:0:0:
352,96,31773,1,8,0:0:0:0:
160,96,31831,1,0,0:0:0:0:
352,96,31888,1,8,0:0:0:0:
160,96,31946,1,0,0:0:0:0:
352,96,32003,1,8,0:0:0:0:
160,96,32061,1,0,0:0:0:0:
352,96,32118,1,8,0:0:0:0:
352,96,32233,1,8,0:0:0:0:
352,96,32291,1,8,0:0:0:0:
160,96,32348,1,0,0:0:0:0:
160,96,32406,1,0,0:0:0:0:
352,96,32463,1,8,0:0:0:0:
160,96,32521,1,0,0:0:0:0:
352,96,32578,1,8,0:0:0:0:
352,288,32693,1,12,0:0:0:0:
352,96,32923,1,8,0:0:0:0:
160,96,32980,1,0,0:0:0:0:
352,96,33038,1,8,0:0:0:0:
160,96,33095,1,0,0:0:0:0:
352,96,33153,1,8,0:0:0:0:
160,96,33210,1,0,0:0:0:0:
352,96,33268,1,8,0:0:0:0:
352,96,33383,1,8,0:0:0:0:
160,96,33440,1,0,0:0:0:0:
160,96,33498,1,0,0:0:0:0:
160,96,33555,1,0,0:0:0:0:
352,96,33612,1,8,0:0:0:0:
160,96,33670,1,0,0:0:0:0:
160,96,33727,1,0,0:0:0:0:
352,288,33842,1,12,0:0:0:0:
160,288,34071,1,4,0:0:0:0:
160,288,34301,1,4,0:0:0:0:
352,288,34531,1,12,0:0:0:0:
160,288,34761,1,4,0:0:0:0:
160,288,34991,1,4,0:0:0:0:
352,288,35221,1,12,0:0:0:0:
352,96,35451,1,8,0:0:0:0:
160,96,35508,1,0,0:0:0:0:
160,96,35565,1,0,0:0:0:0:
352,96,35680,1,8,0:0:0:0:
160,96,35795,1,0,0:0:0:0:
352,96,35910,1,8,0:0:0:0:
352,96,35968,1,8,0:0:0:0:
160,96,36025,1,0,0:0:0:0:
352,96,36140,1,8,0:0:0:0:
160,96,36255,1,0,0:0:0:0:
352,96,36370,1,8,0:0:0:0:
160,96,36428,1,0,0:0:0:0:
160,96,36485,1,0,0:0:0:0:
352,96,36600,1,8,0:0:0:0:
160,96,36715,1,0,0:0:0:0:
352,96,36830,1,8,0:0:0:0:
352,96,36887,1,8,0:0:0:0:
160,96,36945,1,0,0:0:0:0:
352,96,37060,1,8,0:0:0:0:
160,96,37175,1,0,0:0:0:0:
352,288,37290,1,12,0:0:0:0:
160,96,37405,1,0,0:0:0:0:
160,96,37462,1,0,0:0:0:0:
160,96,37519,1,0,0:0:0:0:
160,96,37634,1,0,0:0:0:0:
160,96,37749,1,0,0:0:0:0:
160,96,37807,1,0,0:0:0:0:
352,96,37864,1,8,0:0:0:0:
352,96,37922,1,8,0:0:0:0:
160,96,37979,1,0,0:0:0:0:
160,96,38094,1,0,0:0:0:0:
352,96,38209,1,8,0:0:0:0:
352,96,38267,1,8,0:0:0:0:
160,96,38324,1,0,0:0:0:0:
160,96,38382,1,0,0:0:0:0:
352,96,38439,1,8,0:0:0:0:
160,96,38554,1,0,0:0:0:0:
352,96,38669,1,8,0:0:0:0:
352,96,38726,1,8,0:0:0:0:
352,96,38784,1,8,0:0:0:0:
352,96,38841,1,8,0:0:0:0:
160,96,38899,1,0,0:0:0:0:
352,288,39129,1,12,0:0:0:0:
160,96,39243,1,0,0:0:0:0:
160,96,39301,1,0,0:0:0:0:
352,96,39358,1,8,0:0:0:0:
160,96,39416,1,0,0:0:0:0:
352,96,39473,1,8,0:0:0:0:
160,96,39531,1,0,0:0:0:0:
352,96,39588,1,8,0:0:0:0:
160,96,39646,1,0,0:0:0:0:
352,96,39703,1,8,0:0:0:0:
352,96,39818,1,8,0:0:0:0:
352,96,39876,1,8,0:0:0:0:
160,96,39933,1,0,0:0:0:0:
160,96,39991,1,0,0:0:0:0:
352,96,40048,1,8,0:0:0:0:
160,96,40106,1,0,0:0:0:0:
352,96,40163,1,8,0:0:0:0:
352,288,40278,1,12,0:0:0:0:
352,96,40508,1,8,0:0:0:0:
160,96,40565,1,0,0:0:0:0:
352,96,40623,1,8,0:0:0:0:
160,96,40680,1,0,0:0:0:0:
352,96,40738,1,8,0:0:0:0:
160,96,40795,1,0,0:0:0:0:
352,96,40853,1,8,0:0:0:0:
352,96,40968,1,8,0:0:0:0:
160,96,41025,1,0,0:0:0:0:
160,96,41083,1,0,0:0:0:0:
160,96,41140,1,0,0:0:0:0:
352,96,41197,1,8,0:0:0:0:
160,96,41255,1,0,0:0:0:0:
160,96,41312,1,0,0:0:0:0:
352,288,41427,1,12,0:0:0:0:
352,96,41657,1,8,0:0:0:0:
160,96,41715,1,0,0:0:0:0:
352,96,41772,1,8,0:0:0:0:
160,96,41830,1,0,0:0:0:0:
352,96,41887,1,8,0:0:0:0:
160,96,41945,1,0,0:0:0:0:
352,96,42002,1,8,0:0:0:0:
352,96,42117,1,8,0:0:0:0:
352,96,42174,1,8,0:0:0:0:
160,96,42232,1,0,0:0:0:0:
160,96,42289,1,0,0:0:0:0:
352,96,42347,1,8,0:0:0:0:
160,96,42404,1,0,0:0:0:0:
352,96,42462,1,8,0:0:0:0:
352,288,42577,1,12,0:0:0:0:
352,96,42807,1,8,0:0:0:0:
160,96,42864,1,0,0:0:0:0:
352,96,42922,1,8,0:0:0:0:
160,96,42979,1,0,0:0:0:0:
352,96,43037,1,8,0:0:0:0:
160,96,43094,1,0,0:0:0:0:
352,96,43151,1,8,0:0:0:0:
352,96,43266,1,8,0:0:0:0:
160,96,43324,1,0,0:0:0:0:
160,96,43381,1,0,0:0:0:0:
160,96,43439,1,0,0:0:0:0:
352,96,43496,1,8,0:0:0:0:
160,96,43554,1,0,0:0:0:0:
160,96,43611,1,0,0:0:0:0:
352,288,43730,1,12,0:0:0:0:
352,96,43959,1,8,0:0:0:0:
160,96,44017,1,0,0:0:0:0:
352,96,44074,1,8,0:0:0:0:
160,96,44189,1,0,0:0:0:0:
352,96,44247,1,8,0:0:0:0:
160,96,44304,1,0,0:0:0:0:
352,96,44362,1,8,0:0:0:0:
160,96,44419,1,0,0:0:0:0:
160,96,44534,1,0,0:0:0:0:
352,96,44649,1,8,0:0:0:0:
160,96,44707,1,0,0:0:0:0:
352,96,44764,1,8,0:0:0:0:
160,96,44821,1,0,0:0:0:0:
352,96,44879,1,8,0:0:0:0:
160,96,44994,1,0,0:0:0:0:
352,288,45109,1,12,0:0:0:0:
160,96,45224,1,0,0:0:0:0:
352,96,45281,1,8,0:0:0:0:
160,96,45339,1,0,0:0:0:0:
160,96,45454,1,0,0:0:0:0:
352,288,45569,1,12,0:0:0:0:
160,96,45684,1,0,0:0:0:0:
352,96,45741,1,8,0:0:0:0:
160,96,45798,1,0,0:0:0:0:
160,96,45913,1,0,0:0:0:0:
352,288,46028,1,12,0:0:0:0:
160,96,46143,1,0,0:0:0:0:
160,96,46201,1,0,0:0:0:0:
160,96,46258,1,0,0:0:0:0:
352,96,46373,1,8,0:0:0:0:
160,96,46488,1,0,0:0:0:0:
160,96,46546,1,0,0:0:0:0:
352,96,46603,1,8,0:0:0:0:
160,96,46661,1,0,0:0:0:0:
352,96,46718,1,8,0:0:0:0:
352,96,46775,1,8,0:0:0:0:
160,96,46833,1,0,0:0:0:0:
352,96,46890,1,8,0:0:0:0:
160,96,46948,1,0,0:0:0:0:
352,96,47025,1,8,0:0:0:0:
352,96,47101,1,8,0:0:0:0:
160,288,47178,1,4,0:0:0:0:
352,288,47408,1,12,0:0:0:0:
352,96,47638,1,8,0:0:0:0:
160,96,47695,1,0,0:0:0:0:
352,96,47752,1,8,0:0:0:0:
160,96,47867,1,0,0:0:0:0:
352,96,47925,1,8,0:0:0:0:
160,96,47982,1,0,0:0:0:0:
352,96,48040,1,8,0:0:0:0:
160,96,48097,1,0,0:0:0:0:
352,96,48212,1,8,0:0:0:0:
160,288,48327,1,4,0:0:0:0:
160,96,48442,1,0,0:0:0:0:
352,96,48500,1,8,0:0:0:0:
160,96,48557,1,0,0:0:0:0:
352,96,48672,1,8,0:0:0:0:
160,288,48787,1,4,0:0:0:0:
160,96,48902,1,0,0:0:0:0:
352,288,49017,1,12,0:0:0:0:
352,96,49132,1,8,0:0:0:0:
160,288,49247,1,4,0:0:0:0:
160,96,49361,1,0,0:0:0:0:
160,96,49419,1,0,0:0:0:0:
352,96,49476,1,8,0:0:0:0:
160,96,49534,1,0,0:0:0:0:
352,96,49591,1,8,0:0:0:0:
160,96,49649,1,0,0:0:0:0:
352,96,49706,1,8,0:0:0:0:
160,96,49821,1,0,0:0:0:0:
160,96,49936,1,0,0:0:0:0:
160,96,49994,1,0,0:0:0:0:
352,96,50051,1,8,0:0:0:0:
160,96,50109,1,0,0:0:0:0:
352,96,50166,1,8,0:0:0:0:
352,96,50224,1,8,0:0:0:0:
160,96,50281,1,0,0:0:0:0:
352,288,50396,1,12,0:0:0:0:
160,96,50511,1,0,0:0:0:0:
160,96,50568,1,0,0:0:0:0:
352,96,50626,1,8,0:0:0:0:
160,96,50683,1,0,0:0:0:0:
352,96,50741,1,8,0:0:0:0:
160,96,50798,1,0,0:0:0:0:
352,96,50856,1,8,0:0:0:0:
160,96,50971,1,0,0:0:0:0:
160,96,51086,1,0,0:0:0:0:
160,96,51143,1,0,0:0:0:0:
352,96,51201,1,8,0:0:0:0:
352,96,51258,1,8,0:0:0:0:
160,96,51315,1,0,0:0:0:0:
352,96,51373,1,8,0:0:0:0:
160,96,51430,1,0,0:0:0:0:
352,288,51545,1,12,0:0:0:0:
352,96,51774,1,8,0:0:0:0:
160,96,51832,1,0,0:0:0:0:
352,96,51889,1,8,0:0:0:0:
160,96,52004,1,0,0:0:0:0:
352,96,52062,1,8,0:0:0:0:
160,96,52119,1,0,0:0:0:0:
352,96,52177,1,8,0:0:0:0:
160,96,52234,1,0,0:0:0:0:
160,96,52349,1,0,0:0:0:0:
352,96,52464,1,8,0:0:0:0:
160,96,52522,1,0,0:0:0:0:
352,96,52579,1,8,0:0:0:0:
160,96,52636,1,0,0:0:0:0:
352,96,52694,1,8,0:0:0:0:
160,96,52809,1,0,0:0:0:0:
352,288,52924,1,12,0:0:0:0:
160,96,53039,1,0,0:0:0:0:
352,96,53096,1,8,0:0:0:0:
160,96,53154,1,0,0:0:0:0:
160,96,53269,1,0,0:0:0:0:
352,288,53384,1,12,0:0:0:0:
160,96,53499,1,0,0:0:0:0:
352,96,53556,1,8,0:0:0:0:
160,96,53613,1,0,0:0:0:0:
160,96,53728,1,0,0:0:0:0:
352,288,53843,1,12,0:0:0:0:
160,96,53958,1,0,0:0:0:0:
352,96,54016,1,8,0:0:0:0:
160,96,54073,1,0,0:0:0:0:
160,96,54188,1,0,0:0:0:0:
352,288,54303,1,12,0:0:0:0:
160,96,54418,1,0,0:0:0:0:
160,96,54476,1,0,0:0:0:0:
160,96,54533,1,0,0:0:0:0:
160,96,54590,1,0,0:0:0:0:
160,96,54648,1,0,0:0:0:0:
160,96,54705,1,0,0:0:0:0:
352,96,54763,1,8,0:0:0:0:
352,96,54820,1,8,0:0:0:0:
160,96,54878,1,0,0:0:0:0:
352,96,54935,1,8,0:0:0:0:
160,96,54993,1,0,0:0:0:0:
352,96,55069,1,8,0:0:0:0:
352,96,55146,1,8,0:0:0:0:
160,288,55223,1,4,0:0:0:0:
352,96,55453,1,8,0:0:0:0:
160,96,55510,1,0,0:0:0:0:
352,96,55567,1,8,0:0:0:0:
160,96,55682,1,0,0:0:0:0:
352,96,55740,1,8,0:0:0:0:
160,96,55797,1,0,0:0:0:0:
352,96,55855,1,8,0:0:0:0:
160,96,55912,1,0,0:0:0:0:
160,96,56027,1,0,0:0:0:0:
352,96,56142,1,8,0:0:0:0:
160,96,56200,1,0,0:0:0:0:
352,96,56257,1,8,0:0:0:0:
160,96,56315,1,0,0:0:0:0:
160,96,56372,1,0,0:0:0:0:
352,96,56487,1,8,0:0:0:0:
160,96,56544,1,0,0:0:0:0:
352,96,56602,1,8,0:0:0:0:
352,96,56659,1,8,0:0:0:0:
160,96,56717,1,0,0:0:0:0:
352,96,56774,1,8,0:0:0:0:
160,96,56832,1,0,0:0:0:0:
352,288,57062,1,12,0:0:0:0:
160,96,57176,1,0,0:0:0:0:
160,96,57234,1,0,0:0:0:0:
352,96,57291,1,8,0:0:0:0:
160,96,57349,1,0,0:0:0:0:
352,96,57406,1,8,0:0:0:0:
160,96,57464,1,0,0:0:0:0:
352,96,57521,1,8,0:0:0:0:
160,96,57636,1,0,0:0:0:0:
160,96,57751,1,0,0:0:0:0:
160,96,57809,1,0,0:0:0:0:
352,96,57866,1,8,0:0:0:0:
160,96,57924,1,0,0:0:0:0:
352,96,57981,1,8,0:0:0:0:
352,96,58039,1,8,0:0:0:0:
160,96,58096,1,0,0:0:0:0:
352,288,58211,1,12,0:0:0:0:
160,96,58326,1,0,0:0:0:0:
160,96,58383,1,0,0:0:0:0:
352,96,58441,1,8,0:0:0:0:
160,96,58498,1,0,0:0:0:0:
352,96,58556,1,8,0:0:0:0:
160,96,58613,1,0,0:0:0:0:
352,96,58671,1,8,0:0:0:0:
160,96,58786,1,0,0:0:0:0:
160,96,58901,1,0,0:0:0:0:
160,96,58958,1,0,0:0:0:0:
352,96,59016,1,8,0:0:0:0:
352,96,59073,1,8,0:0:0:0:
160,96,59130,1,0,0:0:0:0:
352,96,59188,1,8,0:0:0:0:
160,96,59245,1,0,0:0:0:0:
352,288,59360,1,12,0:0:0:0:
160,96,59475,1,0,0:0:0:0:
160,96,59533,1,0,0:0:0:0:
352,96,59590,1,8,0:0:0:0:
160,96,59648,1,0,0:0:0:0:
352,96,59705,1,8,0:0:0:0:
160,96,59763,1,0,0:0:0:0:
352,96,59820,1,8,0:0:0:0:
160,96,59935,1,0,0:0:0:0:
160,96,60050,1,0,0:0:0:0:
160,96,60107,1,0,0:0:0:0:
352,96,60165,1,8,0:0:0:0:
160,96,60222,1,0,0:0:0:0:
352,96,60280,1,8,0:0:0:0:
352,96,60337,1,8,0:0:0:0:
160,96,60395,1,0,0:0:0:0:
352,288,60510,1,12,0:0:0:0:
160,96,60625,1,0,0:0:0:0:
160,96,60682,1,0,0:0:0:0:
352,96,60740,1,8,0:0:0:0:
160,96,60797,1,0,0:0:0:0:
352,96,60855,1,8,0:0:0:0:
160,96,60912,1,0,0:0:0:0:
352,96,60970,1,8,0:0:0:0:
160,96,61084,1,0,0:0:0:0:
160,96,61199,1,0,0:0:0:0:
160,96,61257,1,0,0:0:0:0:
352,96,61314,1,8,0:0:0:0:
352,96,61372,1,8,0:0:0:0:
160,96,61429,1,0,0:0:0:0:
352,96,61487,1,8,0:0:0:0:
160,96,61544,1,0,0:0:0:0:
352,288,61661,1,12,0:0:0:0:
160,96,61775,1,0,0:0:0:0:
160,96,61833,1,0,0:0:0:0:
160,96,61890,1,0,0:0:0:0:
160,96,61948,1,0,0:0:0:0:
160,96,62005,1,0,0:0:0:0:
352,288,62120,1,12,0:0:0:0:
160,96,62235,1,0,0:0:0:0:
160,96,62293,1,0,0:0:0:0:
160,96,62350,1,0,0:0:0:0:
160,96,62408,1,0,0:0:0:0:
160,96,62465,1,0,0:0:0:0:
352,96,62580,1,8,0:0:0:0:
352,96,62638,1,8,0:0:0:0:
160,96,62695,1,0,0:0:0:0:
160,96,62752,1,0,0:0:0:0:
352,96,62810,1,8,0:0:0:0:
160,96,62867,1,0,0:0:0:0:
160,96,62925,1,0,0:0:0:0:
160,96,62982,1,0,0:0:0:0:
352,96,63040,1,8,0:0:0:0:
352,96,63097,1,8,0:0:0:0:
352,96,63155,1,8,0:0:0:0:
352,96,63212,1,8,0:0:0:0:
160,96,63270,1,0,0:0:0:0:
352,96,63346,1,8,0:0:0:0:
352,96,63423,1,8,0:0:0:0:
160,288,63500,1,4,0:0:0:0:
352,96,63729,1,8,0:0:0:0:
160,96,63787,1,0,0:0:0:0:
160,96,63844,1,0,0:0:0:0:
160,96,63902,1,0,0:0:0:0:
352,96,63959,1,8,0:0:0:0:
352,96,64017,1,8,0:0:0:0:
352,96,64074,1,8,0:0:0:0:
352,96,64132,1,8,0:0:0:0:
160,96,64189,1,0,0:0:0:0:
160,96,64247,1,0,0:0:0:0:
160,96,64304,1,0,0:0:0:0:
160,96,64362,1,0,0:0:0:0:
352,96,64419,1,8,0:0:0:0:
352,96,64477,1,8,0:0:0:0:
160,96,64534,1,0,0:0:0:0:
160,96,64592,1,0,0:0:0:0:
352,96,64649,1,8,0:0:0:0:
160,96,64706,1,0,0:0:0:0:
160,96,64764,1,0,0:0:0:0:
160,96,64821,1,0,0:0:0:0:
352,96,64879,1,8,0:0:0:0:
352,96,64936,1,8,0:0:0:0:
352,96,64994,1,8,0:0:0:0:
352,96,65051,1,8,0:0:0:0:
160,96,65109,1,0,0:0:0:0:
160,96,65166,1,0,0:0:0:0:
160,96,65224,1,0,0:0:0:0:
352,288,65339,1,12,0:0:0:0:
352,96,65569,1,8,0:0:0:0:
160,96,65626,1,0,0:0:0:0:
160,96,65683,1,0,0:0:0:0:
160,96,65741,1,0,0:0:0:0:
352,96,65798,1,8,0:0:0:0:
352,96,65856,1,8,0:0:0:0:
352,96,65913,1,8,0:0:0:0:
352,96,65971,1,8,0:0:0:0:
160,96,66028,1,0,0:0:0:0:
160,96,66086,1,0,0:0:0:0:
160,96,66143,1,0,0:0:0:0:
160,96,66201,1,0,0:0:0:0:
352,96,66258,1,8,0:0:0:0:
352,96,66316,1,8,0:0:0:0:
352,96,66373,1,8,0:0:0:0:
352,96,66431,1,8,0:0:0:0:
160,96,66488,1,0,0:0:0:0:
160,96,66546,1,0,0:0:0:0:
160,96,66603,1,0,0:0:0:0:
160,96,66660,1,0,0:0:0:0:
352,96,66718,1,8,0:0:0:0:
352,96,66775,1,8,0:0:0:0:
352,96,66833,1,8,0:0:0:0:
352,96,66890,1,8,0:0:0:0:
160,96,66948,1,0,0:0:0:0:
352,96,67024,1,8,0:0:0:0:
352,96,67101,1,8,0:0:0:0:
160,288,67178,1,4,0:0:0:0:
160,96,67408,1,0,0:0:0:0:
352,288,67638,1,12,0:0:0:0:
352,96,67867,1,8,0:0:0:0:
352,96,67925,1,8,0:0:0:0:
160,96,67982,1,0,0:0:0:0:
160,96,68040,1,0,0:0:0:0:
352,96,68097,1,8,0:0:0:0:
352,96,68155,1,8,0:0:0:0:
160,96,68212,1,0,0:0:0:0:
160,96,68270,1,0,0:0:0:0:
352,96,68327,1,8,0:0:0:0:
352,96,68385,1,8,0:0:0:0:
352,96,68442,1,8,0:0:0:0:
352,96,68500,1,8,0:0:0:0:
160,96,68557,1,0,0:0:0:0:
352,96,68634,1,8,0:0:0:0:
352,96,68710,1,8,0:0:0:0:
160,288,68787,1,4,0:0:0:0:
352,288,69017,1,12,0:0:0:0:
160,96,69247,1,0,0:0:0:0:
352,96,69304,1,8,0:0:0:0:
160,96,69362,1,0,0:0:0:0:
352,96,69477,1,8,0:0:0:0:
352,96,69534,1,8,0:0:0:0:
160,96,69592,1,0,0:0:0:0:
352,96,69649,1,8,0:0:0:0:
160,96,69706,1,0,0:0:0:0:
160,96,69821,1,0,0:0:0:0:
352,96,69936,1,8,0:0:0:0:
352,96,69994,1,8,0:0:0:0:
160,96,70051,1,0,0:0:0:0:
160,96,70166,1,0,0:0:0:0:
352,96,70224,1,8,0:0:0:0:
160,96,70281,1,0,0:0:0:0:
160,96,70396,1,0,0:0:0:0:
352,96,70454,1,8,0:0:0:0:
160,96,70511,1,0,0:0:0:0:
352,96,70569,1,8,0:0:0:0:
160,96,70626,1,0,0:0:0:0:
160,96,70741,1,0,0:0:0:0:
352,96,70856,1,8,0:0:0:0:
352,96,70913,1,8,0:0:0:0:
160,96,70971,1,0,0:0:0:0:
160,96,71086,1,0,0:0:0:0:
352,96,71143,1,8,0:0:0:0:
160,96,71201,1,0,0:0:0:0:
352,96,71316,1,8,0:0:0:0:
352,96,71373,1,8,0:0:0:0:
160,96,71431,1,0,0:0:0:0:
352,96,71488,1,8,0:0:0:0:
160,96,71546,1,0,0:0:0:0:
352,96,71660,1,8,0:0:0:0:
160,288,71775,1,4,0:0:0:0:
160,96,71890,1,0,0:0:0:0:
352,288,72005,1,12,0:0:0:0:
160,96,72120,1,0,0:0:0:0:
352,288,72235,1,12,0:0:0:0:
352,96,72350,1,8,0:0:0:0:
160,96,72465,1,0,0:0:0:0:
160,96,72580,1,0,0:0:0:0:
352,288,72695,1,12,0:0:0:0:
160,96,72925,1,0,0:0:0:0:
352,96,72982,1,8,0:0:0:0:
160,96,73040,1,0,0:0:0:0:
352,96,73155,1,8,0:0:0:0:
352,96,73212,1,8,0:0:0:0:
160,96,73270,1,0,0:0:0:0:
352,96,73327,1,8,0:0:0:0:
160,96,73385,1,0,0:0:0:0:
160,96,73500,1,0,0:0:0:0:
352,96,73615,1,8,0:0:0:0:
352,96,73672,1,8,0:0:0:0:
160,96,73729,1,0,0:0:0:0:
160,96,73844,1,0,0:0:0:0:
352,96,73902,1,8,0:0:0:0:
160,96,73959,1,0,0:0:0:0:
160,96,74074,1,0,0:0:0:0:
352,96,74132,1,8,0:0:0:0:
160,96,74189,1,0,0:0:0:0:
352,96,74247,1,8,0:0:0:0:
160,96,74304,1,0,0:0:0:0:
160,96,74419,1,0,0:0:0:0:
352,96,74534,1,8,0:0:0:0:
160,96,74592,1,0,0:0:0:0:
352,96,74649,1,8,0:0:0:0:
160,96,74706,1,0,0:0:0:0:
352,96,74764,1,8,0:0:0:0:
352,96,74821,1,8,0:0:0:0:
160,96,74879,1,0,0:0:0:0:
352,96,74994,1,8,0:0:0:0:
160,96,75051,1,0,0:0:0:0:
352,96,75109,1,8,0:0:0:0:
160,96,75166,1,0,0:0:0:0:
352,96,75224,1,8,0:0:0:0:
160,96,75281,1,0,0:0:0:0:
160,96,75339,1,0,0:0:0:0:
352,96,75454,1,8,0:0:0:0:
160,96,75511,1,0,0:0:0:0:
352,96,75569,1,8,0:0:0:0:
160,96,75626,1,0,0:0:0:0:
352,96,75683,1,8,0:0:0:0:
352,96,75741,1,8,0:0:0:0:
160,96,75798,1,0,0:0:0:0:
352,96,75913,1,8,0:0:0:0:
160,96,76028,1,0,0:0:0:0:
160,288,76143,1,4,0:0:0:0:
352,288,76373,1,12,0:0:0:0:
160,96,76603,1,0,0:0:0:0:
352,96,76660,1,8,0:0:0:0:
160,96,76718,1,0,0:0:0:0:
352,96,76833,1,8,0:0:0:0:
352,96,76890,1,8,0:0:0:0:
160,96,76948,1,0,0:0:0:0:
352,96,77005,1,8,0:0:0:0:
160,96,77063,1,0,0:0:0:0:
160,96,77178,1,0,0:0:0:0:
352,96,77293,1,8,0:0:0:0:
352,96,77350,1,8,0:0:0:0:
160,96,77408,1,0,0:0:0:0:
160,96,77523,1,0,0:0:0:0:
352,96,77580,1,8,0:0:0:0:
160,96,77638,1,0,0:0:0:0:
160,96,77752,1,0,0:0:0:0:
352,96,77810,1,8,0:0:0:0:
160,96,77867,1,0,0:0:0:0:
352,96,77925,1,8,0:0:0:0:
160,96,77982,1,0,0:0:0:0:
160,96,78097,1,0,0:0:0:0:
352,96,78212,1,8,0:0:0:0:
352,96,78270,1,8,0:0:0:0:
160,96,78327,1,0,0:0:0:0:
160,96,78442,1,0,0:0:0:0:
352,96,78500,1,8,0:0:0:0:
160,96,78557,1,0,0:0:0:0:
352,96,78672,1,8,0:0:0:0:
352,96,78729,1,8,0:0:0:0:
160,96,78787,1,0,0:0:0:0:
160,96,78844,1,0,0:0:0:0:
352,96,78902,1,8,0:0:0:0:
160,96,79017,1,0,0:0:0:0:
352,96,79132,1,8,0:0:0:0:
352,96,79189,1,8,0:0:0:0:
352,96,79247,1,8,0:0:0:0:
352,96,79304,1,8,0:0:0:0:
160,96,79362,1,0,0:0:0:0:
352,96,79438,1,8,0:0:0:0:
352,96,79515,1,8,0:0:0:0:
160,96,79592,1,0,0:0:0:0:
352,96,79668,1,8,0:0:0:0:
352,96,79745,1,8,0:0:0:0:
160,288,79821,1,4,0:0:0:0:
352,288,80051,1,12,0:0:0:0:
160,96,80281,1,0,0:0:0:0:
352,96,80339,1,8,0:0:0:0:
160,96,80396,1,0,0:0:0:0:
352,96,80511,1,8,0:0:0:0:
352,96,80569,1,8,0:0:0:0:
160,96,80626,1,0,0:0:0:0:
352,96,80683,1,8,0:0:0:0:
160,96,80741,1,0,0:0:0:0:
160,96,80856,1,0,0:0:0:0:
352,96,80971,1,8,0:0:0:0:
352,96,81028,1,8,0:0:0:0:
160,96,81086,1,0,0:0:0:0:
160,96,81201,1,0,0:0:0:0:
352,96,81258,1,8,0:0:0:0:
160,96,81316,1,0,0:0:0:0:
160,96,81431,1,0,0:0:0:0:
352,96,81488,1,8,0:0:0:0:
160,96,81546,1,0,0:0:0:0:
352,96,81603,1,8,0:0:0:0:
160,96,81660,1,0,0:0:0:0:
352,96,81890,1,8,0:0:0:0:
160,96,81948,1,0,0:0:0:0:
352,96,82005,1,8,0:0:0:0:
160,96,82063,1,0,0:0:0:0:
352,96,82120,1,8,0:0:0:0:
352,96,82178,1,8,0:0:0:0:
160,96,82235,1,0,0:0:0:0:
160,96,82293,1,0,0:0:0:0:
352,96,82350,1,8,0:0:0:0:
160,96,82408,1,0,0:0:0:0:
352,96,82465,1,8,0:0:0:0:
160,96,82523,1,0,0:0:0:0:
352,96,82580,1,8,0:0:0:0:
352,96,82638,1,8,0:0:0:0:
160,96,82695,1,0,0:0:0:0:
160,96,82752,1,0,0:0:0:0:
352,96,82810,1,8,0:0:0:0:
160,96,82867,1,0,0:0:0:0:
160,96,82925,1,0,0:0:0:0:
160,96,82982,1,0,0:0:0:0:
352,96,83040,1,8,0:0:0:0:
352,96,83097,1,8,0:0:0:0:
160,96,83155,1,0,0:0:0:0:
160,96,83212,1,0,0:0:0:0:
352,96,83270,1,8,0:0:0:0:
160,96,83346,1,0,0:0:0:0:
160,96,83423,1,0,0:0:0:0:
352,96,83500,1,8,0:0:0:0:
160,96,83615,1,0,0:0:0:0:
160,288,83729,1,4,0:0:0:0:
352,96,85569,1,8,0:0:0:0:
160,96,85626,1,0,0:0:0:0:
352,96,85683,1,8,0:0:0:0:
160,96,85741,1,0,0:0:0:0:
352,96,85798,1,8,0:0:0:0:
160,96,85856,1,0,0:0:0:0:
352,96,85913,1,8,0:0:0:0:
160,96,85971,1,0,0:0:0:0:
352,96,86028,1,8,0:0:0:0:
352,96,86086,1,8,0:0:0:0:
160,96,86143,1,0,0:0:0:0:
160,96,86201,1,0,0:0:0:0:
352,96,86258,1,8,0:0:0:0:
160,96,86316,1,0,0:0:0:0:
160,96,86373,1,0,0:0:0:0:
352,96,86488,1,8,0:0:0:0:
160,96,86546,1,0,0:0:0:0:
352,96,86603,1,8,0:0:0:0:
160,96,86660,1,0,0:0:0:0:
352,96,86718,1,8,0:0:0:0:
160,96,86775,1,0,0:0:0:0:
352,96,86833,1,8,0:0:0:0:
160,96,86890,1,0,0:0:0:0:
352,96,86948,1,8,0:0:0:0:
160,96,87005,1,0,0:0:0:0:
160,96,87063,1,0,0:0:0:0:
160,96,87120,1,0,0:0:0:0:
352,96,87178,1,8,0:0:0:0:
160,96,87235,1,0,0:0:0:0:
160,96,87293,1,0,0:0:0:0:
352,96,87408,1,8,0:0:0:0:
160,96,87465,1,0,0:0:0:0:
352,96,87523,1,8,0:0:0:0:
160,96,87580,1,0,0:0:0:0:
352,96,87638,1,8,0:0:0:0:
160,96,87695,1,0,0:0:0:0:
352,96,87752,1,8,0:0:0:0:
160,96,87810,1,0,0:0:0:0:
352,96,87867,1,8,0:0:0:0:
352,96,87925,1,8,0:0:0:0:
160,96,87982,1,0,0:0:0:0:
160,96,88040,1,0,0:0:0:0:
352,96,88097,1,8,0:0:0:0:
160,96,88212,1,0,0:0:0:0:
160,96,88270,1,0,0:0:0:0:
352,96,88327,1,8,0:0:0:0:
160,96,88442,1,0,0:0:0:0:
352,96,88557,1,8,0:0:0:0:
352,96,88615,1,8,0:0:0:0:
352,96,88672,1,8,0:0:0:0:
352,96,88729,1,8,0:0:0:0:
160,96,88787,1,0,0:0:0:0:
352,96,88864,1,8,0:0:0:0:
352,96,88940,1,8,0:0:0:0:
160,288,89017,1,4,0:0:0:0:
352,288,89247,1,12,0:0:0:0:
160,96,89477,1,0,0:0:0:0:
160,96,89534,1,0,0:0:0:0:
160,96,89592,1,0,0:0:0:0:
160,96,89649,1,0,0:0:0:0:
352,96,89706,1,8,0:0:0:0:
352,96,89764,1,8,0:0:0:0:
160,96,89821,1,0,0:0:0:0:
352,96,89879,1,8,0:0:0:0:
160,96,89936,1,0,0:0:0:0:
352,96,89994,1,8,0:0:0:0:
160,96,90051,1,0,0:0:0:0:
160,96,90109,1,0,0:0:0:0:
352,96,90166,1,8,0:0:0:0:
352,96,90224,1,8,0:0:0:0:
160,96,90281,1,0,0:0:0:0:
352,96,90339,1,8,0:0:0:0:
160,96,90396,1,0,0:0:0:0:
352,96,90454,1,8,0:0:0:0:
160,96,90511,1,0,0:0:0:0:
160,96,90569,1,0,0:0:0:0:
352,96,90626,1,8,0:0:0:0:
352,96,90683,1,8,0:0:0:0:
160,96,90741,1,0,0:0:0:0:
160,96,90798,1,0,0:0:0:0:
352,96,90856,1,8,0:0:0:0:
160,96,90913,1,0,0:0:0:0:
352,96,90971,1,8,0:0:0:0:
160,96,91028,1,0,0:0:0:0:
352,96,91086,1,8,0:0:0:0:
352,96,91143,1,8,0:0:0:0:
160,96,91201,1,0,0:0:0:0:
160,96,91258,1,0,0:0:0:0:
352,96,91316,1,8,0:0:0:0:
160,96,91373,1,0,0:0:0:0:
160,96,91431,1,0,0:0:0:0:
160,96,91488,1,0,0:0:0:0:
352,96,91546,1,8,0:0:0:0:
352,96,91603,1,8,0:0:0:0:
160,96,91660,1,0,0:0:0:0:
352,96,91718,1,8,0:0:0:0:
160,96,91775,1,0,0:0:0:0:
160,96,91833,1,0,0:0:0:0:
352,96,91890,1,8,0:0:0:0:
160,96,91948,1,0,0:0:0:0:
352,96,92005,1,8,0:0:0:0:
352,96,92063,1,8,0:0:0:0:
352,96,92120,1,8,0:0:0:0:
352,96,92178,1,8,0:0:0:0:
160,96,92235,1,0,0:0:0:0:
352,96,92293,1,8,0:0:0:0:
160,96,92350,1,0,0:0:0:0:
160,96,92408,1,0,0:0:0:0:
352,96,92465,1,8,0:0:0:0:
160,96,92542,1,0,0:0:0:0:
160,96,92618,1,0,0:0:0:0:
352,288,92695,1,12,0:0:0:0:
352,96,92925,1,8,0:0:0:0:
160,96,92982,1,0,0:0:0:0:
352,96,93040,1,8,0:0:0:0:
160,96,93097,1,0,0:0:0:0:
352,96,93155,1,8,0:0:0:0:
160,96,93212,1,0,0:0:0:0:
352,96,93270,1,8,0:0:0:0:
160,96,93327,1,0,0:0:0:0:
352,96,93385,1,8,0:0:0:0:
352,96,93442,1,8,0:0:0:0:
160,96,93500,1,0,0:0:0:0:
160,96,93557,1,0,0:0:0:0:
352,96,93615,1,8,0:0:0:0:
160,96,93672,1,0,0:0:0:0:
160,96,93729,1,0,0:0:0:0:
352,96,93844,1,8,0:0:0:0:
160,96,93902,1,0,0:0:0:0:
352,96,93959,1,8,0:0:0:0:
160,96,94017,1,0,0:0:0:0:
352,96,94074,1,8,0:0:0:0:
160,96,94132,1,0,0:0:0:0:
352,96,94189,1,8,0:0:0:0:
160,96,94247,1,0,0:0:0:0:
352,96,94304,1,8,0:0:0:0:
160,96,94362,1,0,0:0:0:0:
160,96,94419,1,0,0:0:0:0:
160,96,94477,1,0,0:0:0:0:
352,96,94534,1,8,0:0:0:0:
160,96,94592,1,0,0:0:0:0:
160,96,94649,1,0,0:0:0:0:
352,96,94764,1,8,0:0:0:0:
160,96,94821,1,0,0:0:0:0:
352,96,94879,1,8,0:0:0:0:
160,96,94936,1,0,0:0:0:0:
352,96,94994,1,8,0:0:0:0:
160,96,95051,1,0,0:0:0:0:
352,96,95109,1,8,0:0:0:0:
160,96,95166,1,0,0:0:0:0:
352,96,95224,1,8,0:0:0:0:
352,96,95281,1,8,0:0:0:0:
160,96,95339,1,0,0:0:0:0:
160,96,95396,1,0,0:0:0:0:
352,96,95454,1,8,0:0:0:0:
160,96,95569,1,0,0:0:0:0:
160,96,95626,1,0,0:0:0:0:
352,96,95683,1,8,0:0:0:0:
160,96,95798,1,0,0:0:0:0:
352,96,95913,1,8,0:0:0:0:
352,96,95971,1,8,0:0:0:0:
352,96,96028,1,8,0:0:0:0:
352,96,96086,1,8,0:0:0:0:
160,96,96143,1,0,0:0:0:0:
352,96,96220,1,8,0:0:0:0:
352,96,96297,1,8,0:0:0:0:
160,288,96373,1,4,0:0:0:0:
352,288,96603,1,12,0:0:0:0:
160,96,96833,1,0,0:0:0:0:
160,96,96890,1,0,0:0:0:0:
160,96,96948,1,0,0:0:0:0:
160,96,97005,1,0,0:0:0:0:
352,96,97063,1,8,0:0:0:0:
352,96,97120,1,8,0:0:0:0:
160,96,97178,1,0,0:0:0:0:
352,96,97235,1,8,0:0:0:0:
160,96,97293,1,0,0:0:0:0:
352,96,97350,1,8,0:0:0:0:
160,96,97408,1,0,0:0:0:0:
160,96,97465,1,0,0:0:0:0:
352,96,97523,1,8,0:0:0:0:
352,96,97580,1,8,0:0:0:0:
160,96,97638,1,0,0:0:0:0:
352,96,97695,1,8,0:0:0:0:
160,96,97752,1,0,0:0:0:0:
352,96,97810,1,8,0:0:0:0:
160,96,97867,1,0,0:0:0:0:
160,96,97925,1,0,0:0:0:0:
352,96,97982,1,8,0:0:0:0:
352,96,98040,1,8,0:0:0:0:
160,96,98097,1,0,0:0:0:0:
160,96,98155,1,0,0:0:0:0:
352,96,98212,1,8,0:0:0:0:
160,96,98270,1,0,0:0:0:0:
352,96,98327,1,8,0:0:0:0:
160,96,98385,1,0,0:0:0:0:
352,96,98442,1,8,0:0:0:0:
352,96,98500,1,8,0:0:0:0:
160,96,98557,1,0,0:0:0:0:
160,96,98615,1,0,0:0:0:0:
352,96,98672,1,8,0:0:0:0:
160,96,98729,1,0,0:0:0:0:
160,96,98787,1,0,0:0:0:0:
160,96,98844,1,0,0:0:0:0:
352,96,98902,1,8,0:0:0:0:
352,96,98959,1,8,0:0:0:0:
160,96,99017,1,0,0:0:0:0:
352,96,99074,1,8,0:0:0:0:
160,96,99132,1,0,0:0:0:0:
160,96,99189,1,0,0:0:0:0:
352,96,99247,1,8,0:0:0:0:
160,96,99304,1,0,0:0:0:0:
352,96,99362,1,8,0:0:0:0:
352,96,99419,1,8,0:0:0:0:
160,96,99477,1,0,0:0:0:0:
160,96,99534,1,0,0:0:0:0:
352,96,99592,1,8,0:0:0:0:
352,96,99649,1,8,0:0:0:0:
160,96,99706,1,0,0:0:0:0:
160,96,99764,1,0,0:0:0:0:
352,96,99821,1,8,0:0:0:0:
160,96,99898,1,0,0:0:0:0:
160,96,99975,1,0,0:0:0:0:
352,288,100051,1,12,0:0:0:0:
352,96,100281,1,8,0:0:0:0:
352,96,100339,1,8,0:0:0:0:
352,96,100396,1,8,0:0:0:0:
160,96,100454,1,0,0:0:0:0:
352,96,100511,1,8,0:0:0:0:
160,96,100569,1,0,0:0:0:0:
352,96,100626,1,8,0:0:0:0:
160,96,100683,1,0,0:0:0:0:
352,96,100741,1,8,0:0:0:0:
352,96,100798,1,8,0:0:0:0:
352,96,100856,1,8,0:0:0:0:
160,96,100913,1,0,0:0:0:0:
352,96,100971,1,8,0:0:0:0:
160,96,101028,1,0,0:0:0:0:
352,96,101086,1,8,0:0:0:0:
160,96,101143,1,0,0:0:0:0:
352,96,101201,1,8,0:0:0:0:
352,96,101258,1,8,0:0:0:0:
352,96,101316,1,8,0:0:0:0:
160,96,101373,1,0,0:0:0:0:
352,96,101431,1,8,0:0:0:0:
160,96,101488,1,0,0:0:0:0:
352,96,101546,1,8,0:0:0:0:
160,96,101603,1,0,0:0:0:0:
352,96,101660,1,8,0:0:0:0:
352,96,101718,1,8,0:0:0:0:
160,96,101775,1,0,0:0:0:0:
160,96,101833,1,0,0:0:0:0:
352,96,101890,1,8,0:0:0:0:
160,96,101948,1,0,0:0:0:0:
160,96,102005,1,0,0:0:0:0:
160,96,102063,1,0,0:0:0:0:
352,96,102120,1,8,0:0:0:0:
352,96,102178,1,8,0:0:0:0:
352,96,102235,1,8,0:0:0:0:
160,96,102293,1,0,0:0:0:0:
352,96,102350,1,8,0:0:0:0:
160,96,102408,1,0,0:0:0:0:
352,96,102465,1,8,0:0:0:0:
160,96,102523,1,0,0:0:0:0:
352,96,102580,1,8,0:0:0:0:
160,96,102638,1,0,0:0:0:0:
160,96,102695,1,0,0:0:0:0:
160,96,102752,1,0,0:0:0:0:
352,96,102810,1,8,0:0:0:0:
160,96,102867,1,0,0:0:0:0:
160,96,102925,1,0,0:0:0:0:
352,288,103040,1,12,0:0:0:0:
160,96,103155,1,0,0:0:0:0:
352,96,103270,1,8,0:0:0:0:
352,96,103327,1,8,0:0:0:0:
352,96,103385,1,8,0:0:0:0:
352,96,103442,1,8,0:0:0:0:
160,96,103500,1,0,0:0:0:0:
352,96,103576,1,8,0:0:0:0:
352,96,103653,1,8,0:0:0:0:
160,96,103729,1,0,0:0:0:0:
160,96,103844,1,0,0:0:0:0:
352,288,103959,1,12,0:0:0:0:
160,96,104074,1,0,0:0:0:0:
160,96,104189,1,0,0:0:0:0:
160,96,104304,1,0,0:0:0:0:
352,96,104419,1,8,0:0:0:0:
160,96,104534,1,0,0:0:0:0:
160,96,104649,1,0,0:0:0:0:
160,96,104764,1,0,0:0:0:0:
160,96,104879,1,0,0:0:0:0:
160,96,104994,1,0,0:0:0:0:
160,96,105109,1,0,0:0:0:0:
160,96,105224,1,0,0:0:0:0:
352,96,105339,1,8,0:0:0:0:
352,96,105454,1,8,0:0:0:0:
160,96,105569,1,0,0:0:0:0:
160,96,105683,1,0,0:0:0:0:
352,96,105798,1,8,0:0:0:0:
160,96,105913,1,0,0:0:0:0:
160,96,106028,1,0,0:0:0:0:
160,96,106143,1,0,0:0:0:0:
160,96,106258,1,0,0:0:0:0:
160,96,106373,1,0,0:0:0:0:
160,96,106488,1,0,0:0:0:0:
160,96,106603,1,0,0:0:0:0:
352,96,106718,1,8,0:0:0:0:
352,96,106833,1,8,0:0:0:0:
352,96,106948,1,8,0:0:0:0:
160,96,107063,1,0,0:0:0:0:
352,96,107178,1,8,0:0:0:0:
352,96,107293,1,8,0:0:0:0:
160,96,107408,1,0,0:0:0:0:
160,96,107523,1,0,0:0:0:0:
352,288,107638,1,12,0:0:0:0:
160,96,107752,1,0,0:0:0:0:
160,96,107867,1,0,0:0:0:0:
160,96,107982,1,0,0:0:0:0:
352,96,108097,1,8,0:0:0:0:
160,96,108212,1,0,0:0:0:0:
160,96,108327,1,0,0:0:0:0:
160,96,108442,1,0,0:0:0:0:
160,96,108557,1,0,0:0:0:0:
160,96,108672,1,0,0:0:0:0:
160,96,108787,1,0,0:0:0:0:
160,96,108902,1,0,0:0:0:0:
352,96,109017,1,8,0:0:0:0:
352,96,109132,1,8,0:0:0:0:
160,96,109247,1,0,0:0:0:0:
160,96,109362,1,0,0:0:0:0:
352,96,109477,1,8,0:0:0:0:
160,96,109592,1,0,0:0:0:0:
160,96,109706,1,0,0:0:0:0:
160,96,109821,1,0,0:0:0:0:
160,96,109936,1,0,0:0:0:0:
160,96,110051,1,0,0:0:0:0:
160,96,110166,1,0,0:0:0:0:
160,96,110281,1,0,0:0:0:0:
352,96,110396,1,8,0:0:0:0:
352,96,110511,1,8,0:0:0:0:
352,96,110626,1,8,0:0:0:0:
160,96,110741,1,0,0:0:0:0:
352,96,110856,1,8,0:0:0:0:
352,96,110971,1,8,0:0:0:0:
160,96,111086,1,0,0:0:0:0:
160,96,111201,1,0,0:0:0:0:
352,96,111316,1,8,0:0:0:0:
160,96,111373,1,0,0:0:0:0:
160,96,111431,1,0,0:0:0:0:
160,96,111488,1,0,0:0:0:0:
160,96,111546,1,0,0:0:0:0:
160,96,111603,1,0,0:0:0:0:
160,96,111660,1,0,0:0:0:0:
160,96,111718,1,0,0:0:0:0:
160,96,111775,1,0,0:0:0:0:
160,96,111833,1,0,0:0:0:0:
160,96,111890,1,0,0:0:0:0:
160,96,111948,1,0,0:0:0:0:
160,96,112005,1,0,0:0:0:0:
160,96,112063,1,0,0:0:0:0:
160,96,112120,1,0,0:0:0:0:
160,96,112178,1,0,0:0:0:0:
160,96,112235,1,0,0:0:0:0:
160,96,112293,1,0,0:0:0:0:
160,96,112350,1,0,0:0:0:0:
160,96,112408,1,0,0:0:0:0:
160,96,112465,1,0,0:0:0:0:
160,96,112523,1,0,0:0:0:0:
160,96,112580,1,0,0:0:0:0:
160,96,112638,1,0,0:0:0:0:
352,96,112695,1,8,0:0:0:0:
352,96,112810,1,8,0:0:0:0:
160,96,112925,1,0,0:0:0:0:
160,96,113040,1,0,0:0:0:0:
160,96,113155,1,0,0:0:0:0:
160,96,113270,1,0,0:0:0:0:
160,96,113385,1,0,0:0:0:0:
160,96,113500,1,0,0:0:0:0:
160,96,113615,1,0,0:0:0:0:
160,96,113729,1,0,0:0:0:0:
160,96,113844,1,0,0:0:0:0:
160,96,113959,1,0,0:0:0:0:
352,96,114074,1,8,0:0:0:0:
352,96,114189,1,8,0:0:0:0:
352,96,114304,1,8,0:0:0:0:
160,96,114419,1,0,0:0:0:0:
352,96,114534,1,8,0:0:0:0:
352,96,114649,1,8,0:0:0:0:
160,96,114764,1,0,0:0:0:0:
160,96,114879,1,0,0:0:0:0:
352,96,114994,1,8,0:0:0:0:
160,96,115051,1,0,0:0:0:0:
160,96,115109,1,0,0:0:0:0:
160,96,115166,1,0,0:0:0:0:
160,96,115224,1,0,0:0:0:0:
160,96,115281,1,0,0:0:0:0:
160,96,115339,1,0,0:0:0:0:
160,96,115396,1,0,0:0:0:0:
160,96,115454,1,0,0:0:0:0:
160,96,115511,1,0,0:0:0:0:
160,96,115569,1,0,0:0:0:0:
160,96,115626,1,0,0:0:0:0:
160,96,115683,1,0,0:0:0:0:
160,96,115741,1,0,0:0:0:0:
160,96,115798,1,0,0:0:0:0:
160,96,115856,1,0,0:0:0:0:
160,96,115913,1,0,0:0:0:0:
160,96,115971,1,0,0:0:0:0:
160,96,116028,1,0,0:0:0:0:
160,96,116086,1,0,0:0:0:0:
160,96,116143,1,0,0:0:0:0:
160,96,116201,1,0,0:0:0:0:
160,96,116258,1,0,0:0:0:0:
160,96,116316,1,0,0:0:0:0:
352,96,116373,1,8,0:0:0:0:
352,96,116488,1,8,0:0:0:0:
160,96,116603,1,0,0:0:0:0:
160,96,116718,1,0,0:0:0:0:
352,96,116833,1,8,0:0:0:0:
160,96,116948,1,0,0:0:0:0:
160,96,117063,1,0,0:0:0:0:
160,96,117178,1,0,0:0:0:0:
160,96,117293,1,0,0:0:0:0:
160,96,117408,1,0,0:0:0:0:
160,96,117523,1,0,0:0:0:0:
160,96,117638,1,0,0:0:0:0:
352,96,117752,1,8,0:0:0:0:
352,96,117867,1,8,0:0:0:0:
352,96,117982,1,8,0:0:0:0:
160,96,118097,1,0,0:0:0:0:
352,96,118212,1,8,0:0:0:0:
352,96,118270,1,8,0:0:0:0:
352,96,118327,1,8,0:0:0:0:
352,96,118385,1,8,0:0:0:0:
160,96,118442,1,0,0:0:0:0:
352,96,118557,1,8,0:0:0:0:
160,96,118672,1,0,0:0:0:0:
352,96,118787,1,8,0:0:0:0:
352,96,118902,1,8,0:0:0:0:
160,96,119017,1,0,0:0:0:0:
352,96,119132,1,8,0:0:0:0:
352,96,119247,1,8,0:0:0:0:
160,96,119362,1,0,0:0:0:0:
352,96,119477,1,8,0:0:0:0:
160,96,119592,1,0,0:0:0:0:
160,96,119706,1,0,0:0:0:0:
352,96,119821,1,8,0:0:0:0:
352,96,119936,1,8,0:0:0:0:
160,96,120051,1,0,0:0:0:0:
352,96,120166,1,8,0:0:0:0:
352,96,120281,1,8,0:0:0:0:
160,96,120396,1,0,0:0:0:0:
352,96,120511,1,8,0:0:0:0:
352,96,120588,1,8,0:0:0:0:
160,96,120664,1,0,0:0:0:0:
352,96,120741,1,8,0:0:0:0:
160,96,120818,1,0,0:0:0:0:
160,96,120894,1,0,0:0:0:0:
352,96,120971,1,8,0:0:0:0:
352,96,121047,1,8,0:0:0:0:
160,96,121124,1,0,0:0:0:0:
352,96,121201,1,8,0:0:0:0:
160,96,121277,1,0,0:0:0:0:
160,96,121354,1,0,0:0:0:0:
256,192,121431,2,0,L|256:128,14,35
352,96,122350,1,8,0:0:0:0:
352,96,122427,1,8,0:0:0:0:
160,96,122503,1,0,0:0:0:0:
352,96,122580,1,8,0:0:0:0:
352,96,122657,1,8,0:0:0:0:
160,96,122733,1,0,0:0:0:0:
352,96,122810,1,8,0:0:0:0:
352,96,122887,1,8,0:0:0:0:
160,96,122963,1,0,0:0:0:0:
352,96,123040,1,8,0:0:0:0:
160,96,123116,1,0,0:0:0:0:
352,96,123193,1,8,0:0:0:0:
160,96,123270,1,0,0:0:0:0:
352,96,123346,1,8,0:0:0:0:
352,96,123423,1,8,0:0:0:0:
160,96,123500,1,0,0:0:0:0:
352,96,123576,1,8,0:0:0:0:
352,96,123653,1,8,0:0:0:0:
160,96,123729,1,0,0:0:0:0:
352,96,123806,1,8,0:0:0:0:
352,96,123883,1,8,0:0:0:0:
160,96,123959,1,0,0:0:0:0:
352,96,124036,1,8,0:0:0:0:
352,96,124113,1,8,0:0:0:0:
160,96,124189,1,0,0:0:0:0:
352,96,124266,1,8,0:0:0:0:
160,96,124342,1,0,0:0:0:0:
160,96,124419,1,0,0:0:0:0:
352,96,124496,1,8,0:0:0:0:
160,96,124572,1,0,0:0:0:0:
160,96,124649,1,0,0:0:0:0:
352,96,124726,1,8,0:0:0:0:
352,96,124802,1,8,0:0:0:0:
160,96,124879,1,0,0:0:0:0:
352,96,124994,1,8,0:0:0:0:
256,192,125109,8,0,125913,0:0:0:0:
160,96,126028,5,0,0:0:0:0:
352,96,126143,1,8,0:0:0:0:
352,96,126201,1,8,0:0:0:0:
160,96,126258,1,0,0:0:0:0:
352,96,126373,1,8,0:0:0:0:
160,96,126488,1,0,0:0:0:0:
160,96,126565,1,0,0:0:0:0:
160,96,126641,1,0,0:0:0:0:
352,96,126718,1,8,0:0:0:0:
352,96,126795,1,8,0:0:0:0:
352,96,126871,1,8,0:0:0:0:
160,96,126948,1,0,0:0:0:0:
160,96,127024,1,0,0:0:0:0:
160,96,127101,1,0,0:0:0:0:
352,96,127178,1,8,0:0:0:0:
352,96,127254,1,8,0:0:0:0:
352,96,127331,1,8,0:0:0:0:
160,96,127408,1,0,0:0:0:0:
160,96,127484,1,0,0:0:0:0:
160,96,127561,1,0,0:0:0:0:
352,96,127638,1,8,0:0:0:0:
352,96,127695,1,8,0:0:0:0:
160,96,127752,1,0,0:0:0:0:
160,96,127810,1,0,0:0:0:0:
352,96,127867,1,8,0:0:0:0:
352,96,127944,1,8,0:0:0:0:
160,96,128021,1,0,0:0:0:0:
352,96,128097,1,8,0:0:0:0:
160,96,128174,1,0,0:0:0:0:
160,96,128251,1,0,0:0:0:0:
352,96,128327,1,8,0:0:0:0:
352,96,128404,1,8,0:0:0:0:
160,96,128480,1,0,0:0:0:0:
352,96,128557,1,8,0:0:0:0:
160,96,128634,1,0,0:0:0:0:
160,96,128710,1,0,0:0:0:0:
352,96,128787,1,8,0:0:0:0:
352,96,128844,1,8,0:0:0:0:
160,96,128902,1,0,0:0:0:0:
352,96,129017,1,8,0:0:0:0:
160,96,129074,1,0,0:0:0:0:
352,96,129132,1,8,0:0:0:0:
160,96,129247,1,0,0:0:0:0:
352,96,129323,1,8,0:0:0:0:
352,96,129400,1,8,0:0:0:0:
160,96,129477,1,0,0:0:0:0:
352,96,129553,1,8,0:0:0:0:
352,96,129630,1,8,0:0:0:0:
256,192,129706,2,0,L|256:128,14,35
256,192,130626,8,0,131431,0:0:0:0:
160,288,131546,5,4,0:0:0:0:
352,288,131775,1,12,0:0:0:0:
352,288,131890,1,12,0:0:0:0:
160,96,132005,1,0,0:0:0:0:
352,96,132120,1,8,0:0:0:0:
160,288,132235,1,4,0:0:0:0:
352,288,132465,1,12,0:0:0:0:
352,288,132580,1,12,0:0:0:0:
160,96,132695,1,0,0:0:0:0:
160,96,132810,1,0,0:0:0:0:
352,96,132925,1,8,0:0:0:0:
352,96,133001,1,8,0:0:0:0:
352,96,133078,1,8,0:0:0:0:
160,96,133155,1,0,0:0:0:0:
160,96,133231,1,0,0:0:0:0:
160,96,133308,1,0,0:0:0:0:
352,96,133385,1,8,0:0:0:0:
352,96,133461,1,8,0:0:0:0:
160,96,133538,1,0,0:0:0:0:
352,96,133615,1,8,0:0:0:0:
160,96,133691,1,0,0:0:0:0:
160,96,133768,1,0,0:0:0:0:
352,96,133844,1,8,0:0:0:0:
352,96,133921,1,8,0:0:0:0:
160,96,133998,1,0,0:0:0:0:
352,96,134074,1,8,0:0:0:0:
160,96,134151,1,0,0:0:0:0:
352,96,134228,1,8,0:0:0:0:
352,96,134304,1,8,0:0:0:0:
352,96,134381,1,8,0:0:0:0:
160,96,134457,1,0,0:0:0:0:
352,96,134534,1,8,0:0:0:0:
160,96,134611,1,0,0:0:0:0:
160,96,134687,1,0,0:0:0:0:
352,96,134764,1,8,0:0:0:0:
352,96,134841,1,8,0:0:0:0:
160,96,134917,1,0,0:0:0:0:
352,96,134994,1,8,0:0:0:0:
160,96,135070,1,0,0:0:0:0:
160,96,135147,1,0,0:0:0:0:
352,96,135224,1,8,0:0:0:0:
352,96,135300,1,8,0:0:0:0:
160,96,135377,1,0,0:0:0:0:
352,96,135454,1,8,0:0:0:0:
160,96,135530,1,0,0:0:0:0:
160,96,135607,1,0,0:0:0:0:
352,96,135683,1,8,0:0:0:0:
352,96,135760,1,8,0:0:0:0:
160,96,135837,1,0,0:0:0:0:
352,96,135913,1,8,0:0:0:0:
160,96,135990,1,0,0:0:0:0:
160,96,136067,1,0,0:0:0:0:
352,96,136143,1,8,0:0:0:0:
352,96,136201,1,8,0:0:0:0:
352,96,136258,1,8,0:0:0:0:
352,96,136316,1,8,0:0:0:0:
160,96,136373,1,0,0:0:0:0:
160,96,136431,1,0,0:0:0:0:
352,96,136488,1,8,0:0:0:0:
352,96,136546,1,8,0:0:0:0:
160,96,136603,1,0,0:0:0:0:
352,96,136680,1,8,0:0:0:0:
352,96,136756,1,8,0:0:0:0:
160,288,136833,1,4,0:0:0:0:
352,288,137063,1,12,0:0:0:0:
160,96,137293,1,0,0:0:0:0:
352,96,137350,1,8,0:0:0:0:
160,96,137408,1,0,0:0:0:0:
352,96,137523,1,8,0:0:0:0:
352,96,137580,1,8,0:0:0:0:
160,96,137638,1,0,0:0:0:0:
352,96,137695,1,8,0:0:0:0:
160,96,137752,1,0,0:0:0:0:
160,96,137867,1,0,0:0:0:0:
352,96,137982,1,8,0:0:0:0:
352,96,138040,1,8,0:0:0:0:
160,96,138097,1,0,0:0:0:0:
160,96,138212,1,0,0:0:0:0:
352,96,138270,1,8,0:0:0:0:
160,96,138327,1,0,0:0:0:0:
160,96,138442,1,0,0:0:0:0:
352,96,138500,1,8,0:0:0:0:
160,96,138557,1,0,0:0:0:0:
352,96,138615,1,8,0:0:0:0:
160,96,138672,1,0,0:0:0:0:
160,96,138787,1,0,0:0:0:0:
352,96,138902,1,8,0:0:0:0:
352,96,138959,1,8,0:0:0:0:
160,96,139017,1,0,0:0:0:0:
160,96,139132,1,0,0:0:0:0:
352,96,139189,1,8,0:0:0:0:
160,96,139247,1,0,0:0:0:0:
352,96,139362,1,8,0:0:0:0:
352,96,139419,1,8,0:0:0:0:
160,96,139477,1,0,0:0:0:0:
352,96,139534,1,8,0:0:0:0:
160,96,139592,1,0,0:0:0:0:
352,96,139706,1,8,0:0:0:0:
160,96,139821,1,0,0:0:0:0:
160,96,139879,1,0,0:0:0:0:
160,96,139936,1,0,0:0:0:0:
352,288,140051,1,12,0:0:0:0:
160,96,140166,1,0,0:0:0:0:
352,288,140281,1,12,0:0:0:0:
352,96,140396,1,8,0:0:0:0:
160,96,140511,1,0,0:0:0:0:
160,96,140626,1,0,0:0:0:0:
352,288,140741,1,12,0:0:0:0:
160,96,140971,1,0,0:0:0:0:
352,96,141028,1,8,0:0:0:0:
160,96,141086,1,0,0:0:0:0:
352,96,141201,1,8,0:0:0:0:
352,96,141258,1,8,0:0:0:0:
160,96,141316,1,0,0:0:0:0:
352,96,141373,1,8,0:0:0:0:
160,96,141431,1,0,0:0:0:0:
160,96,141546,1,0,0:0:0:0:
352,96,141660,1,8,0:0:0:0:
352,96,141718,1,8,0:0:0:0:
160,96,141775,1,0,0:0:0:0:
160,96,141890,1,0,0:0:0:0:
352,96,141948,1,8,0:0:0:0:
160,96,142005,1,0,0:0:0:0:
160,96,142120,1,0,0:0:0:0:
352,96,142178,1,8,0:0:0:0:
160,96,142235,1,0,0:0:0:0:
352,96,142293,1,8,0:0:0:0:
160,96,142350,1,0,0:0:0:0:
352,96,142465,1,8,0:0:0:0:
160,96,142580,1,0,0:0:0:0:
160,96,142638,1,0,0:0:0:0:
160,96,142695,1,0,0:0:0:0:
160,96,142752,1,0,0:0:0:0:
352,96,142810,1,8,0:0:0:0:
352,96,142867,1,8,0:0:0:0:
160,96,142925,1,0,0:0:0:0:
352,96,143040,1,8,0:0:0:0:
160,96,143097,1,0,0:0:0:0:
352,96,143155,1,8,0:0:0:0:
160,96,143212,1,0,0:0:0:0:
352,96,143270,1,8,0:0:0:0:
160,96,143327,1,0,0:0:0:0:
160,96,143385,1,0,0:0:0:0:
352,96,143500,1,8,0:0:0:0:
352,96,143557,1,8,0:0:0:0:
160,96,143615,1,0,0:0:0:0:
160,96,143672,1,0,0:0:0:0:
352,96,143729,1,8,0:0:0:0:
160,96,143787,1,0,0:0:0:0:
160,96,143844,1,0,0:0:0:0:
352,288,143959,1,12,0:0:0:0:
160,288,144189,1,4,0:0:0:0:
352,288,144419,1,12,0:0:0:0:
160,96,144649,1,0,0:0:0:0:
352,96,144706,1,8,0:0:0:0:
160,96,144764,1,0,0:0:0:0:
352,96,144879,1,8,0:0:0:0:
352,96,144936,1,8,0:0:0:0:
160,96,144994,1,0,0:0:0:0:
352,96,145051,1,8,0:0:0:0:
160,96,145109,1,0,0:0:0:0:
160,96,145224,1,0,0:0:0:0:
352,96,145339,1,8,0:0:0:0:
352,96,145396,1,8,0:0:0:0:
160,96,145454,1,0,0:0:0:0:
160,96,145569,1,0,0:0:0:0:
352,96,145626,1,8,0:0:0:0:
160,96,145683,1,0,0:0:0:0:
160,96,145798,1,0,0:0:0:0:
352,96,145856,1,8,0:0:0:0:
160,96,145913,1,0,0:0:0:0:
352,96,145971,1,8,0:0:0:0:
160,96,146028,1,0,0:0:0:0:
160,96,146143,1,0,0:0:0:0:
352,96,146258,1,8,0:0:0:0:
352,96,146316,1,8,0:0:0:0:
160,96,146373,1,0,0:0:0:0:
160,96,146488,1,0,0:0:0:0:
352,96,146546,1,8,0:0:0:0:
160,96,146603,1,0,0:0:0:0:
352,96,146718,1,8,0:0:0:0:
352,96,146775,1,8,0:0:0:0:
160,96,146833,1,0,0:0:0:0:
160,96,146890,1,0,0:0:0:0:
352,96,146948,1,8,0:0:0:0:
160,96,147063,1,0,0:0:0:0:
160,96,147178,1,0,0:0:0:0:
160,96,147235,1,0,0:0:0:0:
160,96,147293,1,0,0:0:0:0:
160,96,147350,1,0,0:0:0:0:
352,96,147408,1,8,0:0:0:0:
352,96,147465,1,8,0:0:0:0:
160,96,147523,1,0,0:0:0:0:
160,96,147580,1,0,0:0:0:0:
352,96,147638,1,8,0:0:0:0:
160,96,147714,1,0,0:0:0:0:
160,96,147791,1,0,0:0:0:0:
352,288,147867,1,12,0:0:0:0:
352,288,148097,1,12,0:0:0:0:
160,96,148327,1,0,0:0:0:0:
160,96,148385,1,0,0:0:0:0:
352,96,148442,1,8,0:0:0:0:
160,96,148500,1,0,0:0:0:0:
352,96,148557,1,8,0:0:0:0:
352,96,148615,1,8,0:0:0:0:
160,96,148672,1,0,0:0:0:0:
352,96,148729,1,8,0:0:0:0:
160,96,148787,1,0,0:0:0:0:
160,96,148844,1,0,0:0:0:0:
352,96,148902,1,8,0:0:0:0:
160,96,148959,1,0,0:0:0:0:
352,96,149017,1,8,0:0:0:0:
352,96,149074,1,8,0:0:0:0:
160,96,149132,1,0,0:0:0:0:
160,96,149189,1,0,0:0:0:0:
352,96,149247,1,8,0:0:0:0:
160,96,149304,1,0,0:0:0:0:
352,96,149362,1,8,0:0:0:0:
352,96,149419,1,8,0:0:0:0:
160,96,149477,1,0,0:0:0:0:
352,96,149553,1,8,0:0:0:0:
352,96,149630,1,8,0:0:0:0:
160,288,149706,1,4,0:0:0:0:
352,288,149936,1,12,0:0:0:0:
352,96,150166,1,8,0:0:0:0:
160,96,150224,1,0,0:0:0:0:
160,96,150281,1,0,0:0:0:0:
160,96,150339,1,0,0:0:0:0:
352,96,150396,1,8,0:0:0:0:
352,96,150454,1,8,0:0:0:0:
352,96,150511,1,8,0:0:0:0:
160,96,150569,1,0,0:0:0:0:
352,96,150626,1,8,0:0:0:0:
160,96,150683,1,0,0:0:0:0:
160,96,150741,1,0,0:0:0:0:
160,96,150798,1,0,0:0:0:0:
352,96,150856,1,8,0:0:0:0:
352,96,150913,1,8,0:0:0:0:
160,96,150971,1,0,0:0:0:0:
160,96,151028,1,0,0:0:0:0:
352,96,151086,1,8,0:0:0:0:
352,96,151143,1,8,0:0:0:0:
160,96,151201,1,0,0:0:0:0:
160,96,151258,1,0,0:0:0:0:
352,96,151316,1,8,0:0:0:0:
160,96,151392,1,0,0:0:0:0:
160,96,151469,1,0,0:0:0:0:
352,288,151546,1,12,0:0:0:0:
352,96,151775,1,8,0:0:0:0:
160,96,151833,1,0,0:0:0:0:
352,96,151890,1,8,0:0:0:0:
160,96,151948,1,0,0:0:0:0:
352,96,152005,1,8,0:0:0:0:
160,96,152063,1,0,0:0:0:0:
352,96,152120,1,8,0:0:0:0:
160,96,152178,1,0,0:0:0:0:
352,96,152235,1,8,0:0:0:0:
352,96,152293,1,8,0:0:0:0:
160,96,152350,1,0,0:0:0:0:
160,96,152408,1,0,0:0:0:0:
352,96,152465,1,8,0:0:0:0:
160,96,152523,1,0,0:0:0:0:
160,96,152580,1,0,0:0:0:0:
352,96,152695,1,8,0:0:0:0:
160,96,152752,1,0,0:0:0:0:
352,96,152810,1,8,0:0:0:0:
160,96,152867,1,0,0:0:0:0:
352,96,152925,1,8,0:0:0:0:
160,96,152982,1,0,0:0:0:0:
352,96,153040,1,8,0:0:0:0:
160,96,153097,1,0,0:0:0:0:
352,96,153155,1,8,0:0:0:0:
160,96,153212,1,0,0:0:0:0:
160,96,153270,1,0,0:0:0:0:
160,96,153327,1,0,0:0:0:0:
352,96,153385,1,8,0:0:0:0:
160,96,153442,1,0,0:0:0:0:
160,96,153500,1,0,0:0:0:0:
352,96,153615,1,8,0:0:0:0:
160,96,153672,1,0,0:0:0:0:
352,96,153729,1,8,0:0:0:0:
160,96,153787,1,0,0:0:0:0:
352,96,153844,1,8,0:0:0:0:
160,96,153902,1,0,0:0:0:0:
352,96,153959,1,8,0:0:0:0:
160,96,154017,1,0,0:0:0:0:
352,96,154074,1,8,0:0:0:0:
352,96,154132,1,8,0:0:0:0:
160,96,154189,1,0,0:0:0:0:
160,96,154247,1,0,0:0:0:0:
352,96,154304,1,8,0:0:0:0:
160,96,154419,1,0,0:0:0:0:
160,96,154477,1,0,0:0:0:0:
352,96,154534,1,8,0:0:0:0:
160,96,154649,1,0,0:0:0:0:
352,96,154764,1,8,0:0:0:0:
352,96,154821,1,8,0:0:0:0:
352,96,154879,1,8,0:0:0:0:
352,96,154936,1,8,0:0:0:0:
160,96,154994,1,0,0:0:0:0:
352,96,155070,1,8,0:0:0:0:
352,96,155147,1,8,0:0:0:0:
160,288,155224,1,4,0:0:0:0:
352,288,155454,1,12,0:0:0:0:
160,96,155683,1,0,0:0:0:0:
160,96,155741,1,0,0:0:0:0:
160,96,155798,1,0,0:0:0:0:
160,96,155856,1,0,0:0:0:0:
352,96,155913,1,8,0:0:0:0:
352,96,155971,1,8,0:0:0:0:
160,96,156028,1,0,0:0:0:0:
352,96,156086,1,8,0:0:0:0:
160,96,156143,1,0,0:0:0:0:
352,96,156201,1,8,0:0:0:0:
160,96,156258,1,0,0:0:0:0:
160,96,156316,1,0,0:0:0:0:
352,96,156373,1,8,0:0:0:0:
352,96,156431,1,8,0:0:0:0:
160,96,156488,1,0,0:0:0:0:
352,96,156546,1,8,0:0:0:0:
160,96,156603,1,0,0:0:0:0:
352,96,156660,1,8,0:0:0:0:
160,96,156718,1,0,0:0:0:0:
160,96,156775,1,0,0:0:0:0:
352,96,156833,1,8,0:0:0:0:
352,96,156890,1,8,0:0:0:0:
160,96,156948,1,0,0:0:0:0:
160,96,157005,1,0,0:0:0:0:
352,96,157063,1,8,0:0:0:0:
160,96,157120,1,0,0:0:0:0:
352,96,157178,1,8,0:0:0:0:
160,96,157235,1,0,0:0:0:0:
352,96,157293,1,8,0:0:0:0:
352,96,157350,1,8,0:0:0:0:
160,96,157408,1,0,0:0:0:0:
160,96,157465,1,0,0:0:0:0:
352,96,157523,1,8,0:0:0:0:
160,96,157580,1,0,0:0:0:0:
160,96,157638,1,0,0:0:0:0:
160,96,157695,1,0,0:0:0:0:
352,96,157752,1,8,0:0:0:0:
352,96,157810,1,8,0:0:0:0:
160,96,157867,1,0,0:0:0:0:
352,96,157925,1,8,0:0:0:0:
160,96,157982,1,0,0:0:0:0:
160,96,158040,1,0,0:0:0:0:
352,96,158097,1,8,0:0:0:0:
160,96,158155,1,0,0:0:0:0:
352,96,158212,1,8,0:0:0:0:
352,96,158270,1,8,0:0:0:0:
352,96,158327,1,8,0:0:0:0:
352,96,158385,1,8,0:0:0:0:
160,96,158442,1,0,0:0:0:0:
352,96,158500,1,8,0:0:0:0:
160,96,158557,1,0,0:0:0:0:
160,96,158615,1,0,0:0:0:0:
352,96,158672,1,8,0:0:0:0:
160,96,158749,1,0,0:0:0:0:
160,96,158825,1,0,0:0:0:0:
352,288,158902,1,12,0:0:0:0:
352,96,159132,1,8,0:0:0:0:
160,96,159189,1,0,0:0:0:0:
352,96,159247,1,8,0:0:0:0:
160,96,159304,1,0,0:0:0:0:
352,96,159362,1,8,0:0:0:0:
160,96,159419,1,0,0:0:0:0:
352,96,159477,1,8,0:0:0:0:
160,96,159534,1,0,0:0:0:0:
352,96,159592,1,8,0:0:0:0:
352,96,159649,1,8,0:0:0:0:
160,96,159706,1,0,0:0:0:0:
160,96,159764,1,0,0:0:0:0:
352,96,159821,1,8,0:0:0:0:
160,96,159879,1,0,0:0:0:0:
160,96,159936,1,0,0:0:0:0:
352,96,160051,1,8,0:0:0:0:
160,96,160109,1,0,0:0:0:0:
352,96,160166,1,8,0:0:0:0:
160,96,160224,1,0,0:0:0:0:
352,96,160281,1,8,0:0:0:0:
160,96,160339,1,0,0:0:0:0:
352,96,160396,1,8,0:0:0:0:
160,96,160454,1,0,0:0:0:0:
352,96,160511,1,8,0:0:0:0:
160,96,160569,1,0,0:0:0:0:
160,96,160626,1,0,0:0:0:0:
160,96,160683,1,0,0:0:0:0:
352,96,160741,1,8,0:0:0:0:
160,96,160798,1,0,0:0:0:0:
160,96,160856,1,0,0:0:0:0:
160,288,160971,1,4,0:0:0:0:
352,96,161201,1,8,0:0:0:0:
352,96,161258,1,8,0:0:0:0:
160,96,161316,1,0,0:0:0:0:
160,96,161373,1,0,0:0:0:0:
352,96,161431,1,8,0:0:0:0:
160,96,161488,1,0,0:0:0:0:
352,96,161546,1,8,0:0:0:0:
160,96,161603,1,0,0:0:0:0:
352,96,161660,1,8,0:0:0:0:
352,96,161718,1,8,0:0:0:0:
160,96,161775,1,0,0:0:0:0:
160,96,161833,1,0,0:0:0:0:
352,96,161890,1,8,0:0:0:0:
352,96,161948,1,8,0:0:0:0:
352,96,162005,1,8,0:0:0:0:
352,96,162063,1,8,0:0:0:0:
160,96,162120,1,0,0:0:0:0:
160,96,162178,1,0,0:0:0:0:
352,96,162235,1,8,0:0:0:0:
352,96,162293,1,8,0:0:0:0:
160,96,162350,1,0,0:0:0:0:
352,96,162427,1,8,0:0:0:0:
352,96,162503,1,8,0:0:0:0:
160,288,162580,1,4,0:0:0:0:
352,288,162810,1,12,0:0:0:0:
160,96,163040,1,0,0:0:0:0:
160,96,163097,1,0,0:0:0:0:
160,96,163155,1,0,0:0:0:0:
160,96,163212,1,0,0:0:0:0:
352,96,163270,1,8,0:0:0:0:
352,96,163327,1,8,0:0:0:0:
160,96,163385,1,0,0:0:0:0:
352,96,163442,1,8,0:0:0:0:
160,96,163500,1,0,0:0:0:0:
352,96,163557,1,8,0:0:0:0:
160,96,163615,1,0,0:0:0:0:
160,96,163672,1,0,0:0:0:0:
352,96,163729,1,8,0:0:0:0:
352,96,163787,1,8,0:0:0:0:
160,96,163844,1,0,0:0:0:0:
352,96,163902,1,8,0:0:0:0:
160,96,163959,1,0,0:0:0:0:
352,96,164017,1,8,0:0:0:0:
160,96,164074,1,0,0:0:0:0:
160,96,164132,1,0,0:0:0:0:
352,96,164189,1,8,0:0:0:0:
352,96,164247,1,8,0:0:0:0:
160,96,164304,1,0,0:0:0:0:
160,96,164362,1,0,0:0:0:0:
352,96,164419,1,8,0:0:0:0:
160,96,164477,1,0,0:0:0:0:
352,96,164534,1,8,0:0:0:0:
160,96,164592,1,0,0:0:0:0:
352,96,164649,1,8,0:0:0:0:
352,96,164706,1,8,0:0:0:0:
160,96,164764,1,0,0:0:0:0:
160,96,164821,1,0,0:0:0:0:
352,96,164879,1,8,0:0:0:0:
160,96,164936,1,0,0:0:0:0:
160,96,164994,1,0,0:0:0:0:
160,96,165051,1,0,0:0:0:0:
352,96,165109,1,8,0:0:0:0:
352,96,165166,1,8,0:0:0:0:
160,96,165224,1,0,0:0:0:0:
352,96,165281,1,8,0:0:0:0:
160,96,165339,1,0,0:0:0:0:
160,96,165396,1,0,0:0:0:0:
352,96,165454,1,8,0:0:0:0:
160,96,165511,1,0,0:0:0:0:
352,96,165569,1,8,0:0:0:0:
352,96,165626,1,8,0:0:0:0:
160,96,165683,1,0,0:0:0:0:
160,96,165741,1,0,0:0:0:0:
352,96,165798,1,8,0:0:0:0:
352,96,165856,1,8,0:0:0:0:
160,96,165913,1,0,0:0:0:0:
160,96,165971,1,0,0:0:0:0:
352,96,166028,1,8,0:0:0:0:
160,96,166105,1,0,0:0:0:0:
160,96,166182,1,0,0:0:0:0:
352,288,166258,1,12,0:0:0:0:
352,96,166488,1,8,0:0:0:0:
352,96,166546,1,8,0:0:0:0:
352,96,166603,1,8,0:0:0:0:
160,96,166660,1,0,0:0:0:0:
352,96,166718,1,8,0:0:0:0:
160,96,166775,1,0,0:0:0:0:
352,96,166833,1,8,0:0:0:0:
160,96,166890,1,0,0:0:0:0:
352,96,166948,1,8,0:0:0:0:
352,96,167005,1,8,0:0:0:0:
352,96,167063,1,8,0:0:0:0:
160,96,167120,1,0,0:0:0:0:
352,96,167178,1,8,0:0:0:0:
160,96,167235,1,0,0:0:0:0:
352,96,167293,1,8,0:0:0:0:
160,96,167350,1,0,0:0:0:0:
352,96,167408,1,8,0:0:0:0:
352,96,167465,1,8,0:0:0:0:
352,96,167523,1,8,0:0:0:0:
160,96,167580,1,0,0:0:0:0:
352,96,167638,1,8,0:0:0:0:
160,96,167695,1,0,0:0:0:0:
352,96,167752,1,8,0:0:0:0:
160,96,167810,1,0,0:0:0:0:
352,96,167867,1,8,0:0:0:0:
352,96,167925,1,8,0:0:0:0:
160,96,167982,1,0,0:0:0:0:
160,96,168040,1,0,0:0:0:0:
352,96,168097,1,8,0:0:0:0:
160,96,168155,1,0,0:0:0:0:
160,96,168212,1,0,0:0:0:0:
160,96,168270,1,0,0:0:0:0:
352,96,168327,1,8,0:0:0:0:
352,96,168385,1,8,0:0:0:0:
352,96,168442,1,8,0:0:0:0:
160,96,168500,1,0,0:0:0:0:
352,96,168557,1,8,0:0:0:0:
160,96,168615,1,0,0:0:0:0:
352,96,168672,1,8,0:0:0:0:
160,96,168729,1,0,0:0:0:0:
352,96,168787,1,8,0:0:0:0:
160,96,168844,1,0,0:0:0:0:
160,96,168902,1,0,0:0:0:0:
160,96,168959,1,0,0:0:0:0:
352,96,169017,1,8,0:0:0:0:
160,96,169074,1,0,0:0:0:0:
160,96,169132,1,0,0:0:0:0:
352,288,169247,1,12,0:0:0:0:
160,96,169362,1,0,0:0:0:0:
352,96,169477,1,8,0:0:0:0:
352,96,169534,1,8,0:0:0:0:
352,96,169592,1,8,0:0:0:0:
352,96,169649,1,8,0:0:0:0:
160,96,169706,1,0,0:0:0:0:
352,96,169783,1,8,0:0:0:0:
352,96,169860,1,8,0:0:0:0:
160,96,169936,1,0,0:0:0:0:
160,96,170051,1,0,0:0:0:0:
352,288,170166,1,12,0:0:0:0:
160,96,170281,1,0,0:0:0:0:
160,96,170396,1,0,0:0:0:0:
160,96,170511,1,0,0:0:0:0:
352,96,170626,1,8,0:0:0:0:
160,96,170741,1,0,0:0:0:0:
160,96,170856,1,0,0:0:0:0:
160,96,170971,1,0,0:0:0:0:
160,96,171086,1,0,0:0:0:0:
160,96,171201,1,0,0:0:0:0:
160,96,171316,1,0,0:0:0:0:
160,96,171431,1,0,0:0:0:0:
352,96,171546,1,8,0:0:0:0:
352,96,171660,1,8,0:0:0:0:
160,96,171775,1,0,0:0:0:0:
160,96,171890,1,0,0:0:0:0:
352,96,172005,1,8,0:0:0:0:
160,96,172120,1,0,0:0:0:0:
160,96,172235,1,0,0:0:0:0:
160,96,172350,1,0,0:0:0:0:
160,96,172465,1,0,0:0:0:0:
160,96,172580,1,0,0:0:0:0:
160,96,172695,1,0,0:0:0:0:
160,96,172810,1,0,0:0:0:0:
352,96,172925,1,8,0:0:0:0:
352,96,173040,1,8,0:0:0:0:
352,96,173155,1,8,0:0:0:0:
160,96,173270,1,0,0:0:0:0:
352,96,173385,1,8,0:0:0:0:
352,96,173500,1,8,0:0:0:0:
160,96,173615,1,0,0:0:0:0:
160,96,173729,1,0,0:0:0:0:
352,288,173844,1,12,0:0:0:0:
160,96,173959,1,0,0:0:0:0:
160,96,174074,1,0,0:0:0:0:
160,96,174189,1,0,0:0:0:0:
352,96,174304,1,8,0:0:0:0:
160,96,174419,1,0,0:0:0:0:
160,96,174534,1,0,0:0:0:0:
160,96,174649,1,0,0:0:0:0:
160,96,174764,1,0,0:0:0:0:
160,96,174879,1,0,0:0:0:0:
160,96,174994,1,0,0:0:0:0:
160,96,175109,1,0,0:0:0:0:
352,96,175224,1,8,0:0:0:0:
352,96,175339,1,8,0:0:0:0:
160,96,175454,1,0,0:0:0:0:
160,96,175569,1,0,0:0:0:0:
352,96,175683,1,8,0:0:0:0:
160,96,175798,1,0,0:0:0:0:
160,96,175913,1,0,0:0:0:0:
160,96,176028,1,0,0:0:0:0:
160,96,176143,1,0,0:0:0:0:
160,96,176258,1,0,0:0:0:0:
160,96,176373,1,0,0:0:0:0:
160,96,176488,1,0,0:0:0:0:
352,96,176603,1,8,0:0:0:0:
352,96,176718,1,8,0:0:0:0:
352,96,176833,1,8,0:0:0:0:
160,96,176948,1,0,0:0:0:0:
352,96,177063,1,8,0:0:0:0:
352,96,177178,1,8,0:0:0:0:
160,96,177293,1,0,0:0:0:0:
160,96,177408,1,0,0:0:0:0:
352,96,177523,1,8,0:0:0:0:
160,96,177580,1,0,0:0:0:0:
160,96,177638,1,0,0:0:0:0:
160,96,177695,1,0,0:0:0:0:
160,96,177752,1,0,0:0:0:0:
160,96,177810,1,0,0:0:0:0:
160,96,177867,1,0,0:0:0:0:
160,96,177925,1,0,0:0:0:0:
160,96,177982,1,0,0:0:0:0:
160,96,178040,1,0,0:0:0:0:
160,96,178097,1,0,0:0:0:0:
160,96,178155,1,0,0:0:0:0:
160,96,178212,1,0,0:0:0:0:
160,96,178270,1,0,0:0:0:0:
160,96,178327,1,0,0:0:0:0:
160,96,178385,1,0,0:0:0:0:
160,96,178442,1,0,0:0:0:0:
160,96,178500,1,0,0:0:0:0:
160,96,178557,1,0,0:0:0:0:
160,96,178615,1,0,0:0:0:0:
160,96,178672,1,0,0:0:0:0:
160,96,178729,1,0,0:0:0:0:
160,96,178787,1,0,0:0:0:0:
160,96,178844,1,0,0:0:0:0:
352,96,178902,1,8,0:0:0:0:
352,96,179017,1,8,0:0:0:0:
160,96,179132,1,0,0:0:0:0:
160,96,179247,1,0,0:0:0:0:
160,96,179362,1,0,0:0:0:0:
160,96,179477,1,0,0:0:0:0:
160,96,179592,1,0,0:0:0:0:
160,96,179706,1,0,0:0:0:0:
160,96,179821,1,0,0:0:0:0:
160,96,179936,1,0,0:0:0:0:
160,96,180051,1,0,0:0:0:0:
160,96,180166,1,0,0:0:0:0:
352,96,180281,1,8,0:0:0:0:
352,96,180396,1,8,0:0:0:0:
352,96,180511,1,8,0:0:0:0:
160,96,180626,1,0,0:0:0:0:
352,96,180741,1,8,0:0:0:0:
352,96,180856,1,8,0:0:0:0:
160,96,180971,1,0,0:0:0:0:
160,96,181086,1,0,0:0:0:0:
352,96,181201,1,8,0:0:0:0:
160,96,181258,1,0,0:0:0:0:
160,96,181316,1,0,0:0:0:0:
160,96,181373,1,0,0:0:0:0:
160,96,181431,1,0,0:0:0:0:
160,96,181488,1,0,0:0:0:0:
160,96,181546,1,0,0:0:0:0:
160,96,181603,1,0,0:0:0:0:
160,96,181660,1,0,0:0:0:0:
160,96,181718,1,0,0:0:0:0:
160,96,181775,1,0,0:0:0:0:
160,96,181833,1,0,0:0:0:0:
160,96,181890,1,0,0:0:0:0:
160,96,181948,1,0,0:0:0:0:
160,96,182005,1,0,0:0:0:0:
160,96,182063,1,0,0:0:0:0:
160,96,182120,1,0,0:0:0:0:
160,96,182178,1,0,0:0:0:0:
160,96,182235,1,0,0:0:0:0:
160,96,182293,1,0,0:0:0:0:
160,96,182350,1,0,0:0:0:0:
160,96,182408,1,0,0:0:0:0:
160,96,182465,1,0,0:0:0:0:
160,96,182523,1,0,0:0:0:0:
352,96,182580,1,8,0:0:0:0:
352,96,182695,1,8,0:0:0:0:
160,96,182810,1,0,0:0:0:0:
160,96,182925,1,0,0:0:0:0:
352,96,183040,1,8,0:0:0:0:
160,96,183155,1,0,0:0:0:0:
160,96,183270,1,0,0:0:0:0:
160,96,183385,1,0,0:0:0:0:
160,96,183500,1,0,0:0:0:0:
160,96,183615,1,0,0:0:0:0:
160,96,183729,1,0,0:0:0:0:
160,96,183844,1,0,0:0:0:0:
352,96,183959,1,8,0:0:0:0:
352,96,184074,1,8,0:0:0:0:
352,96,184189,1,8,0:0:0:0:
160,96,184304,1,0,0:0:0:0:
352,96,184419,1,8,0:0:0:0:
352,96,184534,1,8,0:0:0:0:
160,96,184649,1,0,0:0:0:0:
160,96,184764,1,0,0:0:0:0:
352,96,184879,1,8,0:0:0:0:
160,96,184944,1,0,0:0:0:0:
160,96,185010,1,0,0:0:0:0:
160,96,185076,1,0,0:0:0:0:
160,96,185142,1,0,0:0:0:0:
160,96,185207,1,0,0:0:0:0:
160,96,185273,1,0,0:0:0:0:
160,96,185339,1,0,0:0:0:0:
352,96,185405,1,8,0:0:0:0:
160,96,185471,1,0,0:0:0:0:
160,96,185536,1,0,0:0:0:0:
160,96,185602,1,0,0:0:0:0:
160,96,185668,1,0,0:0:0:0:
160,96,185734,1,0,0:0:0:0:
160,96,185800,1,0,0:0:0:0:
160,96,185865,1,0,0:0:0:0:
352,96,185931,1,8,0:0:0:0:
352,96,185997,1,8,0:0:0:0:
160,96,186063,1,0,0:0:0:0:
160,96,186129,1,0,0:0:0:0:
160,96,186194,1,0,0:0:0:0:
160,96,186260,1,0,0:0:0:0:
160,96,186326,1,0,0:0:0:0:
160,96,186392,1,0,0:0:0:0:
352,96,186457,1,8,0:0:0:0:
160,96,186523,1,0,0:0:0:0:
160,96,186589,1,0,0:0:0:0:
160,96,186655,1,0,0:0:0:0:
160,96,186721,1,0,0:0:0:0:
160,96,186786,1,0,0:0:0:0:
160,96,186852,1,0,0:0:0:0:
160,96,186918,1,0,0:0:0:0:
352,96,186984,1,8,0:0:0:0:
160,96,187050,1,0,0:0:0:0:
160,96,187115,1,0,0:0:0:0:
160,96,187181,1,0,0:0:0:0:
160,96,187247,1,0,0:0:0:0:
160,96,187313,1,0,0:0:0:0:
160,96,187379,1,0,0:0:0:0:
160,96,187444,1,0,0:0:0:0:
352,96,187510,1,8,0:0:0:0:
160,96,187576,1,0,0:0:0:0:
160,96,187642,1,0,0:0:0:0:
160,96,187707,1,0,0:0:0:0:
160,96,187773,1,0,0:0:0:0:
160,96,187839,1,0,0:0:0:0:
160,96,187905,1,0,0:0:0:0:
160,96,187971,1,0,0:0:0:0:
352,96,188036,1,8,0:0:0:0:
352,96,188102,1,8,0:0:0:0:
160,96,188168,1,0,0:0:0:0:
160,96,188234,1,0,0:0:0:0:
352,96,188300,1,8,0:0:0:0:
160,96,188365,1,0,0:0:0:0:
160,96,188431,1,0,0:0:0:0:
160,96,188497,1,0,0:0:0:0:
352,96,188563,1,8,0:0:0:0:
160,96,188629,1,0,0:0:0:0:
352,96,188694,1,8,0:0:0:0:
160,96,188760,1,0,0:0:0:0:
352,96,188826,1,8,0:0:0:0:
160,96,188892,1,0,0:0:0:0:
160,96,188957,1,0,0:0:0:0:
160,96,189023,1,0,0:0:0:0:
352,96,189089,1,8,0:0:0:0:
160,96,189155,1,0,0:0:0:0:
160,96,189221,1,0,0:0:0:0:
160,96,189286,1,0,0:0:0:0:
160,96,189352,1,0,0:0:0:0:
160,96,189418,1,0,0:0:0:0:
160,96,189484,1,0,0:0:0:0:
160,96,189550,1,0,0:0:0:0:
352,96,189615,1,8,0:0:0:0:
160,96,189681,1,0,0:0:0:0:
160,96,189747,1,0,0:0:0:0:
160,96,189813,1,0,0:0:0:0:
160,96,189879,1,0,0:0:0:0:
160,96,189944,1,0,0:0:0:0:
160,96,190010,1,0,0:0:0:0:
160,96,190076,1,0,0:0:0:0:
352,96,190142,1,8,0:0:0:0:
352,96,190207,1,8,0:0:0:0:
160,96,190273,1,0,0:0:0:0:
160,96,190339,1,0,0:0:0:0:
160,96,190405,1,0,0:0:0:0:
160,96,190471,1,0,0:0:0:0:
160,96,190536,1,0,0:0:0:0:
160,96,190602,1,0,0:0:0:0:
352,96,190668,1,8,0:0:0:0:
160,96,190734,1,0,0:0:0:0:
160,96,190800,1,0,0:0:0:0:
160,96,190865,1,0,0:0:0:0:
160,96,190931,1,0,0:0:0:0:
160,96,190997,1,0,0:0:0:0:
160,96,191063,1,0,0:0:0:0:
160,96,191129,1,0,0:0:0:0:
352,288,191194,1,12,0:0:0:0:
352,96,191457,1,8,0:0:0:0:
352,96,191490,1,8,0:0:0:0:
160,96,191721,1,0,0:0:0:0:
352,96,191808,1,8,0:0:0:0:
352,96,191896,1,8,0:0:0:0:
160,96,191984,1,0,0:0:0:0:
352,96,192247,1,8,0:0:0:0:
352,96,192335,1,8,0:0:0:0:
160,96,192422,1,0,0:0:0:0:
160,96,192510,1,0,0:0:0:0:
352,96,192773,1,8,0:0:0:0:
160,96,192861,1,0,0:0:0:0:
160,96,192949,1,0,0:0:0:0:
160,96,193036,1,0,0:0:0:0:
160,96,193124,1,0,0:0:0:0:
160,96,193212,1,0,0:0:0:0:
352,288,193300,1,12,0:0:0:0:
160,96,193431,1,0,0:0:0:0:
352,96,193563,1,8,0:0:0:0:
160,96,193694,1,0,0:0:0:0:
352,96,193826,1,8,0:0:0:0:
352,96,193957,1,8,0:0:0:0:
160,96,194089,1,0,0:0:0:0:
160,96,194221,1,0,0:0:0:0:
352,96,194352,1,8,0:0:0:0:
160,96,194484,1,0,0:0:0:0:
352,96,194615,1,8,0:0:0:0:
160,96,194747,1,0,0:0:0:0:
352,96,194879,1,8,0:0:0:0:
352,96,195010,1,8,0:0:0:0:
160,96,195142,1,0,0:0:0:0:
160,96,195273,1,0,0:0:0:0:
352,96,195405,1,8,0:0:0:0:
352,96,195536,1,8,0:0:0:0:
160,96,195668,1,0,0:0:0:0:
160,96,195734,1,0,0:0:0:0:
160,96,195800,1,0,0:0:0:0:
160,96,195865,1,0,0:0:0:0:
352,96,195931,1,8,0:0:0:0:
352,96,196063,1,8,0:0:0:0:
160,96,196194,1,0,0:0:0:0:
160,96,196326,1,0,0:0:0:0:
352,96,196457,1,8,0:0:0:0:
352,96,196589,1,8,0:0:0:0:
352,96,196721,1,8,0:0:0:0:
160,96,196852,1,0,0:0:0:0:
352,96,196984,1,8,0:0:0:0:
160,96,197115,1,0,0:0:0:0:
352,96,197247,1,8,0:0:0:0:
160,96,197379,1,0,0:0:0:0:
352,96,197510,1,8,0:0:0:0:
160,96,197642,1,0,0:0:0:0:
352,96,197773,1,8,0:0:0:0:
160,96,197905,1,0,0:0:0:0:
352,96,198036,1,8,0:0:0:0:
352,96,198168,1,8,0:0:0:0:
160,96,198300,1,0,0:0:0:0:
160,96,198431,1,0,0:0:0:0:
352,96,198563,1,8,0:0:0:0:
160,96,198694,1,0,0:0:0:0:
352,96,198826,1,8,0:0:0:0:
160,96,198957,1,0,0:0:0:0:
352,96,199089,1,8,0:0:0:0:
352,96,199221,1,8,0:0:0:0:
160,96,199352,1,0,0:0:0:0:
160,96,199484,1,0,0:0:0:0:
352,96,199615,1,8,0:0:0:0:
352,96,199747,1,8,0:0:0:0:
160,96,199879,1,0,0:0:0:0:
160,96,200010,1,0,0:0:0:0:
352,96,200142,1,8,0:0:0:0:
352,96,200207,1,8,0:0:0:0:
160,96,200273,1,0,0:0:0:0:
160,96,200339,1,0,0:0:0:0:
352,96,200405,1,8,0:0:0:0:
160,96,200471,1,0,0:0:0:0:
160,96,200536,1,0,0:0:0:0:
160,96,200602,1,0,0:0:0:0:
352,96,200668,1,8,0:0:0:0:
352,96,200800,1,8,0:0:0:0:
160,96,200931,1,0,0:0:0:0:
160,96,201063,1,0,0:0:0:0:
352,96,201194,1,8,0:0:0:0:
352,96,201227,1,8,0:0:0:0:
160,96,201326,1,0,0:0:0:0:
352,96,201457,1,8,0:0:0:0:
160,96,201589,1,0,0:0:0:0:
352,288,201721,1,12,0:0:0:0:
160,96,201852,1,0,0:0:0:0:
352,96,201984,1,8,0:0:0:0:
160,96,202115,1,0,0:0:0:0:
352,96,202247,1,8,0:0:0:0:
352,96,202379,1,8,0:0:0:0:
160,96,202510,1,0,0:0:0:0:
160,96,202642,1,0,0:0:0:0:
352,96,202773,1,8,0:0:0:0:
160,96,202905,1,0,0:0:0:0:
352,96,203036,1,8,0:0:0:0:
160,96,203168,1,0,0:0:0:0:
352,96,203300,1,8,0:0:0:0:
352,96,203431,1,8,0:0:0:0:
160,96,203563,1,0,0:0:0:0:
160,96,203694,1,0,0:0:0:0:
352,96,203826,1,8,0:0:0:0:
352,96,203957,1,8,0:0:0:0:
160,96,204089,1,0,0:0:0:0:
160,96,204155,1,0,0:0:0:0:
160,96,204221,1,0,0:0:0:0:
160,96,204286,1,0,0:0:0:0:
352,96,204352,1,8,0:0:0:0:
352,96,204484,1,8,0:0:0:0:
160,96,204615,1,0,0:0:0:0:
160,96,204747,1,0,0:0:0:0:
352,96,204879,1,8,0:0:0:0:
352,96,205010,1,8,0:0:0:0:
352,96,205142,1,8,0:0:0:0:
160,96,205273,1,0,0:0:0:0:
352,96,205405,1,8,0:0:0:0:
160,96,205536,1,0,0:0:0:0:
352,96,205668,1,8,0:0:0:0:
160,96,205800,1,0,0:0:0:0:
352,96,205931,1,8,0:0:0:0:
160,96,206063,1,0,0:0:0:0:
352,96,206194,1,8,0:0:0:0:
160,96,206326,1,0,0:0:0:0:
352,96,206457,1,8,0:0:0:0:
352,96,206589,1,8,0:0:0:0:
160,96,206721,1,0,0:0:0:0:
160,96,206852,1,0,0:0:0:0:
352,96,206984,1,8,0:0:0:0:
160,96,207115,1,0,0:0:0:0:
352,96,207247,1,8,0:0:0:0:
160,96,207379,1,0,0:0:0:0:
352,96,207510,1,8,0:0:0:0:
352,96,207642,1,8,0:0:0:0:
352,96,207773,1,8,0:0:0:0:
160,96,207905,1,0,0:0:0:0:
352,288,208036,1,12,0:0:0:0:
160,288,208300,1,4,0:0:0:0:
160,288,208563,1,4,0:0:0:0:
352,288,208826,1,12,0:0:0:0:
352,96,209089,1,8,0:0:0:0:
352,96,209155,1,8,0:0:0:0:
352,96,209221,1,8,0:0:0:0:
160,96,209286,1,0,0:0:0:0:
352,96,209352,1,8,0:0:0:0:
160,96,209418,1,0,0:0:0:0:
160,96,209484,1,0,0:0:0:0:
160,96,209550,1,0,0:0:0:0:
352,96,209615,1,8,0:0:0:0:
352,96,209703,1,8,0:0:0:0:
160,96,209791,1,0,0:0:0:0:
352,96,209879,1,8,0:0:0:0:
160,96,209966,1,0,0:0:0:0:
160,96,210054,1,0,0:0:0:0:
352,96,210142,1,8,0:0:0:0:
160,96,210207,1,0,0:0:0:0:
160,96,210273,1,0,0:0:0:0:
160,96,210339,1,0,0:0:0:0:
352,96,210405,1,8,0:0:0:0:
352,96,210471,1,8,0:0:0:0:
160,96,210536,1,0,0:0:0:0:
160,96,210602,1,0,0:0:0:0:
352,96,210668,1,8,0:0:0:0:
352,96,210734,1,8,0:0:0:0:
160,96,210800,1,0,0:0:0:0:
352,96,210865,1,8,0:0:0:0:
160,96,210931,1,0,0:0:0:0:
160,96,210997,1,0,0:0:0:0:
352,96,211063,1,8,0:0:0:0:
352,96,211129,1,8,0:0:0:0:
160,288,211194,1,4,0:0:0:0:
160,288,211457,1,4,0:0:0:0:
352,288,211721,1,12,0:0:0:0:
352,288,212247,1,12,0:0:0:0:
160,288,212773,1,4,0:0:0:0:
160,288,213300,1,4,0:0:0:0:
352,288,213826,1,12,0:0:0:0:
352,96,214352,1,8,0:0:0:0:
352,96,214418,1,8,0:0:0:0:
352,96,214484,1,8,0:0:0:0:
352,96,214550,1,8,0:0:0:0:
160,96,214615,1,0,0:0:0:0:
160,96,214681,1,0,0:0:0:0:
352,96,214747,1,8,0:0:0:0:
160,96,214813,1,0,0:0:0:0:
352,96,214879,1,8,0:0:0:0:
352,96,214944,1,8,0:0:0:0:
160,96,215010,1,0,0:0:0:0:
352,96,215076,1,8,0:0:0:0:
160,96,215142,1,0,0:0:0:0:
160,96,215207,1,0,0:0:0:0:
352,96,215273,1,8,0:0:0:0:
352,96,215339,1,8,0:0:0:0:
160,288,215405,1,4,0:0:0:0:
160,288,215668,1,4,0:0:0:0:
352,288,215931,1,12,0:0:0:0:
352,288,216457,1,12,0:0:0:0:
160,288,216984,1,4,0:0:0:0:
352,288,217510,1,12,0:0:0:0:
352,96,218563,1,8,0:0:0:0:
352,96,218629,1,8,0:0:0:0:
352,96,218694,1,8,0:0:0:0:
352,96,218760,1,8,0:0:0:0:
160,96,218826,1,0,0:0:0:0:
160,96,218892,1,0,0:0:0:0:
352,96,218957,1,8,0:0:0:0:
160,96,219023,1,0,0:0:0:0:
352,96,219089,1,8,0:0:0:0:
352,96,219155,1,8,0:0:0:0:
160,96,219221,1,0,0:0:0:0:
352,96,219286,1,8,0:0:0:0:
160,96,219352,1,0,0:0:0:0:
160,96,219418,1,0,0:0:0:0:
352,96,219484,1,8,0:0:0:0:
352,96,219550,1,8,0:0:0:0:
160,288,219615,1,4,0:0:0:0:
160,288,219879,1,4,0:0:0:0:
352,288,220142,1,12,0:0:0:0:
160,288,220668,1,4,0:0:0:0:
160,288,221194,1,4,0:0:0:0:
160,288,221721,1,4,0:0:0:0:
352,288,222247,1,12,0:0:0:0:
352,96,222773,1,8,0:0:0:0:
352,96,222839,1,8,0:0:0:0:
352,96,222905,1,8,0:0:0:0:
352,96,222971,1,8,0:0:0:0:
160,96,223036,1,0,0:0:0:0:
160,96,223102,1,0,0:0:0:0:
352,96,223168,1,8,0:0:0:0:
160,96,223234,1,0,0:0:0:0:
352,96,223300,1,8,0:0:0:0:
352,96,223365,1,8,0:0:0:0:
160,96,223431,1,0,0:0:0:0:
352,96,223497,1,8,0:0:0:0:
160,96,223563,1,0,0:0:0:0:
160,96,223629,1,0,0:0:0:0:
352,96,223694,1,8,0:0:0:0:
352,96,223760,1,8,0:0:0:0:
160,288,223826,1,4,0:0:0:0:
160,288,224089,1,4,0:0:0:0:
352,288,224352,1,12,0:0:0:0:
160,288,224879,1,4,0:0:0:0:
352,288,225142,1,12,0:0:0:0:
352,96,225405,1,8,0:0:0:0:
352,96,225471,1,8,0:0:0:0:
352,96,225536,1,8,0:0:0:0:
352,96,225602,1,8,0:0:0:0:
160,96,225668,1,0,0:0:0:0:
352,96,225734,1,8,0:0:0:0:
352,96,225800,1,8,0:0:0:0:
160,96,225865,1,0,0:0:0:0:
352,96,225931,1,8,0:0:0:0:
352,96,225997,1,8,0:0:0:0:
352,96,226063,1,8,0:0:0:0:
352,96,226129,1,8,0:0:0:0:
160,96,226194,1,0,0:0:0:0:
352,96,226260,1,8,0:0:0:0:
352,96,226326,1,8,0:0:0:0:
160,96,226392,1,0,0:0:0:0:
352,96,226457,1,8,0:0:0:0:
352,96,226545,1,8,0:0:0:0:
352,96,226633,1,8,0:0:0:0:
160,96,226721,1,0,0:0:0:0:
160,96,226808,1,0,0:0:0:0:
160,96,226896,1,0,0:0:0:0:
352,96,226984,1,8,0:0:0:0:
352,96,227050,1,8,0:0:0:0:
160,96,227115,1,0,0:0:0:0:
160,96,227181,1,0,0:0:0:0:
352,96,227247,1,8,0:0:0:0:
160,96,227313,1,0,0:0:0:0:
160,96,227379,1,0,0:0:0:0:
160,96,227444,1,0,0:0:0:0:
352,96,227510,1,8,0:0:0:0:
352,96,227576,1,8,0:0:0:0:
160,96,227642,1,0,0:0:0:0:
160,96,227707,1,0,0:0:0:0:
160,96,227773,1,0,0:0:0:0:
160,96,227839,1,0,0:0:0:0:
160,96,227905,1,0,0:0:0:0:
160,96,227971,1,0,0:0:0:0:
352,96,228036,1,8,0:0:0:0:
352,96,228102,1,8,0:0:0:0:
160,96,228168,1,0,0:0:0:0:
160,96,228234,1,0,0:0:0:0:
352,96,228300,1,8,0:0:0:0:
160,96,228365,1,0,0:0:0:0:
160,96,228431,1,0,0:0:0:0:
160,96,228497,1,0,0:0:0:0:
352,96,228563,1,8,0:0:0:0:
352,96,228629,1,8,0:0:0:0:
160,96,228694,1,0,0:0:0:0:
160,96,228760,1,0,0:0:0:0:
160,96,228826,1,0,0:0:0:0:
160,96,228892,1,0,0:0:0:0:
160,96,228957,1,0,0:0:0:0:
160,96,229023,1,0,0:0:0:0:
352,96,229089,1,8,0:0:0:0:
352,96,229155,1,8,0:0:0:0:
352,96,229221,1,8,0:0:0:0:
160,96,229286,1,0,0:0:0:0:
352,96,229352,1,8,0:0:0:0:
160,96,229418,1,0,0:0:0:0:
160,96,229484,1,0,0:0:0:0:
160,96,229550,1,0,0:0:0:0:
352,96,229615,1,8,0:0:0:0:
352,96,229681,1,8,0:0:0:0:
352,96,229747,1,8,0:0:0:0:
160,96,229813,1,0,0:0:0:0:
352,96,229879,1,8,0:0:0:0:
160,96,229944,1,0,0:0:0:0:
160,96,230010,1,0,0:0:0:0:
160,96,230076,1,0,0:0:0:0:
352,96,230142,1,8,0:0:0:0:
160,96,230207,1,0,0:0:0:0:
352,96,230273,1,8,0:0:0:0:
160,96,230339,1,0,0:0:0:0:
352,96,230405,1,8,0:0:0:0:
160,96,230471,1,0,0:0:0:0:
160,96,230536,1,0,0:0:0:0:
160,96,230602,1,0,0:0:0:0:
352,96,230668,1,8,0:0:0:0:
352,96,230734,1,8,0:0:0:0:
352,96,230800,1,8,0:0:0:0:
352,96,230865,1,8,0:0:0:0:
160,96,230931,1,0,0:0:0:0:
160,96,230997,1,0,0:0:0:0:
160,96,231063,1,0,0:0:0:0:
160,96,231129,1,0,0:0:0:0:
352,96,231194,1,8,0:0:0:0:
352,96,231260,1,8,0:0:0:0:
160,96,231326,1,0,0:0:0:0:
160,96,231392,1,0,0:0:0:0:
352,96,231457,1,8,0:0:0:0:
160,96,231523,1,0,0:0:0:0:
160,96,231589,1,0,0:0:0:0:
160,96,231655,1,0,0:0:0:0:
352,96,231721,1,8,0:0:0:0:
352,96,231786,1,8,0:0:0:0:
160,96,231852,1,0,0:0:0:0:
160,96,231918,1,0,0:0:0:0:
160,96,231984,1,0,0:0:0:0:
160,96,232050,1,0,0:0:0:0:
160,96,232115,1,0,0:0:0:0:
160,96,232181,1,0,0:0:0:0:
352,96,232247,1,8,0:0:0:0:
352,96,232313,1,8,0:0:0:0:
160,96,232379,1,0,0:0:0:0:
160,96,232444,1,0,0:0:0:0:
352,96,232510,1,8,0:0:0:0:
160,96,232576,1,0,0:0:0:0:
160,96,232642,1,0,0:0:0:0:
160,96,232707,1,0,0:0:0:0:
352,96,232773,1,8,0:0:0:0:
352,96,232839,1,8,0:0:0:0:
160,96,232905,1,0,0:0:0:0:
160,96,232971,1,0,0:0:0:0:
160,96,233036,1,0,0:0:0:0:
160,96,233102,1,0,0:0:0:0:
160,96,233168,1,0,0:0:0:0:
160,96,233234,1,0,0:0:0:0:
352,96,233300,1,8,0:0:0:0:
352,96,233365,1,8,0:0:0:0:
352,96,233431,1,8,0:0:0:0:
160,96,233497,1,0,0:0:0:0:
352,96,233563,1,8,0:0:0:0:
160,96,233629,1,0,0:0:0:0:
160,96,233694,1,0,0:0:0:0:
160,96,233760,1,0,0:0:0:0:
352,96,233826,1,8,0:0:0:0:
352,96,233892,1,8,0:0:0:0:
352,96,233957,1,8,0:0:0:0:
160,96,234023,1,0,0:0:0:0:
352,96,234089,1,8,0:0:0:0:
160,96,234155,1,0,0:0:0:0:
160,96,234221,1,0,0:0:0:0:
160,96,234286,1,0,0:0:0:0:
352,288,234352,1,12,0:0:0:0:
352,288,234484,1,12,0:0:0:0:
352,288,234615,1,12,0:0:0:0:
160,96,234747,1,0,0:0:0:0:
352,288,234879,1,12,0:0:0:0:
160,96,235010,1,0,0:0:0:0:
352,288,235142,1,12,0:0:0:0:
160,96,235273,1,0,0:0:0:0:
352,96,235405,1,8,0:0:0:0:
352,96,235471,1,8,0:0:0:0:
160,96,235536,1,0,0:0:0:0:
160,96,235602,1,0,0:0:0:0:
352,96,235668,1,8,0:0:0:0:
160,96,235734,1,0,0:0:0:0:
160,96,235800,1,0,0:0:0:0:
160,96,235865,1,0,0:0:0:0:
352,96,235931,1,8,0:0:0:0:
352,96,235997,1,8,0:0:0:0:
160,96,236063,1,0,0:0:0:0:
160,96,236129,1,0,0:0:0:0:
160,96,236194,1,0,0:0:0:0:
160,96,236260,1,0,0:0:0:0:
160,96,236326,1,0,0:0:0:0:
160,96,236392,1,0,0:0:0:0:
352,96,236457,1,8,0:0:0:0:
352,96,236523,1,8,0:0:0:0:
160,96,236589,1,0,0:0:0:0:
160,96,236655,1,0,0:0:0:0:
352,96,236721,1,8,0:0:0:0:
160,96,236786,1,0,0:0:0:0:
160,96,236852,1,0,0:0:0:0:
160,96,236918,1,0,0:0:0:0:
352,96,236984,1,8,0:0:0:0:
352,96,237050,1,8,0:0:0:0:
160,96,237115,1,0,0:0:0:0:
160,96,237181,1,0,0:0:0:0:
160,96,237247,1,0,0:0:0:0:
160,96,237313,1,0,0:0:0:0:
160,96,237379,1,0,0:0:0:0:
160,96,237444,1,0,0:0:0:0:
352,96,237510,1,8,0:0:0:0:
352,96,237576,1,8,0:0:0:0:
352,96,237642,1,8,0:0:0:0:
160,96,237707,1,0,0:0:0:0:
352,96,237773,1,8,0:0:0:0:
160,96,237839,1,0,0:0:0:0:
160,96,237905,1,0,0:0:0:0:
160,96,237971,1,0,0:0:0:0:
352,96,238036,1,8,0:0:0:0:
352,96,238102,1,8,0:0:0:0:
352,96,238168,1,8,0:0:0:0:
160,96,238234,1,0,0:0:0:0:
352,96,238300,1,8,0:0:0:0:
160,96,238365,1,0,0:0:0:0:
160,96,238431,1,0,0:0:0:0:
160,96,238497,1,0,0:0:0:0:
352,96,238563,1,8,0:0:0:0:
160,96,238629,1,0,0:0:0:0:
352,96,238694,1,8,0:0:0:0:
160,96,238760,1,0,0:0:0:0:
352,96,238826,1,8,0:0:0:0:
160,96,238892,1,0,0:0:0:0:
160,96,238957,1,0,0:0:0:0:
160,96,239023,1,0,0:0:0:0:
352,96,239089,1,8,0:0:0:0:
352,96,239155,1,8,0:0:0:0:
352,96,239221,1,8,0:0:0:0:
352,96,239286,1,8,0:0:0:0:
160,96,239352,1,0,0:0:0:0:
160,96,239418,1,0,0:0:0:0:
160,96,239484,1,0,0:0:0:0:
160,96,239550,1,0,0:0:0:0:
352,96,239615,1,8,0:0:0:0:
352,96,239681,1,8,0:0:0:0:
160,96,239747,1,0,0:0:0:0:
160,96,239813,1,0,0:0:0:0:
352,96,239879,1,8,0:0:0:0:
160,96,239944,1,0,0:0:0:0:
160,96,240010,1,0,0:0:0:0:
160,96,240076,1,0,0:0:0:0:
352,96,240142,1,8,0:0:0:0:
352,96,240207,1,8,0:0:0:0:
160,96,240273,1,0,0:0:0:0:
160,96,240339,1,0,0:0:0:0:
160,96,240405,1,0,0:0:0:0:
160,96,240471,1,0,0:0:0:0:
160,96,240536,1,0,0:0:0:0:
160,96,240602,1,0,0:0:0:0:
352,288,240668,1,12,0:0:0:0:
160,96,240800,1,0,0:0:0:0:
352,288,240931,1,12,0:0:0:0:
160,96,241063,1,0,0:0:0:0:
352,96,241194,1,8,0:0:0:0:
352,96,241260,1,8,0:0:0:0:
352,96,241326,1,8,0:0:0:0:
352,96,241392,1,8,0:0:0:0:
160,96,241457,1,0,0:0:0:0:
160,96,241523,1,0,0:0:0:0:
160,96,241589,1,0,0:0:0:0:
160,96,241655,1,0,0:0:0:0:
352,96,241721,1,8,0:0:0:0:
352,96,241786,1,8,0:0:0:0:
352,96,241852,1,8,0:0:0:0:
352,96,241918,1,8,0:0:0:0:
160,96,241984,1,0,0:0:0:0:
160,96,242050,1,0,0:0:0:0:
160,96,242115,1,0,0:0:0:0:
160,96,242181,1,0,0:0:0:0:
352,96,242247,1,8,0:0:0:0:
352,96,242313,1,8,0:0:0:0:
352,96,242379,1,8,0:0:0:0:
352,96,242444,1,8,0:0:0:0:
160,96,242510,1,0,0:0:0:0:
160,96,242576,1,0,0:0:0:0:
160,96,242642,1,0,0:0:0:0:
160,96,242707,1,0,0:0:0:0:
352,96,242773,1,8,0:0:0:0:
352,96,242861,1,8,0:0:0:0:
160,96,242949,1,0,0:0:0:0:
160,96,243036,1,0,0:0:0:0:
352,96,243124,1,8,0:0:0:0:
352,96,243212,1,8,0:0:0:0:
160,96,243300,1,0,0:0:0:0:
160,96,243387,1,0,0:0:0:0:
352,96,243475,1,8,0:0:0:0:
160,96,243563,1,0,0:0:0:0:
160,96,243650,1,0,0:0:0:0:
160,96,243738,1,0,0:0:0:0:
352,96,243826,1,8,0:0:0:0:
160,96,243892,1,0,0:0:0:0:
160,96,243957,1,0,0:0:0:0:
160,96,244023,1,0,0:0:0:0:
352,96,244089,1,8,0:0:0:0:
160,96,244155,1,0,0:0:0:0:
160,96,244221,1,0,0:0:0:0:
160,96,244286,1,0,0:0:0:0:
352,96,244352,1,8,0:0:0:0:
352,96,244418,1,8,0:0:0:0:
160,96,244484,1,0,0:0:0:0:
352,96,244550,1,8,0:0:0:0:
160,96,244615,1,0,0:0:0:0:
160,96,244681,1,0,0:0:0:0:
352,96,244747,1,8,0:0:0:0:
352,96,244813,1,8,0:0:0:0:
160,96,244879,1,0,0:0:0:0:
352,96,244944,1,8,0:0:0:0:
160,96,245010,1,0,0:0:0:0:
160,96,245076,1,0,0:0:0:0:
352,96,245142,1,8,0:0:0:0:
160,96,245207,1,0,0:0:0:0:
160,96,245273,1,0,0:0:0:0:
160,96,245339,1,0,0:0:0:0:
352,288,245405,1,12,0:0:0:0:
352,288,245931,1,12,0:0:0:0:
160,288,246457,1,4,0:0:0:0:
160,288,246984,1,4,0:0:0:0:
352,288,247510,1,12,0:0:0:0:
352,96,248036,1,8,0:0:0:0:
352,96,248102,1,8,0:0:0:0:
352,96,248168,1,8,0:0:0:0:
352,96,248234,1,8,0:0:0:0:
160,96,248300,1,0,0:0:0:0:
160,96,248365,1,0,0:0:0:0:
352,96,248431,1,8,0:0:0:0:
160,96,248497,1,0,0:0:0:0:
352,96,248563,1,8,0:0:0:0:
352,96,248629,1,8,0:0:0:0:
160,96,248694,1,0,0:0:0:0:
160,96,248760,1,0,0:0:0:0:
352,96,248826,1,8,0:0:0:0:
160,96,248892,1,0,0:0:0:0:
352,96,248957,1,8,0:0:0:0:
352,96,249023,1,8,0:0:0:0:
160,288,249089,1,4,0:0:0:0:
160,288,249352,1,4,0:0:0:0:
352,288,249615,1,12,0:0:0:0:
352,288,250142,1,12,0:0:0:0:
160,288,250668,1,4,0:0:0:0:
352,288,251194,1,12,0:0:0:0:
352,96,252247,1,8,0:0:0:0:
352,96,252313,1,8,0:0:0:0:
352,96,252379,1,8,0:0:0:0:
352,96,252444,1,8,0:0:0:0:
160,96,252510,1,0,0:0:0:0:
160,96,252576,1,0,0:0:0:0:
352,96,252642,1,8,0:0:0:0:
160,96,252707,1,0,0:0:0:0:
352,96,252773,1,8,0:0:0:0:
352,96,252839,1,8,0:0:0:0:
160,96,252905,1,0,0:0:0:0:
160,96,252971,1,0,0:0:0:0:
352,96,253036,1,8,0:0:0:0:
160,96,253102,1,0,0:0:0:0:
352,96,253168,1,8,0:0:0:0:
352,96,253234,1,8,0:0:0:0:
160,288,253300,1,4,0:0:0:0:
160,288,253563,1,4,0:0:0:0:
352,288,253826,1,12,0:0:0:0:
160,288,254352,1,4,0:0:0:0:
160,288,254879,1,4,0:0:0:0:
160,288,255405,1,4,0:0:0:0:
352,288,255931,1,12,0:0:0:0:
352,96,256457,1,8,0:0:0:0:
352,96,256523,1,8,0:0:0:0:
352,96,256589,1,8,0:0:0:0:
352,96,256655,1,8,0:0:0:0:
160,96,256721,1,0,0:0:0:0:
160,96,256786,1,0,0:0:0:0:
352,96,256852,1,8,0:0:0:0:
160,96,256918,1,0,0:0:0:0:
352,96,256984,1,8,0:0:0:0:
352,96,257050,1,8,0:0:0:0:
160,96,257115,1,0,0:0:0:0:
160,96,257181,1,0,0:0:0:0:
352,96,257247,1,8,0:0:0:0:
160,96,257313,1,0,0:0:0:0:
352,96,257379,1,8,0:0:0:0:
352,96,257444,1,8,0:0:0:0:
160,288,257510,1,4,0:0:0:0:
160,288,257773,1,4,0:0:0:0:
352,288,258036,1,12,0:0:0:0:
160,288,258563,1,4,0:0:0:0:
352,288,259089,1,12,0:0:0:0:
160,96,259484,1,0,0:0:0:0:
160,96,259550,1,0,0:0:0:0:
352,288,259615,1,12,0:0:0:0:
160,288,260668,1,4,0:0:0:0:
352,96,260897,1,8,0:0:0:0:
352,96,261127,1,8,0:0:0:0:
352,96,261357,1,8,0:0:0:0:
352,96,261587,1,8,0:0:0:0:
352,96,261817,1,8,0:0:0:0:
352,96,262047,1,8,0:0:0:0:
352,96,262277,1,8,0:0:0:0:
160,288,262507,1,4,0:0:0:0:
160,96,262736,1,0,0:0:0:0:
160,96,262794,1,0,0:0:0:0:
352,96,262851,1,8,0:0:0:0:
160,96,262909,1,0,0:0:0:0:
352,96,262966,1,8,0:0:0:0:
352,96,263024,1,8,0:0:0:0:
160,96,263081,1,0,0:0:0:0:
160,96,263139,1,0,0:0:0:0:
352,96,263196,1,8,0:0:0:0:
160,96,263254,1,0,0:0:0:0:
160,96,263311,1,0,0:0:0:0:
160,96,263369,1,0,0:0:0:0:
352,96,263426,1,8,0:0:0:0:
352,96,263484,1,8,0:0:0:0:
160,96,263541,1,0,0:0:0:0:
160,96,263599,1,0,0:0:0:0:
352,96,263656,1,8,0:0:0:0:
160,96,263713,1,0,0:0:0:0:
352,96,263771,1,8,0:0:0:0:
352,96,263828,1,8,0:0:0:0:
160,96,263886,1,0,0:0:0:0:
352,96,263963,1,8,0:0:0:0:
352,96,264039,1,8,0:0:0:0:
160,288,264116,1,4,0:0:0:0:
352,288,264346,1,12,0:0:0:0:
352,96,264576,1,8,0:0:0:0:
160,96,264633,1,0,0:0:0:0:
352,96,264690,1,8,0:0:0:0:
352,96,264748,1,8,0:0:0:0:
160,96,264805,1,0,0:0:0:0:
160,96,264863,1,0,0:0:0:0:
352,96,264920,1,8,0:0:0:0:
352,96,264978,1,8,0:0:0:0:
160,96,265035,1,0,0:0:0:0:
160,96,265093,1,0,0:0:0:0:
352,96,265150,1,8,0:0:0:0:
352,96,265208,1,8,0:0:0:0:
160,96,265265,1,0,0:0:0:0:
160,96,265323,1,0,0:0:0:0:
352,96,265380,1,8,0:0:0:0:
352,96,265438,1,8,0:0:0:0:
160,96,265495,1,0,0:0:0:0:
160,96,265553,1,0,0:0:0:0:
352,96,265610,1,8,0:0:0:0:
352,96,265668,1,8,0:0:0:0:
160,96,265725,1,0,0:0:0:0:
160,96,265782,1,0,0:0:0:0:
352,96,265840,1,8,0:0:0:0:
352,96,265897,1,8,0:0:0:0:
160,288,265955,1,4,0:0:0:0:
352,288,266185,1,12,0:0:0:0:
160,96,266299,1,0,0:0:0:0:
160,96,266357,1,0,0:0:0:0:
352,96,266414,1,8,0:0:0:0:
160,96,266472,1,0,0:0:0:0:
352,96,266529,1,8,0:0:0:0:
160,96,266587,1,0,0:0:0:0:
352,96,266644,1,8,0:0:0:0:
160,96,266759,1,0,0:0:0:0:
160,96,266874,1,0,0:0:0:0:
160,96,266932,1,0,0:0:0:0:
352,96,266989,1,8,0:0:0:0:
160,96,267047,1,0,0:0:0:0:
352,96,267104,1,8,0:0:0:0:
352,96,267162,1,8,0:0:0:0:
160,96,267219,1,0,0:0:0:0:
352,288,267334,1,12,0:0:0:0:
160,96,267449,1,0,0:0:0:0:
160,96,267506,1,0,0:0:0:0:
352,96,267564,1,8,0:0:0:0:
160,96,267621,1,0,0:0:0:0:
352,96,267679,1,8,0:0:0:0:
160,96,267736,1,0,0:0:0:0:
352,96,267794,1,8,0:0:0:0:
160,96,267909,1,0,0:0:0:0:
160,96,268024,1,0,0:0:0:0:
160,96,268081,1,0,0:0:0:0:
352,96,268139,1,8,0:0:0:0:
352,96,268196,1,8,0:0:0:0:
160,96,268253,1,0,0:0:0:0:
352,96,268311,1,8,0:0:0:0:
160,96,268368,1,0,0:0:0:0:
352,288,268483,1,12,0:0:0:0:
352,96,268712,1,8,0:0:0:0:
160,96,268770,1,0,0:0:0:0:
352,96,268827,1,8,0:0:0:0:
160,96,268942,1,0,0:0:0:0:
352,96,269000,1,8,0:0:0:0:
160,96,269057,1,0,0:0:0:0:
352,96,269115,1,8,0:0:0:0:
160,96,269172,1,0,0:0:0:0:
160,96,269287,1,0,0:0:0:0:
352,96,269402,1,8,0:0:0:0:
160,96,269460,1,0,0:0:0:0:
352,96,269517,1,8,0:0:0:0:
160,96,269574,1,0,0:0:0:0:
352,96,269632,1,8,0:0:0:0:
160,96,269747,1,0,0:0:0:0:
352,288,269862,1,12,0:0:0:0:
160,96,269977,1,0,0:0:0:0:
352,96,270034,1,8,0:0:0:0:
160,96,270092,1,0,0:0:0:0:
160,96,270207,1,0,0:0:0:0:
352,288,270322,1,12,0:0:0:0:
160,96,270437,1,0,0:0:0:0:
352,96,270494,1,8,0:0:0:0:
160,96,270551,1,0,0:0:0:0:
160,96,270666,1,0,0:0:0:0:
352,288,270781,1,12,0:0:0:0:
160,96,270896,1,0,0:0:0:0:
352,96,270954,1,8,0:0:0:0:
160,96,271011,1,0,0:0:0:0:
160,96,271126,1,0,0:0:0:0:
352,288,271241,1,12,0:0:0:0:
160,96,271356,1,0,0:0:0:0:
160,96,271414,1,0,0:0:0:0:
160,96,271471,1,0,0:0:0:0:
160,96,271528,1,0,0:0:0:0:
160,96,271586,1,0,0:0:0:0:
160,96,271643,1,0,0:0:0:0:
352,96,271701,1,8,0:0:0:0:
352,96,271758,1,8,0:0:0:0:
160,96,271816,1,0,0:0:0:0:
352,96,271873,1,8,0:0:0:0:
160,96,271931,1,0,0:0:0:0:
352,96,272007,1,8,0:0:0:0:
352,96,272084,1,8,0:0:0:0:
160,288,272161,1,4,0:0:0:0:
352,96,272391,1,8,0:0:0:0:
160,96,272448,1,0,0:0:0:0:
352,96,272505,1,8,0:0:0:0:
160,96,272620,1,0,0:0:0:0:
352,96,272678,1,8,0:0:0:0:
160,96,272735,1,0,0:0:0:0:
352,96,272793,1,8,0:0:0:0:
160,96,272850,1,0,0:0:0:0:
160,96,272965,1,0,0:0:0:0:
352,96,273080,1,8,0:0:0:0:
160,96,273138,1,0,0:0:0:0:
352,96,273195,1,8,0:0:0:0:
160,96,273253,1,0,0:0:0:0:
160,96,273310,1,0,0:0:0:0:
352,96,273425,1,8,0:0:0:0:
160,96,273483,1,0,0:0:0:0:
352,96,273540,1,8,0:0:0:0:
352,96,273597,1,8,0:0:0:0:
160,96,273655,1,0,0:0:0:0:
352,96,273712,1,8,0:0:0:0:
160,96,273770,1,0,0:0:0:0:
352,288,274000,1,12,0:0:0:0:
160,96,274114,1,0,0:0:0:0:
160,96,274172,1,0,0:0:0:0:
352,96,274229,1,8,0:0:0:0:
160,96,274287,1,0,0:0:0:0:
352,96,274344,1,8,0:0:0:0:
160,96,274402,1,0,0:0:0:0:
352,96,274459,1,8,0:0:0:0:
160,96,274574,1,0,0:0:0:0:
160,96,274689,1,0,0:0:0:0:
160,96,274747,1,0,0:0:0:0:
352,96,274804,1,8,0:0:0:0:
160,96,274862,1,0,0:0:0:0:
352,96,274919,1,8,0:0:0:0:
352,96,274977,1,8,0:0:0:0:
160,96,275034,1,0,0:0:0:0:
352,288,275149,1,12,0:0:0:0:
160,96,275264,1,0,0:0:0:0:
160,96,275321,1,0,0:0:0:0:
352,96,275379,1,8,0:0:0:0:
160,96,275436,1,0,0:0:0:0:
352,96,275494,1,8,0:0:0:0:
160,96,275551,1,0,0:0:0:0:
352,96,275609,1,8,0:0:0:0:
160,96,275724,1,0,0:0:0:0:
160,96,275839,1,0,0:0:0:0:
160,96,275896,1,0,0:0:0:0:
352,96,275954,1,8,0:0:0:0:
352,96,276011,1,8,0:0:0:0:
160,96,276068,1,0,0:0:0:0:
352,96,276125,1,8,0:0:0:0:
160,96,276182,1,0,0:0:0:0:
352,288,276300,1,12,0:0:0:0:
352,96,278139,1,8,0:0:0:0:
160,96,278196,1,0,0:0:0:0:
352,96,278254,1,8,0:0:0:0:
160,96,278311,1,0,0:0:0:0:
352,96,278368,1,8,0:0:0:0:
160,96,278426,1,0,0:0:0:0:
352,96,278483,1,8,0:0:0:0:
160,96,278541,1,0,0:0:0:0:
352,96,278598,1,8,0:0:0:0:
352,96,278656,1,8,0:0:0:0:
160,96,278713,1,0,0:0:0:0:
160,96,278771,1,0,0:0:0:0:
352,96,278828,1,8,0:0:0:0:
160,96,278886,1,0,0:0:0:0:
160,96,278943,1,0,0:0:0:0:
352,96,279058,1,8,0:0:0:0:
160,96,279116,1,0,0:0:0:0:
352,96,279173,1,8,0:0:0:0:
160,96,279231,1,0,0:0:0:0:
352,96,279288,1,8,0:0:0:0:
160,96,279345,1,0,0:0:0:0:
352,96,279403,1,8,0:0:0:0:
160,96,279460,1,0,0:0:0:0:
352,96,279518,1,8,0:0:0:0:
160,96,279575,1,0,0:0:0:0:
160,96,279633,1,0,0:0:0:0:
160,96,279690,1,0,0:0:0:0:
352,96,279748,1,8,0:0:0:0:
160,96,279805,1,0,0:0:0:0:
160,96,279863,1,0,0:0:0:0:
352,96,279978,1,8,0:0:0:0:
160,96,280035,1,0,0:0:0:0:
352,96,280093,1,8,0:0:0:0:
160,96,280150,1,0,0:0:0:0:
352,96,280208,1,8,0:0:0:0:
160,96,280265,1,0,0:0:0:0:
352,96,280322,1,8,0:0:0:0:
160,96,280380,1,0,0:0:0:0:
352,96,280437,1,8,0:0:0:0:
352,96,280495,1,8,0:0:0:0:
160,96,280552,1,0,0:0:0:0:
160,96,280610,1,0,0:0:0:0:
352,96,280667,1,8,0:0:0:0:
160,96,280782,1,0,0:0:0:0:
160,96,280840,1,0,0:0:0:0:
352,96,280897,1,8,0:0:0:0:
160,96,281012,1,0,0:0:0:0:
352,96,281127,1,8,0:0:0:0:
352,96,281185,1,8,0:0:0:0:
352,96,281242,1,8,0:0:0:0:
352,96,281300,1,8,0:0:0:0:
160,96,281357,1,0,0:0:0:0:
352,96,281434,1,8,0:0:0:0:
352,96,281510,1,8,0:0:0:0:
160,288,281587,1,4,0:0:0:0:
352,288,281817,1,12,0:0:0:0:
160,96,282047,1,0,0:0:0:0:
160,96,282104,1,0,0:0:0:0:
160,96,282162,1,0,0:0:0:0:
160,96,282219,1,0,0:0:0:0:
352,96,282277,1,8,0:0:0:0:
352,96,282334,1,8,0:0:0:0:
160,96,282391,1,0,0:0:0:0:
352,96,282449,1,8,0:0:0:0:
160,96,282506,1,0,0:0:0:0:
352,96,282564,1,8,0:0:0:0:
160,96,282621,1,0,0:0:0:0:
160,96,282679,1,0,0:0:0:0:
352,96,282736,1,8,0:0:0:0:
352,96,282794,1,8,0:0:0:0:
160,96,282851,1,0,0:0:0:0:
352,96,282909,1,8,0:0:0:0:
160,96,282966,1,0,0:0:0:0:
352,96,283024,1,8,0:0:0:0:
160,96,283081,1,0,0:0:0:0:
160,96,283139,1,0,0:0:0:0:
352,96,283196,1,8,0:0:0:0:
352,96,283254,1,8,0:0:0:0:
160,96,283311,1,0,0:0:0:0:
160,96,283368,1,0,0:0:0:0:
352,96,283426,1,8,0:0:0:0:
160,96,283483,1,0,0:0:0:0:
352,96,283541,1,8,0:0:0:0:
160,96,283598,1,0,0:0:0:0:
352,96,283656,1,8,0:0:0:0:
352,96,283713,1,8,0:0:0:0:
160,96,283771,1,0,0:0:0:0:
160,96,283828,1,0,0:0:0:0:
352,96,283886,1,8,0:0:0:0:
160,96,283943,1,0,0:0:0:0:
160,96,284001,1,0,0:0:0:0:
160,96,284058,1,0,0:0:0:0:
352,96,284116,1,8,0:0:0:0:
352,96,284173,1,8,0:0:0:0:
160,96,284231,1,0,0:0:0:0:
352,96,284288,1,8,0:0:0:0:
160,96,284345,1,0,0:0:0:0:
160,96,284403,1,0,0:0:0:0:
352,96,284460,1,8,0:0:0:0:
160,96,284518,1,0,0:0:0:0:
352,96,284575,1,8,0:0:0:0:
352,96,284633,1,8,0:0:0:0:
160,96,284690,1,0,0:0:0:0:
160,96,284748,1,0,0:0:0:0:
352,96,284805,1,8,0:0:0:0:
160,96,284863,1,0,0:0:0:0:
352,96,284920,1,8,0:0:0:0:
352,96,284978,1,8,0:0:0:0:
160,96,285035,1,0,0:0:0:0:
352,96,285112,1,8,0:0:0:0:
352,96,285188,1,8,0:0:0:0:
160,288,285265,1,4,0:0:0:0:
352,96,285495,1,8,0:0:0:0:
160,96,285552,1,0,0:0:0:0:
352,96,285610,1,8,0:0:0:0:
160,96,285667,1,0,0:0:0:0:
352,96,285725,1,8,0:0:0:0:
160,96,285782,1,0,0:0:0:0:
352,96,285840,1,8,0:0:0:0:
160,96,285897,1,0,0:0:0:0:
352,96,285955,1,8,0:0:0:0:
352,96,286012,1,8,0:0:0:0:
160,96,286070,1,0,0:0:0:0:
160,96,286127,1,0,0:0:0:0:
352,96,286185,1,8,0:0:0:0:
160,96,286242,1,0,0:0:0:0:
160,96,286300,1,0,0:0:0:0:
352,96,286414,1,8,0:0:0:0:
160,96,286472,1,0,0:0:0:0:
352,96,286529,1,8,0:0:0:0:
160,96,286587,1,0,0:0:0:0:
352,96,286644,1,8,0:0:0:0:
160,96,286702,1,0,0:0:0:0:
352,96,286759,1,8,0:0:0:0:
160,96,286817,1,0,0:0:0:0:
352,96,286874,1,8,0:0:0:0:
160,96,286932,1,0,0:0:0:0:
160,96,286989,1,0,0:0:0:0:
160,96,287047,1,0,0:0:0:0:
352,96,287104,1,8,0:0:0:0:
160,96,287162,1,0,0:0:0:0:
160,96,287219,1,0,0:0:0:0:
352,96,287334,1,8,0:0:0:0:
160,96,287391,1,0,0:0:0:0:
352,96,287449,1,8,0:0:0:0:
160,96,287506,1,0,0:0:0:0:
352,96,287564,1,8,0:0:0:0:
160,96,287621,1,0,0:0:0:0:
352,96,287679,1,8,0:0:0:0:
160,96,287736,1,0,0:0:0:0:
352,96,287794,1,8,0:0:0:0:
352,96,287851,1,8,0:0:0:0:
160,96,287909,1,0,0:0:0:0:
160,96,287966,1,0,0:0:0:0:
352,96,288024,1,8,0:0:0:0:
160,96,288139,1,0,0:0:0:0:
160,96,288196,1,0,0:0:0:0:
352,96,288254,1,8,0:0:0:0:
160,96,288368,1,0,0:0:0:0:
352,96,288483,1,8,0:0:0:0:
352,96,288541,1,8,0:0:0:0:
352,96,288598,1,8,0:0:0:0:
352,96,288656,1,8,0:0:0:0:
160,96,288713,1,0,0:0:0:0:
352,96,288790,1,8,0:0:0:0:
352,96,288867,1,8,0:0:0:0:
160,288,288943,1,4,0:0:0:0:
352,288,289173,1,12,0:0:0:0:
160,96,289403,1,0,0:0:0:0:
160,96,289460,1,0,0:0:0:0:
160,96,289518,1,0,0:0:0:0:
160,96,289575,1,0,0:0:0:0:
352,96,289633,1,8,0:0:0:0:
352,96,289690,1,8,0:0:0:0:
160,96,289748,1,0,0:0:0:0:
352,96,289805,1,8,0:0:0:0:
160,96,289863,1,0,0:0:0:0:
352,96,289920,1,8,0:0:0:0:
160,96,289978,1,0,0:0:0:0:
160,96,290035,1,0,0:0:0:0:
352,96,290093,1,8,0:0:0:0:
352,96,290150,1,8,0:0:0:0:
160,96,290208,1,0,0:0:0:0:
352,96,290265,1,8,0:0:0:0:
160,96,290322,1,0,0:0:0:0:
352,96,290380,1,8,0:0:0:0:
160,96,290437,1,0,0:0:0:0:
160,96,290495,1,0,0:0:0:0:
352,96,290552,1,8,0:0:0:0:
352,96,290610,1,8,0:0:0:0:
160,96,290667,1,0,0:0:0:0:
160,96,290725,1,0,0:0:0:0:
352,96,290782,1,8,0:0:0:0:
160,96,290840,1,0,0:0:0:0:
352,96,290897,1,8,0:0:0:0:
160,96,290955,1,0,0:0:0:0:
352,96,291012,1,8,0:0:0:0:
352,96,291070,1,8,0:0:0:0:
160,96,291127,1,0,0:0:0:0:
160,96,291185,1,0,0:0:0:0:
352,96,291242,1,8,0:0:0:0:
160,96,291300,1,0,0:0:0:0:
160,96,291357,1,0,0:0:0:0:
160,96,291414,1,0,0:0:0:0:
352,96,291472,1,8,0:0:0:0:
352,96,291529,1,8,0:0:0:0:
160,96,291587,1,0,0:0:0:0:
352,96,291644,1,8,0:0:0:0:
160,96,291702,1,0,0:0:0:0:
160,96,291759,1,0,0:0:0:0:
352,96,291817,1,8,0:0:0:0:
160,96,291874,1,0,0:0:0:0:
352,96,291932,1,8,0:0:0:0:
352,96,291989,1,8,0:0:0:0:
160,96,292047,1,0,0:0:0:0:
160,96,292104,1,0,0:0:0:0:
352,96,292162,1,8,0:0:0:0:
352,96,292219,1,8,0:0:0:0:
160,96,292277,1,0,0:0:0:0:
160,96,292334,1,0,0:0:0:0:
352,96,292391,1,8,0:0:0:0:
160,96,292468,1,0,0:0:0:0:
160,96,292545,1,0,0:0:0:0:
352,288,292621,1,12,0:0:0:0:
352,96,292851,1,8,0:0:0:0:
352,96,292909,1,8,0:0:0:0:
352,96,292966,1,8,0:0:0:0:
160,96,293024,1,0,0:0:0:0:
352,96,293081,1,8,0:0:0:0:
160,96,293139,1,0,0:0:0:0:
352,96,293196,1,8,0:0:0:0:
160,96,293254,1,0,0:0:0:0:
352,96,293311,1,8,0:0:0:0:
352,96,293368,1,8,0:0:0:0:
352,96,293426,1,8,0:0:0:0:
160,96,293483,1,0,0:0:0:0:
352,96,293541,1,8,0:0:0:0:
160,96,293598,1,0,0:0:0:0:
352,96,293656,1,8,0:0:0:0:
160,96,293713,1,0,0:0:0:0:
352,96,293771,1,8,0:0:0:0:
352,96,293828,1,8,0:0:0:0:
352,96,293886,1,8,0:0:0:0:
160,96,293943,1,0,0:0:0:0:
352,96,294001,1,8,0:0:0:0:
160,96,294058,1,0,0:0:0:0:
352,96,294116,1,8,0:0:0:0:
160,96,294173,1,0,0:0:0:0:
352,96,294231,1,8,0:0:0:0:
352,96,294288,1,8,0:0:0:0:
160,96,294345,1,0,0:0:0:0:
160,96,294403,1,0,0:0:0:0:
352,96,294460,1,8,0:0:0:0:
352,96,294518,1,8,0:0:0:0:
160,96,294575,1,0,0:0:0:0:
160,96,294633,1,0,0:0:0:0:
352,96,294690,1,8,0:0:0:0:
352,96,294748,1,8,0:0:0:0:
352,96,294805,1,8,0:0:0:0:
160,96,294863,1,0,0:0:0:0:
352,96,294920,1,8,0:0:0:0:
160,96,294978,1,0,0:0:0:0:
352,96,295035,1,8,0:0:0:0:
160,96,295093,1,0,0:0:0:0:
352,96,295150,1,8,0:0:0:0:
160,96,295208,1,0,0:0:0:0:
160,96,295265,1,0,0:0:0:0:
160,96,295322,1,0,0:0:0:0:
352,96,295380,1,8,0:0:0:0:
160,96,295437,1,0,0:0:0:0:
160,96,295495,1,0,0:0:0:0:
352,288,295610,1,12,0:0:0:0:
160,96,295725,1,0,0:0:0:0:
352,96,295840,1,8,0:0:0:0:
160,96,295897,1,0,0:0:0:0:
160,96,295955,1,0,0:0:0:0:
160,96,296012,1,0,0:0:0:0:
352,96,296070,1,8,0:0:0:0:
160,96,296185,1,0,0:0:0:0:
352,96,296299,1,8,0:0:0:0:
160,96,296414,1,0,0:0:0:0:
352,288,296529,1,12,0:0:0:0:
160,96,296644,1,0,0:0:0:0:
160,96,296759,1,0,0:0:0:0:
160,96,296874,1,0,0:0:0:0:
352,96,296989,1,8,0:0:0:0:
160,96,297104,1,0,0:0:0:0:
160,96,297219,1,0,0:0:0:0:
160,96,297334,1,0,0:0:0:0:
160,96,297449,1,0,0:0:0:0:
160,96,297564,1,0,0:0:0:0:
160,96,297679,1,0,0:0:0:0:
160,96,297794,1,0,0:0:0:0:
352,96,297909,1,8,0:0:0:0:
352,96,298024,1,8,0:0:0:0:
160,96,298139,1,0,0:0:0:0:
160,96,298254,1,0,0:0:0:0:
352,96,298368,1,8,0:0:0:0:
160,96,298483,1,0,0:0:0:0:
160,96,298598,1,0,0:0:0:0:
160,96,298713,1,0,0:0:0:0:
160,96,298828,1,0,0:0:0:0:
160,96,298943,1,0,0:0:0:0:
160,96,299058,1,0,0:0:0:0:
160,96,299173,1,0,0:0:0:0:
352,96,299288,1,8,0:0:0:0:
352,96,299403,1,8,0:0:0:0:
352,96,299518,1,8,0:0:0:0:
160,96,299633,1,0,0:0:0:0:
352,96,299748,1,8,0:0:0:0:
352,96,299863,1,8,0:0:0:0:
160,96,299978,1,0,0:0:0:0:
160,96,300093,1,0,0:0:0:0:
352,288,300208,1,12,0:0:0:0:
160,96,300322,1,0,0:0:0:0:
160,96,300437,1,0,0:0:0:0:
160,96,300552,1,0,0:0:0:0:
352,96,300667,1,8,0:0:0:0:
160,96,300782,1,0,0:0:0:0:
160,96,300897,1,0,0:0:0:0:
160,96,301012,1,0,0:0:0:0:
160,96,301127,1,0,0:0:0:0:
160,96,301242,1,0,0:0:0:0:
160,96,301357,1,0,0:0:0:0:
160,96,301472,1,0,0:0:0:0:
352,96,301587,1,8,0:0:0:0:
352,96,301702,1,8,0:0:0:0:
160,96,301817,1,0,0:0:0:0:
160,96,301932,1,0,0:0:0:0:
352,96,302047,1,8,0:0:0:0:
160,96,302162,1,0,0:0:0:0:
160,96,302277,1,0,0:0:0:0:
160,96,302391,1,0,0:0:0:0:
160,96,302506,1,0,0:0:0:0:
160,96,302621,1,0,0:0:0:0:
160,96,302736,1,0,0:0:0:0:
160,96,302851,1,0,0:0:0:0:
352,96,302966,1,8,0:0:0:0:
352,96,303081,1,8,0:0:0:0:
352,96,303196,1,8,0:0:0:0:
160,96,303311,1,0,0:0:0:0:
352,96,303426,1,8,0:0:0:0:
352,96,303541,1,8,0:0:0:0:
160,96,303656,1,0,0:0:0:0:
160,96,303771,1,0,0:0:0:0:
352,96,303886,1,8,0:0:0:0:
160,96,303943,1,0,0:0:0:0:
160,96,304001,1,0,0:0:0:0:
160,96,304058,1,0,0:0:0:0:
160,96,304116,1,0,0:0:0:0:
160,96,304173,1,0,0:0:0:0:
160,96,304231,1,0,0:0:0:0:
160,96,304288,1,0,0:0:0:0:
160,96,304345,1,0,0:0:0:0:
160,96,304403,1,0,0:0:0:0:
160,96,304460,1,0,0:0:0:0:
160,96,304518,1,0,0:0:0:0:
160,96,304575,1,0,0:0:0:0:
160,96,304633,1,0,0:0:0:0:
160,96,304690,1,0,0:0:0:0:
160,96,304748,1,0,0:0:0:0:
160,96,304805,1,0,0:0:0:0:
160,96,304863,1,0,0:0:0:0:
160,96,304920,1,0,0:0:0:0:
160,96,304978,1,0,0:0:0:0:
160,96,305035,1,0,0:0:0:0:
160,96,305093,1,0,0:0:0:0:
160,96,305150,1,0,0:0:0:0:
160,96,305208,1,0,0:0:0:0:
352,96,305265,1,8,0:0:0:0:
352,96,305380,1,8,0:0:0:0:
160,96,305495,1,0,0:0:0:0:
160,96,305610,1,0,0:0:0:0:
160,96,305725,1,0,0:0:0:0:
160,96,305840,1,0,0:0:0:0:
160,96,305955,1,0,0:0:0:0:
160,96,306070,1,0,0:0:0:0:
160,96,306185,1,0,0:0:0:0:
160,96,306299,1,0,0:0:0:0:
160,96,306414,1,0,0:0:0:0:
160,96,306529,1,0,0:0:0:0:
352,96,306644,1,8,0:0:0:0:
352,96,306759,1,8,0:0:0:0:
352,96,306874,1,8,0:0:0:0:
160,96,306989,1,0,0:0:0:0:
352,96,307104,1,8,0:0:0:0:
352,96,307219,1,8,0:0:0:0:
160,96,307334,1,0,0:0:0:0:
160,96,307449,1,0,0:0:0:0:
352,96,307564,1,8,0:0:0:0:
160,96,307621,1,0,0:0:0:0:
160,96,307679,1,0,0:0:0:0:
160,96,307736,1,0,0:0:0:0:
160,96,307794,1,0,0:0:0:0:
160,96,307851,1,0,0:0:0:0:
160,96,307909,1,0,0:0:0:0:
160,96,307966,1,0,0:0:0:0:
160,96,308024,1,0,0:0:0:0:
160,96,308081,1,0,0:0:0:0:
160,96,308139,1,0,0:0:0:0:
160,96,308196,1,0,0:0:0:0:
160,96,308254,1,0,0:0:0:0:
160,96,308311,1,0,0:0:0:0:
160,96,308368,1,0,0:0:0:0:
160,96,308426,1,0,0:0:0:0:
160,96,308483,1,0,0:0:0:0:
160,96,308541,1,0,0:0:0:0:
160,96,308598,1,0,0:0:0:0:
160,96,308656,1,0,0:0:0:0:
160,96,308713,1,0,0:0:0:0:
160,96,308771,1,0,0:0:0:0:
160,96,308828,1,0,0:0:0:0:
160,96,308886,1,0,0:0:0:0:
352,96,308943,1,8,0:0:0:0:
352,96,309058,1,8,0:0:0:0:
160,96,309173,1,0,0:0:0:0:
160,96,309288,1,0,0:0:0:0:
352,96,309403,1,8,0:0:0:0:
160,96,309518,1,0,0:0:0:0:
160,96,309633,1,0,0:0:0:0:
160,96,309748,1,0,0:0:0:0:
160,96,309863,1,0,0:0:0:0:
160,96,309978,1,0,0:0:0:0:
160,96,310093,1,0,0:0:0:0:
160,96,310208,1,0,0:0:0:0:
352,96,310322,1,8,0:0:0:0:
352,96,310437,1,8,0:0:0:0:
352,96,310552,1,8,0:0:0:0:
160,96,310667,1,0,0:0:0:0:
352,288,310782,1,12,0:0:0:0:
160,96,311012,1,0,0:0:0:0:
160,288,311242,1,4,0:0:0:0:
256,192,311357,8,0,327794,0:0:0:0:
