osu file format v14

[General]
AudioFilename: audio.mp3
AudioLeadIn: 0
PreviewTime: -1
Countdown: 0
SampleSet: None
StackLeniency: 0.7
Mode: 3
LetterboxInBreaks: 0
SpecialStyle: 0
WidescreenStoryboard: 0

[Editor]
DistanceSpacing: 2
BeatDivisor: 4
GridSize: 4
TimelineZoom: 0.8

[Metadata]
Title:Flight of the Bumblebee
TitleUnicode:Полёт шмеля
Artist:Nikolai Rimsky-Korsakov
ArtistUnicode:Николай Римский-Корсаков
Creator:Dreamwalker
Version:CRAZY // Play with only two fingers.
Source:리듬스타
Tags:Rhythm Star
BeatmapID:2167586
BeatmapSetID:1036736

[Difficulty]
HPDrainRate:7.5
CircleSize:9
OverallDifficulty:3
ApproachRate:5
SliderMultiplier:1.4
SliderTickRate:1

[Events]
//Background and Video events
0,0,"Bumblebee9k.png",0,0
//Break Periods
2,23532,38675
//Storyboard Layer 0 (Background)
//Storyboard Layer 1 (Fail)
//Storyboard Layer 2 (Pass)
//Storyboard Layer 3 (Foreground)
//Storyboard Layer 4 (Overlay)
//Storyboard Sound Samples

[TimingPoints]
1475,342.857142857143,4,1,0,100,1,0

[HitObjects]
28,192,1475,5,0,0:0:0:0:
85,192,1560,1,0,0:0:0:0:
256,192,1646,1,0,0:0:0:0:
312,192,1732,1,0,0:0:0:0:
199,192,1817,1,0,0:0:0:0:
256,192,1903,1,0,0:0:0:0:
426,192,1989,1,0,0:0:0:0:
483,192,2075,1,0,0:0:0:0:
28,192,2160,1,0,0:0:0:0:
85,192,2246,1,0,0:0:0:0:
256,192,2332,1,0,0:0:0:0:
312,192,2417,1,0,0:0:0:0:
483,192,2503,1,0,0:0:0:0:
426,192,2589,1,0,0:0:0:0:
369,192,2675,1,0,0:0:0:0:
312,192,2760,1,0,0:0:0:0:
199,192,2846,1,0,0:0:0:0:
85,192,2932,1,0,0:0:0:0:
256,192,3017,1,0,0:0:0:0:
312,192,3103,1,0,0:0:0:0:
369,192,3189,1,0,0:0:0:0:
256,192,3275,1,0,0:0:0:0:
426,192,3360,1,0,0:0:0:0:
483,192,3446,1,0,0:0:0:0:
199,192,3532,1,0,0:0:0:0:
85,192,3617,1,0,0:0:0:0:
256,192,3703,1,0,0:0:0:0:
312,192,3789,1,0,0:0:0:0:
483,192,3875,1,0,0:0:0:0:
426,192,3960,1,0,0:0:0:0:
369,192,4046,1,0,0:0:0:0:
312,192,4132,1,0,0:0:0:0:
28,192,4217,1,0,0:0:0:0:
85,192,4303,1,0,0:0:0:0:
199,192,4389,1,0,0:0:0:0:
256,192,4475,1,0,0:0:0:0:
199,192,4560,1,0,0:0:0:0:
312,192,4646,1,0,0:0:0:0:
199,192,4732,1,0,0:0:0:0:
256,192,4817,1,0,0:0:0:0:
28,192,4903,1,0,0:0:0:0:
85,192,4989,1,0,0:0:0:0:
199,192,5075,1,0,0:0:0:0:
256,192,5160,1,0,0:0:0:0:
199,192,5246,1,0,0:0:0:0:
312,192,5332,1,0,0:0:0:0:
199,192,5417,1,0,0:0:0:0:
256,192,5503,1,0,0:0:0:0:
28,192,5589,1,0,0:0:0:0:
85,192,5675,1,0,0:0:0:0:
199,192,5760,1,0,0:0:0:0:
256,192,5846,1,0,0:0:0:0:
369,192,5932,1,0,0:0:0:0:
312,192,6017,1,0,0:0:0:0:
199,192,6103,1,0,0:0:0:0:
256,192,6189,1,0,0:0:0:0:
28,192,6275,1,0,0:0:0:0:
85,192,6360,1,0,0:0:0:0:
199,192,6446,1,0,0:0:0:0:
256,192,6532,1,0,0:0:0:0:
369,192,6617,1,0,0:0:0:0:
312,192,6703,1,0,0:0:0:0:
199,192,6789,1,0,0:0:0:0:
256,192,6875,1,0,0:0:0:0:
28,192,6960,1,0,0:0:0:0:
483,192,7046,1,0,0:0:0:0:
369,192,7132,1,0,0:0:0:0:
312,192,7217,1,0,0:0:0:0:
256,192,7303,1,0,0:0:0:0:
142,192,7389,1,0,0:0:0:0:
483,192,8332,5,0,0:0:0:0:
483,192,8675,1,0,0:0:0:0:
483,192,9017,1,0,0:0:0:0:
483,192,9189,1,0,0:0:0:0:
483,192,9360,1,0,0:0:0:0:
483,192,9532,1,0,0:0:0:0:
199,192,9703,1,0,0:0:0:0:
256,192,9789,1,0,0:0:0:0:
426,192,9875,1,0,0:0:0:0:
483,192,9960,1,0,0:0:0:0:
28,192,10046,1,0,0:0:0:0:
142,192,10132,1,0,0:0:0:0:
256,192,10217,1,0,0:0:0:0:
312,192,10303,1,0,0:0:0:0:
199,192,10389,1,0,0:0:0:0:
256,192,10475,1,0,0:0:0:0:
426,192,10560,1,0,0:0:0:0:
483,192,10646,1,0,0:0:0:0:
28,192,10732,1,0,0:0:0:0:
483,192,10817,1,0,0:0:0:0:
426,192,10903,1,0,0:0:0:0:
256,192,10989,1,0,0:0:0:0:
199,192,11075,1,0,0:0:0:0:
256,192,11160,1,0,0:0:0:0:
426,192,11246,1,0,0:0:0:0:
483,192,11332,1,0,0:0:0:0:
28,192,11417,1,0,0:0:0:0:
142,192,11503,1,0,0:0:0:0:
256,192,11589,1,0,0:0:0:0:
312,192,11675,1,0,0:0:0:0:
199,192,11760,1,0,0:0:0:0:
28,192,11846,1,0,0:0:0:0:
426,192,11932,1,0,0:0:0:0:
483,192,12017,1,0,0:0:0:0:
28,192,12103,1,0,0:0:0:0:
483,192,12189,1,0,0:0:0:0:
426,192,12275,1,0,0:0:0:0:
256,192,12360,1,0,0:0:0:0:
199,192,12446,1,0,0:0:0:0:
256,192,12532,1,0,0:0:0:0:
426,192,12617,1,0,0:0:0:0:
483,192,12703,1,0,0:0:0:0:
28,192,12789,1,0,0:0:0:0:
312,192,12875,1,0,0:0:0:0:
256,192,12960,1,0,0:0:0:0:
199,192,13046,1,0,0:0:0:0:
483,192,13132,1,0,0:0:0:0:
426,192,13217,1,0,0:0:0:0:
369,192,13303,1,0,0:0:0:0:
312,192,13389,1,0,0:0:0:0:
28,192,13475,1,0,0:0:0:0:
312,192,13560,1,0,0:0:0:0:
256,192,13646,1,0,0:0:0:0:
426,192,13732,1,0,0:0:0:0:
199,192,13817,1,0,0:0:0:0:
256,192,13903,1,0,0:0:0:0:
426,192,13989,1,0,0:0:0:0:
483,192,14075,1,0,0:0:0:0:
28,192,14160,1,0,0:0:0:0:
312,192,14246,1,0,0:0:0:0:
256,192,14332,1,0,0:0:0:0:
199,192,14417,1,0,0:0:0:0:
483,192,14503,1,0,0:0:0:0:
28,192,14589,1,0,0:0:0:0:
426,192,14675,1,0,0:0:0:0:
369,192,14760,1,0,0:0:0:0:
28,192,14846,1,0,0:0:0:0:
312,192,14932,1,0,0:0:0:0:
256,192,15017,1,0,0:0:0:0:
199,192,15103,1,0,0:0:0:0:
312,192,15189,1,0,0:0:0:0:
256,192,15275,1,0,0:0:0:0:
426,192,15360,1,0,0:0:0:0:
369,192,15446,1,0,0:0:0:0:
142,192,15532,1,0,0:0:0:0:
28,192,15617,1,0,0:0:0:0:
256,192,15703,1,0,0:0:0:0:
199,192,15789,1,0,0:0:0:0:
312,192,15875,1,0,0:0:0:0:
256,192,15960,1,0,0:0:0:0:
426,192,16046,1,0,0:0:0:0:
369,192,16132,1,0,0:0:0:0:
142,192,16217,1,0,0:0:0:0:
369,192,16303,1,0,0:0:0:0:
426,192,16389,1,0,0:0:0:0:
256,192,16475,1,0,0:0:0:0:
312,192,16560,1,0,0:0:0:0:
256,192,16646,1,0,0:0:0:0:
426,192,16732,1,0,0:0:0:0:
369,192,16817,1,0,0:0:0:0:
142,192,16903,1,0,0:0:0:0:
28,192,16989,1,0,0:0:0:0:
256,192,17075,1,0,0:0:0:0:
199,192,17160,1,0,0:0:0:0:
312,192,17246,1,0,0:0:0:0:
142,192,17332,1,0,0:0:0:0:
426,192,17417,1,0,0:0:0:0:
369,192,17503,1,0,0:0:0:0:
142,192,17589,1,0,0:0:0:0:
369,192,17675,1,0,0:0:0:0:
426,192,17760,1,0,0:0:0:0:
256,192,17846,1,0,0:0:0:0:
312,192,17932,1,0,0:0:0:0:
256,192,18017,1,0,0:0:0:0:
426,192,18103,1,0,0:0:0:0:
369,192,18189,1,0,0:0:0:0:
142,192,18275,1,0,0:0:0:0:
256,192,18360,1,0,0:0:0:0:
199,192,18446,1,0,0:0:0:0:
312,192,18532,1,0,0:0:0:0:
369,192,18617,1,0,0:0:0:0:
426,192,18703,1,0,0:0:0:0:
483,192,18789,1,0,0:0:0:0:
199,192,18875,1,0,0:0:0:0:
142,192,18960,1,0,0:0:0:0:
199,192,19046,1,0,0:0:0:0:
312,192,19132,1,0,0:0:0:0:
199,192,19217,1,0,0:0:0:0:
312,192,19303,1,0,0:0:0:0:
256,192,19389,1,0,0:0:0:0:
426,192,19475,1,0,0:0:0:0:
369,192,19560,1,0,0:0:0:0:
142,192,19646,1,0,0:0:0:0:
256,192,19732,1,0,0:0:0:0:
199,192,19817,1,0,0:0:0:0:
312,192,19903,1,0,0:0:0:0:
369,192,19989,1,0,0:0:0:0:
142,192,20075,1,0,0:0:0:0:
426,192,20160,1,0,0:0:0:0:
483,192,20246,1,0,0:0:0:0:
142,192,20332,1,0,0:0:0:0:
483,192,20417,1,0,0:0:0:0:
142,192,20503,1,0,0:0:0:0:
28,192,20589,1,0,0:0:0:0:
142,192,20675,1,0,0:0:0:0:
369,192,20760,1,0,0:0:0:0:
142,192,20846,1,0,0:0:0:0:
369,192,20932,1,0,0:0:0:0:
142,192,21017,1,0,0:0:0:0:
369,192,21103,1,0,0:0:0:0:
142,192,21189,1,0,0:0:0:0:
369,192,21275,1,0,0:0:0:0:
199,192,21360,1,0,0:0:0:0:
312,192,21360,1,0,0:0:0:0:
142,192,21446,1,0,0:0:0:0:
199,192,21532,1,0,0:0:0:0:
312,192,21532,1,0,0:0:0:0:
142,192,21617,1,0,0:0:0:0:
312,192,21703,1,0,0:0:0:0:
199,192,21703,1,0,0:0:0:0:
142,192,21789,1,0,0:0:0:0:
312,192,21875,1,0,0:0:0:0:
199,192,21875,1,0,0:0:0:0:
142,192,21960,1,0,0:0:0:0:
312,192,22046,1,0,0:0:0:0:
256,192,22132,1,0,0:0:0:0:
312,192,22217,1,0,0:0:0:0:
256,192,22303,1,0,0:0:0:0:
312,192,22389,1,0,0:0:0:0:
256,192,22475,1,0,0:0:0:0:
312,192,22560,1,0,0:0:0:0:
256,192,22646,1,0,0:0:0:0:
28,192,22732,1,0,0:0:0:0:
85,192,22732,1,0,0:0:0:0:
256,192,22817,1,0,0:0:0:0:
28,192,22903,1,0,0:0:0:0:
85,192,22903,1,0,0:0:0:0:
256,192,22989,1,0,0:0:0:0:
85,192,23075,1,0,0:0:0:0:
28,192,23075,1,0,0:0:0:0:
256,192,23160,1,0,0:0:0:0:
85,192,23246,1,0,0:0:0:0:
28,192,23246,1,0,0:0:0:0:
256,192,23332,1,0,0:0:0:0:
312,192,39875,5,0,0:0:0:0:
256,192,39960,1,0,0:0:0:0:
426,192,40046,1,0,0:0:0:0:
483,192,40132,1,0,0:0:0:0:
312,192,40217,1,0,0:0:0:0:
256,192,40303,1,0,0:0:0:0:
426,192,40389,1,0,0:0:0:0:
483,192,40475,1,0,0:0:0:0:
312,192,40560,1,0,0:0:0:0:
256,192,40646,1,0,0:0:0:0:
426,192,40732,1,0,0:0:0:0:
483,192,40817,1,0,0:0:0:0:
312,192,40903,1,0,0:0:0:0:
256,192,40989,1,0,0:0:0:0:
426,192,41075,1,0,0:0:0:0:
483,192,41160,1,0,0:0:0:0:
312,192,41246,1,0,0:0:0:0:
256,192,41332,1,0,0:0:0:0:
426,192,41417,1,0,0:0:0:0:
483,192,41503,1,0,0:0:0:0:
312,192,41589,1,0,0:0:0:0:
199,192,41589,1,0,0:0:0:0:
256,192,41675,1,0,0:0:0:0:
426,192,41760,1,0,0:0:0:0:
199,192,41760,1,0,0:0:0:0:
483,192,41846,1,0,0:0:0:0:
312,192,41932,1,0,0:0:0:0:
199,192,41932,1,0,0:0:0:0:
256,192,42017,1,0,0:0:0:0:
426,192,42103,1,0,0:0:0:0:
199,192,42103,1,0,0:0:0:0:
483,192,42189,1,0,0:0:0:0:
312,192,42275,1,0,0:0:0:0:
199,192,42275,1,0,0:0:0:0:
256,192,42360,1,0,0:0:0:0:
426,192,42446,1,0,0:0:0:0:
199,192,42446,1,0,0:0:0:0:
483,192,42532,1,0,0:0:0:0:
312,192,42617,1,0,0:0:0:0:
199,192,42617,1,0,0:0:0:0:
256,192,42703,1,0,0:0:0:0:
426,192,42789,1,0,0:0:0:0:
483,192,42875,1,0,0:0:0:0:
312,192,42960,1,0,0:0:0:0:
28,192,42960,1,0,0:0:0:0:
256,192,43046,1,0,0:0:0:0:
426,192,43132,1,0,0:0:0:0:
28,192,43132,1,0,0:0:0:0:
483,192,43217,1,0,0:0:0:0:
312,192,43303,1,0,0:0:0:0:
28,192,43303,1,0,0:0:0:0:
256,192,43389,1,0,0:0:0:0:
426,192,43475,1,0,0:0:0:0:
28,192,43475,1,0,0:0:0:0:
483,192,43560,1,0,0:0:0:0:
312,192,43646,1,0,0:0:0:0:
28,192,43646,1,0,0:0:0:0:
256,192,43732,1,0,0:0:0:0:
426,192,43817,1,0,0:0:0:0:
28,192,43817,1,0,0:0:0:0:
483,192,43903,1,0,0:0:0:0:
312,192,43989,1,0,0:0:0:0:
28,192,43989,1,0,0:0:0:0:
256,192,44075,1,0,0:0:0:0:
426,192,44160,1,0,0:0:0:0:
483,192,44246,1,0,0:0:0:0:
312,192,44332,1,0,0:0:0:0:
256,192,44417,1,0,0:0:0:0:
426,192,44503,1,0,0:0:0:0:
483,192,44589,1,0,0:0:0:0:
312,192,44675,1,0,0:0:0:0:
256,192,44760,1,0,0:0:0:0:
