osu file format v14

[General]
AudioFilename: audio-1.mp3
AudioLeadIn: 0
PreviewTime: -1
Countdown: 1
SampleSet: Normal
StackLeniency: 0.7
Mode: 0
LetterboxInBreaks: 0
WidescreenStoryboard: 0

[Editor]
Bookmarks: 30509
DistanceSpacing: 1.4
BeatDivisor: 4
GridSize: 32
TimelineZoom: 1.9

[Metadata]
Title:After School Navigators
TitleUnicode:After School Navigators
Artist:Niko Yazawa, Rin Hoshizora & Hanayo Koizumi
ArtistUnicode:Niko Yazawa, Rin Hoshizora & Hanayo Koizumi
Creator:ANIMELORD9999
Version:BongoCat
Source:
Tags:
BeatmapID:1795260
BeatmapSetID:859112

[Difficulty]
HPDrainRate:4
CircleSize:3
OverallDifficulty:8
ApproachRate:9
SliderMultiplier:1.4
SliderTickRate:1

[Events]
//Background and Video events
0,0,"bg.jpg",0,0
//Break Periods
//Storyboard Layer 0 (Background)
//Storyboard Layer 1 (Fail)
//Storyboard Layer 2 (Pass)
//Storyboard Layer 3 (Foreground)
//Storyboard Sound Samples

[TimingPoints]
509,300,4,1,0,100,1,0
509,-133.333333333333,4,1,0,100,0,0
25409,-133.333333333333,4,1,0,100,0,0
27209,-66.6666666666667,4,1,0,100,0,0
29009,-133.333333333333,4,1,0,100,0,0

[HitObjects]
83,144,509,6,0,P|120:108|175:100,1,105.000004005432
283,110,1109,1,0,0:0:0:0:
370,169,1409,1,0,0:0:0:0:
293,263,1709,2,0,L|192:296,3,105.000004005432
382,129,2909,2,0,P|348:202|306:211,1,105.000004005432
221,222,3509,1,0,0:0:0:0:
106,213,3809,1,0,0:0:0:0:
121,103,4109,2,0,L|226:75,3,105.000004005432
325,63,5309,1,0,0:0:0:0:
198,174,5609,1,0,0:0:0:0:
379,215,5909,2,0,P|366:279|334:308,1,105.000004005432
229,312,6509,2,0,L|103:302,3,105.000004005432
95,153,7709,2,0,P|140:115|208:142,1,105.000004005432
218,223,8309,2,0,P|148:201|149:149,1,105.000004005432
156,66,8909,2,0,L|265:50,3,105.000004005432
415,238,10109,1,0,0:0:0:0:
417,243,10409,1,0,0:0:0:0:
415,238,10709,2,0,P|372:190|315:188,1,105.000004005432
282,262,11309,1,0,0:0:0:0:
208,158,11609,1,0,0:0:0:0:
151,244,11909,1,0,0:0:0:0:
97,318,12209,1,0,0:0:0:0:
234,340,12509,2,0,P|301:318|313:264,1,105.000004005432
298,161,13109,2,0,P|221:96|176:93,1,105.000004005432
99,149,13709,1,0,0:0:0:0:
177,190,14009,1,0,0:0:0:0:
256,227,14309,1,0,0:0:0:0:
337,263,14609,1,0,0:0:0:0:
179,305,14909,2,0,P|101:338|70:337,1,105.000004005432
69,171,15509,2,0,P|121:127|180:133,1,105.000004005432
292,121,16109,2,0,L|395:87,1,105.000004005432
301,215,16709,2,0,L|422:239,1,105.000004005432
315,304,17309,2,0,L|408:364,1,105.000004005432
225,253,17909,2,0,L|201:141,1,105.000004005432
192,191,18509,2,0,L|314:166,2,105.000004005432
197,100,19409,1,0,0:0:0:0:
136,273,19559,1,0,0:0:0:0:
136,273,19634,1,0,0:0:0:0:
136,273,19709,2,0,L|161:219,1,52.5000020027161
266,297,20159,1,0,0:0:0:0:
123,270,20309,2,0,L|156:217,1,52.5000020027161
302,115,22109,1,0,0:0:0:0:
302,115,22184,1,0,0:0:0:0:
302,115,22259,1,0,0:0:0:0:
192,73,22559,1,0,0:0:0:0:
302,115,22709,2,0,L|277:176,1,52.5000020027161
114,201,24509,1,0,0:0:0:0:
114,201,24584,1,0,0:0:0:0:
114,201,24659,1,0,0:0:0:0:
103,73,24809,1,0,0:0:0:0:
114,201,24959,2,0,L|228:167,1,105.000004005432
278,222,25259,1,0,0:0:0:0:
194,294,25409,2,0,P|167:317|134:306,9,52.5000020027161
108,72,26909,1,0,0:0:0:0:
182,135,27059,1,0,0:0:0:0:
255,196,27209,1,0,0:0:0:0:
404,72,27359,1,0,0:0:0:0:
330,135,27509,1,0,0:0:0:0:
255,196,27659,2,0,L|146:268,1,105.000004005432
168,144,27959,1,0,0:0:0:0:
380,254,28109,1,0,0:0:0:0:
302,30,28259,1,0,0:0:0:0:
161,273,28409,1,0,0:0:0:0:
436,80,28559,1,0,0:0:0:0:
73,173,28709,1,0,0:0:0:0:
400,295,29009,2,0,L|455:324,1,52.5000020027161
60,95,29309,2,0,L|115:71,1,52.5000020027161
237,111,29609,1,0,0:0:0:0:
237,111,29684,1,0,0:0:0:0:
237,111,29759,1,0,0:0:0:0:
354,178,29909,1,0,0:0:0:0:
354,178,29984,1,0,0:0:0:0:
354,178,30059,1,0,0:0:0:0:
149,230,30209,1,0,0:0:0:0:
149,230,30284,1,0,0:0:0:0:
149,230,30359,1,0,0:0:0:0:
311,94,30509,2,0,P|338:75|338:75,2,26.2500010013581
149,230,30809,1,0,0:0:0:0:
361,152,30959,2,0,P|394:155|394:155,2,26.2500010013581
149,230,31259,1,0,0:0:0:0:
271,82,31409,2,0,L|318:47,1,52.5000020027161
383,180,31709,1,0,0:0:0:0:
256,264,31859,2,0,L|201:288,6,52.5000020027161
363,232,32909,1,0,0:0:0:0:
199,122,33059,1,0,0:0:0:0:
199,122,33134,1,0,0:0:0:0:
199,122,33209,1,0,0:0:0:0:
335,118,33359,1,0,0:0:0:0:
362,205,33509,2,0,P|362:232|326:261,1,52.5000020027161
144,165,33809,1,0,0:0:0:0:
68,313,33959,1,0,0:0:0:0:
231,180,34109,1,0,0:0:0:0:
406,299,34259,1,0,0:0:0:0:
406,299,34334,1,0,0:0:0:0:
406,299,34409,1,0,0:0:0:0:
135,250,34559,1,0,0:0:0:0:
135,250,34634,1,0,0:0:0:0:
135,250,34709,1,0,0:0:0:0:
381,140,34859,1,0,0:0:0:0:
381,140,34934,1,0,0:0:0:0:
381,140,35009,1,0,0:0:0:0:
253,87,35159,1,0,0:0:0:0:
129,107,35309,2,0,L|112:73,3,26.2500010013581
256,192,35609,1,0,0:0:0:0:
383,277,35759,2,0,L|400:311,3,26.2500010013581
256,192,36059,1,0,0:0:0:0:
144,132,36209,2,0,L|202:83,1,52.5000020027161
322,84,36659,1,0,0:0:0:0:
315,224,36809,2,0,L|272:258,1,52.5000020027161
358,182,37109,1,0,0:0:0:0:
218,186,37259,2,0,L|180:146,1,52.5000020027161
291,70,37559,2,0,P|341:71|381:122,1,105.000004005432
378,218,38009,1,0,0:0:0:0:
146,218,38159,1,0,0:0:0:0:
312,91,38309,1,0,0:0:0:0:
309,312,38459,1,0,0:0:0:0:
131,101,38609,1,0,0:0:0:0:
431,305,38759,1,0,0:0:0:0:
178,321,38909,5,0,0:0:0:0:
178,321,39059,1,0,0:0:0:0:
353,86,41309,1,0,0:0:0:0:
353,86,41459,1,0,0:0:0:0:
242,168,41909,2,0,L|298:126,1,52.5000020027161
353,86,42359,1,0,0:0:0:0:
202,84,42509,1,0,0:0:0:0:
175,86,42584,1,0,0:0:0:0:
151,95,42659,1,0,0:0:0:0:
130,111,42734,1,0,0:0:0:0:
115,132,42809,1,0,0:0:0:0:
107,157,42884,1,0,0:0:0:0:
105,183,42959,1,0,0:0:0:0:
112,208,43034,1,0,0:0:0:0:
125,231,43109,1,0,0:0:0:0:
145,248,43184,1,0,0:0:0:0:
168,260,43259,1,0,0:0:0:0:
194,264,43334,1,0,0:0:0:0:
220,261,43409,1,0,0:0:0:0:
244,250,43484,1,0,0:0:0:0:
264,240,43559,1,0,0:0:0:0:
281,231,43634,1,0,0:0:0:0:
376,118,43859,1,0,0:0:0:0:
259,82,44009,1,0,0:0:0:0:
141,93,44159,2,0,L|87:115,1,52.5000020027161
240,293,44459,2,0,L|290:278,1,52.5000020027161
428,237,44759,2,0,L|392:179,1,52.5000020027161
293,78,45059,1,0,0:0:0:0:
192,114,45209,1,0,0:0:0:0:
106,180,45359,2,0,P|98:243|146:278,1,105.000004005432
240,152,46109,1,0,0:0:0:0:
287,293,46259,1,0,0:0:0:0:
401,335,46409,1,0,0:0:0:0:
391,221,46559,1,0,0:0:0:0:
366,77,46709,2,0,L|306:52,1,52.5000020027161
183,195,47009,2,0,L|131:226,1,52.5000020027161
182,313,47309,1,0,0:0:0:0:
356,163,47459,1,0,0:0:0:0:
292,331,47609,1,0,0:0:0:0:
129,122,47759,2,0,P|161:91|181:87,1,52.5000020027161
307,100,48059,1,0,0:0:0:0:
237,250,48209,1,0,0:0:0:0:
237,250,48284,1,0,0:0:0:0:
237,250,48359,1,0,0:0:0:0:
399,138,48509,2,0,L|382:202,1,52.5000020027161
347,277,48809,1,0,0:0:0:0:
211,127,48959,1,0,0:0:0:0:
324,80,49109,1,0,0:0:0:0:
287,198,49259,1,0,0:0:0:0:
230,279,49409,1,0,0:0:0:0:
122,301,49559,1,0,0:0:0:0:
112,94,49709,2,0,L|166:71,1,52.5000020027161
312,98,50009,1,0,0:0:0:0:
425,219,50159,2,0,P|383:284|342:283,1,105.000004005432
98,88,50759,2,0,P|104:110|162:178,1,105.000004005432
306,136,51209,1,0,0:0:0:0:
169,271,51359,1,0,0:0:0:0:
375,253,51509,1,0,0:0:0:0:
230,171,51809,1,0,0:0:0:0:
425,80,51959,2,0,P|418:104|356:177,1,105.000004005432
202,132,52409,1,0,0:0:0:0:
349,276,52559,1,0,0:0:0:0:
123,246,52709,2,0,L|162:186,1,52.5000020027161
57,133,53009,2,0,P|90:97|114:94,1,52.5000020027161
222,83,53459,1,0,0:0:0:0:
342,151,53609,2,0,P|348:198|340:218,1,52.5000020027161
294,270,53909,1,0,0:0:0:0:
111,249,54059,1,0,0:0:0:0:
294,270,54209,1,0,0:0:0:0:
111,249,54359,1,0,0:0:0:0:
212,328,54509,1,0,0:0:0:0:
386,303,54659,2,0,P|417:273|421:242,1,52.5000020027161
372,142,54959,1,0,0:0:0:0:
248,108,55259,1,0,0:0:0:0:
178,174,55409,1,0,0:0:0:0:
181,286,55559,1,0,0:0:0:0:
355,307,55859,2,0,L|418:317,6,52.5000020027161
278,263,56909,1,0,0:0:0:0:
115,91,57059,1,0,0:0:0:0:
105,241,57209,1,0,0:0:0:0:
309,130,57359,1,0,0:0:0:0:
179,83,57509,1,0,0:0:0:0:
107,173,57659,1,0,0:0:0:0:
86,203,57734,1,0,0:0:0:0:
82,239,57809,1,0,0:0:0:0:
97,272,57884,1,0,0:0:0:0:
105,307,57959,1,0,0:0:0:0:
92,341,58034,1,0,0:0:0:0:
371,93,58259,1,0,0:0:0:0:
310,286,58409,1,0,0:0:0:0:
141,93,58559,1,0,0:0:0:0:
202,286,58709,1,0,0:0:0:0:
401,66,58859,1,0,0:0:0:0:
324,310,59009,1,0,0:0:0:0:
231,189,59159,1,0,0:0:0:0:
315,95,59309,2,0,L|371:127,1,52.5000020027161
402,300,59609,1,0,0:0:0:0:
231,189,59759,2,0,P|159:174|129:202,1,105.000004005432
389,84,60359,2,0,P|420:146|413:188,1,105.000004005432
300,72,60809,1,0,0:0:0:0:
279,184,60959,1,0,0:0:0:0:
184,72,61109,1,0,0:0:0:0:
205,184,61259,1,0,0:0:0:0:
74,78,61409,1,0,0:0:0:0:
87,178,61559,2,0,P|67:128|80:68,1,105.000004005432
166,71,62009,1,0,0:0:0:0:
229,253,62159,1,0,0:0:0:0:
266,65,62309,1,0,0:0:0:0:
132,266,62459,1,0,0:0:0:0:
211,68,62609,1,0,0:0:0:0:
312,170,62759,1,0,0:0:0:0:
383,262,62909,1,0,0:0:0:0:
335,299,62984,1,0,0:0:0:0:
274,318,63059,1,0,0:0:0:0:
174,304,63209,1,0,0:0:0:0:
91,235,63359,1,0,0:0:0:0:
68,127,63509,1,0,0:0:0:0:
366,83,63809,1,0,0:0:0:0:
176,272,63959,1,0,0:0:0:0:
185,85,64259,1,0,0:0:0:0:
341,278,64409,1,0,0:0:0:0:
408,78,64559,1,0,0:0:0:0:
111,244,64709,1,0,0:0:0:0:
148,321,64859,2,0,L|211:350,1,52.5000020027161
340,216,65159,2,0,L|336:272,1,52.5000020027161
302,344,65459,1,0,0:0:0:0:
302,344,65534,1,0,0:0:0:0:
302,344,65609,1,0,0:0:0:0:
188,158,65759,1,0,0:0:0:0:
302,344,65909,1,0,0:0:0:0:
125,253,66209,1,0,0:0:0:0:
358,78,66359,1,0,0:0:0:0:
154,95,66659,1,0,0:0:0:0:
311,259,66809,1,0,0:0:0:0:
377,118,66959,1,0,0:0:0:0:
122,214,67109,1,0,0:0:0:0:
314,69,67259,1,0,0:0:0:0:
235,317,67409,1,0,0:0:0:0:
83,107,67709,1,0,0:0:0:0:
83,107,67784,1,0,0:0:0:0:
83,107,67859,1,0,0:0:0:0:
276,183,68009,1,0,0:0:0:0:
83,107,68159,1,0,0:0:0:0:
276,183,68309,1,0,0:0:0:0:
99,264,69659,2,0,P|120:220|143:210,1,52.5000020027161
215,197,69959,1,0,0:0:0:0:
273,207,70034,1,0,0:0:0:0:
336,224,70109,1,0,0:0:0:0:
442,313,70259,2,0,L|387:316,1,52.5000020027161
131,222,70559,1,0,0:0:0:0:
386,315,70709,1,0,0:0:0:0:
247,132,70859,1,0,0:0:0:0:
44,253,71009,2,0,L|86:312,1,52.5000020027161
334,250,71459,2,0,L|291:302,1,52.5000020027161
92,112,71759,1,0,0:0:0:0:
170,276,71909,1,0,0:0:0:0:
