osu file format v14

[General]
AudioFilename: audio.ogg
AudioLeadIn: 0
PreviewTime: 26378
Countdown: 0
SampleSet: Soft
StackLeniency: 0.5
Mode: 0
LetterboxInBreaks: 0
WidescreenStoryboard: 0

[Editor]
Bookmarks: 13994,27921,40302,52682,65062,77442,89823,102203,114583,126963,139344,151724,164104,176484,188864,201245,213625,226005,238385,250766,263146,275526,287906,300286
DistanceSpacing: 0.6
BeatDivisor: 4
GridSize: 8
TimelineZoom: 1.5

[Metadata]
Title:Night Of Fire (For Christmas Mix)
TitleUnicode:Night Of Fire (For Christmas Mix)
Artist:Niko
ArtistUnicode:Niko
Creator:AJT
Version:Flaming Blizzard
Source:Initial D
Tags:verychill yokespai down animestyle english electronic Bratt Sinclaire eurobeat Style Vol.7 anime maurizio de jorio beatmania iidx 6th style original soundtrack paraparaparadise danceevolution arcade dancemasters dance dance revolution disney mix merry xmas santa
BeatmapID:3932145
BeatmapSetID:1906832

[Difficulty]
HPDrainRate:6
CircleSize:4
OverallDifficulty:8
ApproachRate:8
SliderMultiplier:1.4
SliderTickRate:1

[Events]
//Background and Video events
0,0,"qjUfnVK.jpeg",0,0
//Break Periods
2,176687,188118
2,250770,262400
//Storyboard Layer 0 (Background)
//Storyboard Layer 1 (Fail)
//Storyboard Layer 2 (Pass)
//Storyboard Layer 3 (Foreground)
//Storyboard Layer 4 (Overlay)
//Storyboard Sound Samples

[TimingPoints]
1618,386.882117018944,4,2,1,60,1,0
1618,-83.3333333333333,4,2,1,60,0,0
2004,-83.3333333333333,4,2,1,60,0,0
3165,-62.5,4,2,1,60,0,0
4709,-62.5,4,2,1,60,0,0
4713,-83.3333333333333,4,2,1,50,0,0
7804,-83.3333333333333,4,2,1,50,0,0
7808,-83.3333333333333,4,2,1,60,0,0
9355,-62.5,4,2,1,60,0,0
10899,-62.5,4,2,1,60,0,0
10903,-83.3333333333333,4,2,1,50,0,0
13031,-83.3333333333333,4,2,1,50,0,0
13804,-125,4,2,1,50,0,0
13994,-125,4,2,1,50,0,0
13998,-133.333333333333,4,2,1,60,0,0
17282,-133.333333333333,4,2,1,60,0,0
17286,-100,4,2,1,70,0,0
18636,-100,4,2,1,70,0,0
18640,-100,4,2,1,60,0,0
23472,-100,4,2,1,60,0,0
23476,-100,4,2,1,70,0,0
24826,-100,4,2,1,70,0,0
24830,-50,4,2,1,60,0,0
27921,-50,4,2,1,60,0,0
27925,-55.5555555555556,4,2,1,75,0,0
28312,-66.6666666666667,4,2,1,75,0,0
31021,-50,4,2,1,75,0,0
31407,-66.6666666666667,4,2,1,75,0,0
34116,-50,4,2,1,75,0,0
34502,-66.6666666666667,4,2,1,75,0,0
37211,-50,4,2,1,75,0,0
37598,-66.6666666666667,4,2,1,75,0,0
38758,-55.5555555555556,4,2,1,75,0,0
40112,-100,4,2,1,75,0,0
40302,-100,4,2,1,75,0,0
40306,-55.5555555555556,4,2,1,65,0,0
43397,-55.5555555555556,4,2,1,65,0,0
43401,-66.6666666666667,4,2,1,75,0,0
46492,-66.6666666666667,4,2,1,75,0,0
46496,-55.5555555555556,4,2,1,65,0,0
49587,-55.5555555555556,4,2,1,65,0,0
49591,-66.6666666666667,4,2,1,75,0,0
52686,-50,4,2,1,75,0,0
53073,-55.5555555555556,4,2,1,75,0,0
58876,-50,4,2,1,75,0,0
59263,-55.5555555555556,4,2,1,75,0,0
65062,-55.5555555555556,4,2,1,75,0,0
65066,-45.4545454545455,4,2,1,80,0,0
65840,-55.5555555555556,4,2,1,80,0,0
66420,-66.6666666666667,4,2,1,80,0,0
66614,-55.5555555555556,4,2,1,80,0,0
69515,-45.4545454545455,4,2,1,80,0,0
70096,-55.5555555555556,4,2,1,80,0,0
70289,-66.6666666666667,4,2,1,80,0,0
70483,-55.5555555555556,4,2,1,80,0,0
70869,-66.6666666666667,4,2,1,80,0,0
71256,-45.4545454545455,4,2,1,80,0,0
72030,-55.5555555555556,4,2,1,80,0,0
72610,-66.6666666666667,4,2,1,80,0,0
72804,-55.5555555555556,4,2,1,80,0,0
77056,-55.5555555555556,4,2,1,80,0,0
77060,-66.6666666666667,4,2,1,60,0,0
77152,-66.6666666666667,4,2,1,60,0,0
77156,-66.6666666666667,4,2,1,65,0,0
77249,-66.6666666666667,4,2,1,65,0,0
77253,-66.6666666666667,4,2,1,70,0,0
77346,-66.6666666666667,4,2,1,70,0,0
77350,-66.6666666666667,4,2,1,75,0,0
77442,-66.6666666666667,4,2,1,75,0,0
77446,-45.4545454545455,4,2,1,80,0,0
78220,-55.5555555555556,4,2,1,80,0,0
81896,-45.4545454545455,4,2,1,80,0,0
82669,-66.6666666666667,4,2,1,80,0,0
82863,-55.5555555555556,4,2,1,80,0,0
83250,-66.6666666666667,4,2,1,80,0,0
83637,-45.4545454545455,4,2,1,80,0,0
84410,-55.5555555555556,4,2,1,80,0,0
89436,-55.5555555555556,4,2,1,80,0,0
89440,-55.5555555555556,4,2,1,60,0,0
89532,-55.5555555555556,4,2,1,60,0,0
89536,-55.5555555555556,4,2,1,65,0,0
89629,-55.5555555555556,4,2,1,65,0,0
89633,-55.5555555555556,4,2,1,70,0,0
89726,-55.5555555555556,4,2,1,70,0,0
89730,-55.5555555555556,4,2,1,75,0,0
90214,-66.6666666666667,4,2,1,75,0,0
92923,-50,4,2,1,75,0,0
93309,-66.6666666666667,4,2,1,75,0,0
96018,-50,4,2,1,75,0,0
96404,-66.6666666666667,4,2,1,75,0,0
99500,-66.6666666666667,4,2,1,75,0,0
100660,-55.5555555555556,4,2,1,75,0,0
102013,-100,4,2,1,75,0,0
102204,-100,4,2,1,75,0,0
102207,-55.5555555555556,4,2,1,65,0,0
105299,-55.5555555555556,4,2,1,65,0,0
105302,-66.6666666666667,4,2,1,75,0,0
108394,-66.6666666666667,4,2,1,75,0,0
108397,-55.5555555555556,4,2,1,65,0,0
111489,-55.5555555555556,4,2,1,65,0,0
111492,-66.6666666666667,4,2,1,75,0,0
114587,-50,4,2,1,75,0,0
114974,-55.5555555555556,4,2,1,75,0,0
120777,-50,4,2,1,75,0,0
121164,-55.5555555555556,4,2,1,75,0,0
126964,-55.5555555555556,4,2,1,75,0,0
126967,-45.4545454545455,4,2,1,80,0,0
127741,-55.5555555555556,4,2,1,80,0,0
128321,-66.6666666666667,4,2,1,80,0,0
128515,-55.5555555555556,4,2,1,80,0,0
131416,-45.4545454545455,4,2,1,80,0,0
131997,-55.5555555555556,4,2,1,80,0,0
132190,-66.6666666666667,4,2,1,80,0,0
132384,-55.5555555555556,4,2,1,80,0,0
132770,-66.6666666666667,4,2,1,80,0,0
133157,-45.4545454545455,4,2,1,80,0,0
133931,-55.5555555555556,4,2,1,80,0,0
134511,-66.6666666666667,4,2,1,80,0,0
134705,-55.5555555555556,4,2,1,80,0,0
138958,-55.5555555555556,4,2,1,80,0,0
138961,-66.6666666666667,4,2,1,60,0,0
139054,-66.6666666666667,4,2,1,60,0,0
139058,-66.6666666666667,4,2,1,65,0,0
139151,-66.6666666666667,4,2,1,65,0,0
139155,-66.6666666666667,4,2,1,70,0,0
139248,-66.6666666666667,4,2,1,75,0,0
139252,-66.6666666666667,4,2,1,75,0,0
139344,-66.6666666666667,4,2,1,75,0,0
139348,-45.4545454545455,4,2,1,80,0,0
140122,-55.5555555555556,4,2,1,80,0,0
140702,-66.6666666666667,4,2,1,80,0,0
141089,-55.5555555555556,4,2,1,80,0,0
143797,-45.4545454545455,4,2,1,80,0,0
144378,-55.5555555555556,4,2,1,80,0,0
144764,-66.6666666666667,4,2,1,80,0,0
145151,-66.6666666666667,4,2,1,80,0,0
145538,-45.4545454545455,4,2,1,80,0,0
146312,-55.5555555555556,4,2,1,80,0,0
146892,-66.6666666666667,4,2,1,80,0,0
147085,-66.6666666666667,4,2,1,80,0,0
148246,-55.5555555555556,4,2,1,80,0,0
151338,-55.5555555555556,4,2,1,80,0,0
151342,-66.6666666666667,4,2,1,60,0,0
151434,-66.6666666666667,4,2,1,60,0,0
151438,-66.6666666666667,4,2,1,65,0,0
151531,-66.6666666666667,4,2,1,65,0,0
151535,-66.6666666666667,4,2,1,70,0,0
151628,-66.6666666666667,4,2,1,70,0,0
151632,-66.6666666666667,4,2,1,75,0,0
151728,-55.5555555555556,4,2,1,75,0,0
152115,-66.6666666666667,4,2,1,75,0,0
154823,-55.5555555555556,4,2,1,75,0,0
155210,-66.6666666666667,4,2,1,75,0,0
157918,-55.5555555555556,4,2,1,75,0,0
158305,-66.6666666666667,4,2,1,75,0,0
161013,-55.5555555555556,4,2,1,75,0,0
161400,-66.6666666666667,4,2,1,75,0,0
162560,-55.5555555555556,4,2,1,75,0,0
163915,-100,4,2,1,75,0,0
164104,-100,4,2,1,75,0,0
164108,-80,4,2,1,50,0,0
167199,-80,4,2,1,50,0,0
167203,-80,4,2,1,75,0,0
170294,-80,4,2,1,75,0,0
170298,-80,4,2,1,50,0,0
173389,-80,4,2,1,50,0,0
173393,-66.6666666666667,4,2,1,75,0,0
176488,-100,4,2,1,75,0,0
188864,-100,4,2,1,75,0,0
188868,-45.4545454545455,4,2,1,80,0,0
189642,-55.5555555555556,4,2,1,80,0,0
190222,-66.6666666666667,4,2,1,80,0,0
190416,-55.5555555555556,4,2,1,80,0,0
193317,-45.4545454545455,4,2,1,80,0,0
193898,-55.5555555555556,4,2,1,80,0,0
194091,-66.6666666666667,4,2,1,80,0,0
194285,-55.5555555555556,4,2,1,80,0,0
194671,-66.6666666666667,4,2,1,80,0,0
195058,-45.4545454545455,4,2,1,80,0,0
195832,-55.5555555555556,4,2,1,80,0,0
196412,-66.6666666666667,4,2,1,80,0,0
196606,-55.5555555555556,4,2,1,80,0,0
200858,-55.5555555555556,4,2,1,80,0,0
200862,-66.6666666666667,4,2,1,60,0,0
200954,-66.6666666666667,4,2,1,60,0,0
200958,-66.6666666666667,4,2,1,65,0,0
201051,-66.6666666666667,4,2,1,65,0,0
201055,-66.6666666666667,4,2,1,70,0,0
201148,-66.6666666666667,4,2,1,70,0,0
201152,-66.6666666666667,4,2,1,75,0,0
201245,-66.6666666666667,4,2,1,75,0,0
201249,-45.4545454545455,4,2,1,80,0,0
202022,-55.5555555555556,4,2,1,80,0,0
203570,-66.6666666666667,4,2,1,80,0,0
205698,-45.4545454545455,4,2,1,80,0,0
206278,-55.5555555555556,4,2,1,80,0,0
207052,-66.6666666666667,4,2,1,80,0,0
207439,-45.4545454545455,4,2,1,80,0,0
208213,-55.5555555555556,4,2,1,80,0,0
209760,-66.6666666666667,4,2,1,80,0,0
213238,-66.6666666666667,4,2,1,80,0,0
213242,-66.6666666666667,4,2,1,60,0,0
213334,-66.6666666666667,4,2,1,60,0,0
213338,-66.6666666666667,4,2,1,65,0,0
213431,-66.6666666666667,4,2,1,65,0,0
213435,-66.6666666666667,4,2,1,70,0,0
213528,-66.6666666666667,4,2,1,70,0,0
213532,-66.6666666666667,4,2,1,75,0,0
226005,-66.6666666666667,4,2,1,75,0,0
226009,-100,4,2,1,65,0,0
229100,-100,4,2,1,65,0,0
229104,-66.6666666666667,4,2,1,75,0,0
232195,-66.6666666666667,4,2,1,75,0,0
232199,-100,4,2,1,65,0,0
235290,-100,4,2,1,65,0,0
235294,-66.6666666666667,4,2,1,75,0,0
238389,-83.3333333333333,4,2,1,75,0,0
250766,-83.3333333333333,4,2,1,75,0,0
250770,-83.3333333333333,4,2,1,80,0,0
263146,-83.3333333333333,4,2,1,80,0,0
263150,-45.4545454545455,4,2,1,75,0,0
263924,-55.5555555555556,4,2,1,75,0,0
264504,-66.6666666666667,4,2,1,75,0,0
264698,-55.5555555555556,4,2,1,75,0,0
267599,-45.4545454545455,4,2,1,75,0,0
268180,-55.5555555555556,4,2,1,75,0,0
268373,-66.6666666666667,4,2,1,75,0,0
268567,-55.5555555555556,4,2,1,75,0,0
268953,-66.6666666666667,4,2,1,75,0,0
269340,-45.4545454545455,4,2,1,75,0,0
270114,-55.5555555555556,4,2,1,75,0,0
270694,-66.6666666666667,4,2,1,75,0,0
270888,-55.5555555555556,4,2,1,75,0,0
275144,-66.6666666666667,4,2,1,75,0,0
275526,-66.6666666666667,4,2,1,75,0,0
275531,-66.6666666666667,4,2,1,70,0,0
277078,-50,4,2,1,70,0,0
278625,-66.6666666666667,4,2,1,70,0,0
280173,-50,4,2,1,70,0,0
281720,-66.6666666666667,4,2,1,70,0,0
283268,-50,4,2,1,70,0,0
284815,-66.6666666666667,4,2,1,70,0,0
286363,-50,4,2,1,70,0,0
287906,-50,4,2,1,70,0,0
287910,-55.5555555555556,4,2,1,75,0,0
288297,-66.6666666666667,4,2,1,75,0,0
291005,-55.5555555555556,4,2,1,75,0,0
291586,-66.6666666666667,4,2,1,75,0,0
294100,-55.5555555555556,4,2,1,75,0,0
294487,-66.6666666666667,4,2,1,75,0,0
297195,-55.5555555555556,4,2,1,75,0,0
297582,-66.6666666666667,4,2,1,75,0,0
298743,-45.4545454545455,4,2,1,75,0,0
300097,-66.6666666666667,4,2,1,75,0,0
300286,-66.6666666666667,4,2,1,75,0,0
300290,-66.6666666666667,4,2,1,50,0,0

[Colours]
Combo1 : 55,255,55
Combo2 : 87,87,87
Combo3 : 255,66,66
Combo4 : 192,192,192

[HitObjects]
172,228,1618,6,0,B|127:243|127:243|82:310|82:310|42:243|42:243|0:224,1,251.999992309571,6|2,1:2|3:2,0:0:0:0:
0,224,3165,6,0,P|26:118|40:-2,1,224,4|0,1:2|0:0,0:0:0:0:
266,352,3939,2,0,B|295:292|274:245|248:250|225:201|253:138,1,224,4|0,1:2|0:0,0:0:0:0:
495,29,4713,5,2,2:3:0:0:
495,29,4906,1,2,3:3:0:0:
338,75,5099,2,0,P|380:79|422:83,1,83.9999974365235,2|2,2:3|3:3,0:0:0:0:
505,45,5486,2,0,L|503:86,3,41.9999987182618,2|2|2|2,2:3|2:3|3:3|2:3,0:0:0:0:
350,167,5970,1,2,2:3:0:0:
350,167,6067,1,2,3:3:0:0:
350,167,6163,1,2,2:3:0:0:
350,167,6260,6,0,L|348:208,3,41.9999987182618,2|2|6|2,2:3|2:3|3:3|2:3,0:0:0:0:
277,245,6647,2,0,L|360:241,1,83.9999974365235,6|6,2:3|3:3,0:0:0:0:
512,377,7034,2,0,L|344:384,1,167.999994873047,6|6,2:3|2:3,0:0:0:0:
344,384,7808,5,4,1:2:0:0:
360,240,8001,2,0,B|372:178|372:178|343:149|343:149|355:86,1,167.999994873047,2|2,3:2|3:2,0:0:0:0:
355,86,9355,6,0,P|243:76|134:46,1,224,4|0,1:2|0:0,0:0:0:0:
512,193,10129,2,0,B|446:180|406:212|418:236|376:271|309:260,1,224,4|0,1:2|0:0,0:0:0:0:
33,376,10903,5,2,2:3:0:0:
33,376,11096,1,2,3:3:0:0:
91,242,11289,2,0,P|94:283|99:325,1,83.9999974365235,2|2,2:3|3:3,0:0:0:0:
15,366,11676,2,0,P|9:327|12:305,3,41.9999987182618,2|2|2|2,2:3|2:3|3:3|2:3,0:0:0:0:
241,358,12160,1,2,2:3:0:0:
241,358,12257,1,2,3:3:0:0:
241,358,12353,1,2,2:3:0:0:
241,358,12450,6,0,P|220:364|206:378,1,41.9999987182618,2|2,1:3|2:3,0:0:0:0:
219,263,12644,1,6,2:3:0:0:
219,263,12740,2,0,P|242:250|278:203,1,83.9999974365235,2|2,1:3|2:3,0:0:0:0:
321,186,13031,2,0,P|340:204|395:224,1,83.9999974365235,6|6,1:3|2:3,0:0:0:0:
425,260,13321,2,0,P|413:284|412:343,1,83.9999974365235,2|2,1:3|2:3,0:0:0:0:
450,366,13611,2,0,P|470:361|485:347,1,41.9999987182618,6|2,1:3|2:3,0:0:0:0:
506,263,13804,2,0,P|512:243|511:225,1,28,2|2,1:3|2:3,0:0:0:0:
508,233,13998,6,0,P|362:183|459:-3,2,420.000016021729,4|4|4,1:1|1:1|1:1,0:0:0:0:
512,344,17286,6,0,L|434:328,1,70,2|2,0:3|0:3,0:0:0:0:
320,365,17673,1,2,0:3:0:0:
192,301,17867,2,0,L|261:287,1,70,2|2,0:3|0:3,0:0:0:0:
320,365,18253,2,0,B|329:324|287:314|297:262,1,105,2|0,0:3|0:0,0:0:0:0:
352,192,18640,5,4,1:1:0:0:
232,352,18834,2,0,P|200:357|164:366,2,70,2|2|2,0:0|0:0|0:0,0:0:0:0:
384,384,19414,1,2,0:0:0:0:
404,299,19608,1,2,0:0:0:0:
424,215,19801,1,2,0:0:0:0:
451,133,19994,1,2,1:2:0:0:
479,245,20188,5,6,1:2:0:0:
395,329,20575,1,6,1:2:0:0:
314,213,20962,1,6,1:2:0:0:
304,384,21349,1,0,1:2:0:0:
120,384,21735,5,2,1:2:0:0:
173,371,22122,1,2,1:2:0:0:
226,358,22509,1,2,1:2:0:0:
278,345,22896,1,2,1:2:0:0:
376,128,23283,5,2,1:2:0:0:
512,160,23476,1,2,0:3:0:0:
376,128,23669,1,2,1:3:0:0:
512,160,23862,1,2,0:3:0:0:
328,224,24057,5,2,1:3:0:0:
192,256,24250,1,2,0:3:0:0:
328,224,24443,1,2,1:3:0:0:
192,256,24637,1,2,0:3:0:0:
136,384,24830,6,0,B|157:337|157:337|142:235|142:235|173:160,4,210,0|0|4|0|4,1:2|1:2|1:3|1:2|1:3,0:0:0:0:
192,256,26185,1,0,1:2:0:0:
57,334,26378,5,4,0:0:0:0:
272,304,26571,1,4,0:0:0:0:
192,256,27925,6,0,B|161:250|161:250|124:160,1,125.999996154785,2|2,1:2|0:2,0:0:0:0:
80,45,28312,1,8,1:2:0:0:
80,45,28409,1,0,3:2:0:0:
80,45,28506,2,0,L|149:66,1,52.5000020027161,2|2,0:2|3:2,0:0:0:0:
187,112,28699,5,0,1:2:0:0:
203,105,28795,1,0,3:2:0:0:
219,99,28892,1,2,0:2:0:0:
236,93,28989,2,0,P|247:61|257:37,1,52.5000020027161,2|8,3:2|1:2,0:0:0:0:
374,117,29183,1,0,3:2:0:0:
388,126,29280,2,0,P|355:139|321:159,1,52.5000020027161,2|2,0:2|3:2,0:0:0:0:
246,249,29473,6,0,B|236:267|236:267|261:313,2,52.5000020027161,4|0|10,1:2|3:2|0:2,0:0:0:0:
330,308,29763,1,10,3:2:0:0:
346,316,29860,2,0,L|356:256,1,52.5000020027161,4|0,1:2|3:0,0:0:0:0:
224,142,30053,1,10,0:2:0:0:
208,134,30150,2,0,L|198:194,1,52.5000020027161,6|0,3:2|1:2,0:0:0:0:
339,146,30343,1,0,3:2:0:0:
355,154,30440,2,0,L|365:94,1,52.5000020027161,14|2,0:2|3:2,0:0:0:0:
256,31,30634,1,8,1:2:0:0:
231,39,30730,1,12,3:2:0:0:
206,48,30827,1,2,0:2:0:0:
181,57,30924,1,2,3:2:0:0:
157,68,31021,6,0,B|115:88|115:88|105:129|105:129|55:153,1,140,2|2,1:2|0:2,0:0:0:0:
236,160,31407,1,8,1:2:0:0:
236,160,31504,1,0,3:2:0:0:
236,160,31601,2,0,L|159:136,1,52.5000020027161,2|2,0:2|3:2,0:0:0:0:
247,240,31794,5,0,1:2:0:0:
263,233,31890,1,0,3:2:0:0:
279,227,31987,1,2,0:2:0:0:
296,221,32084,2,0,P|307:189|317:165,1,52.5000020027161,2|8,3:2|1:2,0:0:0:0:
419,134,32278,2,0,B|418:122|418:122|376:82,2,52.5000020027161,0|2|2,3:2|0:2|3:2,0:0:0:0:
387,205,32568,5,4,1:2:0:0:
413,209,32664,1,0,3:2:0:0:
438,217,32761,1,10,0:2:0:0:
462,229,32858,2,0,P|473:200|493:163,2,52.5000020027161,10|4|0,3:2|1:2|3:0,0:0:0:0:
503,301,33148,1,10,0:2:0:0:
511,317,33245,2,0,L|451:327,1,52.5000020027161,6|0,3:2|1:2,0:0:0:0:
377,241,33439,1,0,3:2:0:0:
385,225,33536,2,0,L|325:215,1,52.5000020027161,14|2,0:2|3:2,0:0:0:0:
344,340,33729,6,0,P|331:310|311:275,1,52.5000020027161,8|12,1:2|3:2,0:0:0:0:
271,160,33922,2,0,P|258:190|238:225,1,52.5000020027161,2|2,0:2|3:2,0:0:0:0:
244,306,34116,6,0,B|161:350|161:350|169:281,1,140,2|2,1:2|0:2,0:0:0:0:
100,160,34502,1,8,1:2:0:0:
100,160,34599,1,0,3:2:0:0:
100,160,34696,2,0,P|62:150|37:139,1,52.5000020027161,2|2,0:2|3:2,0:0:0:0:
114,241,34889,5,0,1:2:0:0:
130,234,34985,1,0,3:2:0:0:
146,228,35082,1,2,0:2:0:0:
163,222,35179,2,0,P|174:190|184:166,1,52.5000020027161,2|8,3:2|1:2,0:0:0:0:
174,51,35373,1,0,3:2:0:0:
190,58,35469,1,2,0:2:0:0:
206,64,35566,1,2,3:2:0:0:
223,70,35663,6,0,P|234:102|244:126,2,52.5000020027161,4|0|10,1:2|3:2|0:2,0:0:0:0:
295,39,35953,1,10,3:2:0:0:
309,29,36050,2,0,P|347:46|357:81,1,52.5000020027161,4|0,1:2|3:0,0:0:0:0:
446,49,36243,1,10,0:2:0:0:
461,56,36340,2,0,P|465:97|439:123,1,52.5000020027161,6|0,3:2|1:2,0:0:0:0:
506,197,36534,1,0,3:2:0:0:
507,213,36631,2,0,P|473:237|437:228,1,52.5000020027161,14|2,0:2|3:2,0:0:0:0:
375,304,36824,6,0,P|337:287|327:252,1,52.5000020027161,8|12,1:2|3:2,0:0:0:0:
259,256,37017,2,0,P|254:214|280:188,1,52.5000020027161,2|2,0:2|3:2,0:0:0:0:
314,147,37211,6,0,P|255:161|163:187,1,140,2|2,1:2|0:2,0:0:0:0:
164,79,37598,1,8,1:2:0:0:
164,79,37694,1,0,3:2:0:0:
164,79,37791,2,0,P|199:87|232:94,1,52.5000020027161,2|2,0:2|3:2,0:0:0:0:
178,182,37984,5,0,1:2:0:0:
162,189,38080,1,0,3:2:0:0:
146,195,38177,1,2,0:2:0:0:
129,201,38274,2,0,P|118:233|108:257,1,52.5000020027161,2|8,3:2|1:2,0:0:0:0:
32,338,38468,2,0,B|30:357|30:357|67:394,2,52.5000020027161,0|2|2,3:2|0:2|3:2,0:0:0:0:
108,326,38758,6,0,P|189:302|284:284,1,125.999996154785,4|2,1:2|0:2,0:0:0:0:
274,305,39048,2,0,P|250:224|232:129,1,125.999996154785,6|0,1:2|0:0,0:0:0:0:
252,138,39339,2,0,P|171:162|76:180,1,125.999996154785,4|0,1:2|0:0,0:0:0:0:
86,159,39629,2,0,P|110:240|128:335,1,125.999996154785,4|2,1:2|2:2,0:0:0:0:
108,326,39919,2,0,P|156:330|191:343,1,62.9999980773926,4|4,1:2|2:2,0:0:0:0:
242,371,40112,2,0,P|261:350|286:338,1,35,2|2,1:2|2:2,0:0:0:0:
350,375,40306,6,0,P|342:309|332:246,1,125.999996154785,4|2,1:2|0:0,0:0:0:0:
472,182,40693,2,0,P|479:244|489:306,1,125.999996154785,0|2,1:2|0:0,0:0:0:0:
337,241,41079,1,0,1:2:0:0:
479,307,41273,1,2,0:0:0:0:
325,247,41466,1,0,1:2:0:0:
481,181,41853,6,0,P|419:170|351:162,1,125.999996154785,4|2,1:2|0:0,0:0:0:0:
374,32,42240,2,0,P|436:43|504:51,1,125.999996154785,0|2,1:2|0:0,0:0:0:0:
352,152,42627,1,4,1:2:0:0:
506,58,42820,1,2,0:0:0:0:
346,161,43014,1,0,1:2:0:0:
356,162,43207,1,2,0:0:0:0:
307,85,43401,5,2,1:2:0:0:
307,85,43594,2,0,L|249:73,1,52.5000020027161,2|2,0:2|2:2,0:0:0:0:
163,18,43788,1,8,1:2:0:0:
172,30,43884,2,0,P|176:66|177:90,2,52.5000020027161,0|2|2,3:2|0:2|3:2,0:0:0:0:
104,115,44175,1,0,1:2:0:0:
90,107,44271,1,0,3:2:0:0:
74,102,44368,1,2,0:2:0:0:
58,100,44465,2,0,P|52:69|50:45,1,52.5000020027161,2|8,3:2|1:2,0:0:0:0:
55,182,44658,1,0,3:2:0:0:
65,200,44755,2,0,L|135:204,1,52.5000020027161,2|2,0:2|3:2,0:0:0:0:
194,165,44948,6,0,B|200:176|200:176|236:192,2,52.5000020027161,4|0|10,1:2|3:2|0:2,0:0:0:0:
53,211,45238,1,10,3:2:0:0:
65,200,45335,2,0,L|135:204,1,52.5000020027161,4|0,1:2|3:0,0:0:0:0:
229,280,45529,1,10,0:2:0:0:
217,269,45626,2,0,L|147:273,1,52.5000020027161,6|0,3:2|1:2,0:0:0:0:
9,316,45819,1,0,3:2:0:0:
21,305,45916,2,0,L|91:309,1,52.5000020027161,14|2,0:2|3:2,0:0:0:0:
187,364,46109,6,0,L|239:361,1,52.5000020027161,8|12,1:2|3:2,0:0:0:0:
305,244,46302,2,0,L|357:246,1,52.5000020027161,2|2,0:2|3:2,0:0:0:0:
498,379,46496,6,0,P|502:309|513:224,1,125.999996154785,4|2,1:2|0:0,0:0:0:0:
366,242,46883,2,0,P|362:312|351:397,1,125.999996154785,0|2,1:2|0:0,0:0:0:0:
498,259,47270,1,0,1:2:0:0:
365,367,47463,1,2,0:0:0:0:
501,247,47656,1,0,1:2:0:0:
498,5,48043,6,0,P|502:75|513:160,1,125.999996154785,4|2,1:2|0:0,0:0:0:0:
366,142,48430,2,0,P|362:72|351:-13,1,125.999996154785,0|2,1:2|0:0,0:0:0:0:
498,125,48817,1,4,1:2:0:0:
365,17,49010,1,2,0:0:0:0:
501,137,49203,1,0,1:2:0:0:
508,130,49397,1,2,0:0:0:0:
440,188,49591,5,2,1:2:0:0:
440,188,49784,2,0,L|433:251,1,52.5000020027161,2|2,0:2|2:2,0:0:0:0:
493,300,49978,1,8,1:2:0:0:
502,312,50074,2,0,P|506:348|507:372,2,52.5000020027161,0|2|2,3:2|0:2|3:2,0:0:0:0:
360,269,50365,1,0,1:2:0:0:
354,284,50461,1,0,3:2:0:0:
352,300,50558,1,2,0:2:0:0:
355,316,50655,2,0,P|327:325|304:330,1,52.5000020027161,2|8,3:2|1:2,0:0:0:0:
212,222,50848,1,0,3:2:0:0:
230,232,50945,2,0,L|234:302,1,52.5000020027161,2|2,0:2|3:2,0:0:0:0:
114,219,51138,6,0,B|125:213|125:213|141:177,2,52.5000020027161,4|4|2,1:2|0:0|0:2,0:0:0:0:
160,360,51428,1,6,1:2:0:0:
149,348,51525,2,0,L|153:278,1,52.5000020027161,4|0,2:2|0:0,0:0:0:0:
24,258,51719,1,4,1:2:0:0:
35,246,51816,2,0,L|31:176,1,52.5000020027161,6|0,3:2|0:0,0:0:0:0:
169,153,52009,1,4,1:2:0:0:
158,141,52106,2,0,L|162:71,1,52.5000020027161,6|2,0:2|2:2,0:0:0:0:
12,18,52299,6,0,L|73:25,1,52.5000020027161,4|4,1:2|2:2,0:0:0:0:
154,77,52492,2,0,L|215:70,1,52.5000020027161,2|2,1:2|2:2,0:0:0:0:
304,0,52686,6,0,B|273:6|273:6|244:120,1,140,4|2,1:2|0:0,0:0:0:0:
200,232,53073,1,0,1:2:0:0:
68,369,53266,6,0,P|64:299|53:214,1,125.999996154785,2|0,0:0|1:2,0:0:0:0:
200,232,53653,2,0,P|204:302|215:387,1,125.999996154785,2|0,0:0|1:2,0:0:0:0:
352,208,54040,6,0,B|330:231|330:231|121:160,1,251.999992309571,2|2,0:0|0:0,0:0:0:0:
125,28,54620,1,0,1:2:0:0:
0,125,54814,1,2,0:0:0:0:
57,243,55007,6,0,P|64:306|67:369,1,125.999996154785,0|2,1:2|0:0,0:0:0:0:
210,357,55394,2,0,P|203:294|200:232,1,125.999996154785,0|2,1:2|0:0,0:0:0:0:
262,124,55781,5,4,1:2:0:0:
424,82,55974,1,2,0:0:0:0:
341,94,56168,5,6,1:3:0:0:
347,114,56361,1,6,0:3:0:0:
476,260,56555,5,4,1:2:0:0:
289,309,56748,1,2,0:0:0:0:
385,295,56942,5,6,1:3:0:0:
378,272,57135,1,6,0:3:0:0:
198,377,57329,5,4,1:2:0:0:
239,210,57522,1,2,0:0:0:0:
188,384,57715,1,0,1:2:0:0:
378,272,57909,6,0,B|356:295|356:295|263:315|254:207|147:224,1,251.999992309571,2|2,0:2|0:2,0:0:0:0:
72,280,58489,1,0,1:2:0:0:
123,106,58682,1,2,1:2:0:0:
208,0,58876,6,0,B|239:6|239:6|268:120,1,140,4|2,1:2|0:0,0:0:0:0:
312,232,59263,1,0,1:2:0:0:
444,369,59456,6,0,P|448:299|459:214,1,125.999996154785,2|0,0:0|1:2,0:0:0:0:
312,232,59843,2,0,P|308:302|297:387,1,125.999996154785,2|0,0:0|1:2,0:0:0:0:
160,208,60230,6,0,B|182:231|182:231|391:160,1,251.999992309571,2|2,0:0|0:0,0:0:0:0:
387,28,60810,1,0,1:2:0:0:
512,125,61004,1,2,0:0:0:0:
455,243,61197,6,0,P|448:306|445:369,1,125.999996154785,0|2,1:2|0:0,0:0:0:0:
302,357,61584,2,0,P|309:294|312:232,1,125.999996154785,0|2,1:2|0:0,0:0:0:0:
250,124,61971,5,4,1:2:0:0:
250,124,62551,1,2,0:0:0:0:
35,260,62745,5,4,1:2:0:0:
35,260,63132,1,2,0:0:0:0:
240,384,63325,5,6,1:2:0:0:
240,384,63712,1,2,1:2:0:0:
388,288,63906,1,2,1:2:0:0:
418,149,64099,1,2,1:2:0:0:
360,55,64292,1,2,1:2:0:0:
278,14,64486,1,2,1:2:0:0:
278,14,65066,6,0,B|206:32|206:32|183:114,1,154.000004699707,4|2,1:2|0:2,0:0:0:0:
159,145,65356,1,2,0:2:0:0:
159,145,65453,2,0,B|210:198|210:198|293:177,1,154.000004699707,4|2,1:2|0:2,0:0:0:0:
314,146,65743,1,2,0:2:0:0:
314,146,65840,6,0,L|459:177,1,125.999996154785,4|6,1:2|0:2,0:0:0:0:
300,270,66227,1,0,1:2:0:0:
445,161,66420,2,0,L|429:91,1,52.5000020027161,2|2,0:2|0:2,0:0:0:0:
492,46,66614,6,0,L|368:19,1,125.999996154785,0|2,1:2|0:2,0:0:0:0:
264,205,67001,2,0,L|174:184,2,62.9999980773926,0|0|2,1:2|0:0|0:2,0:0:0:0:
445,161,67387,1,0,1:2:0:0:
429,165,67483,1,2,0:0:0:0:
415,172,67580,1,2,0:2:0:0:
402,180,67677,1,2,0:2:0:0:
390,191,67774,2,0,P|365:256|343:342,1,125.999996154785,0|2,1:2|0:2,0:0:0:0:
200,344,68161,6,0,P|141:321|58:303,1,125.999996154785,0|6,1:2|0:2,0:0:0:0:
67,276,68451,1,2,0:2:0:0:
67,276,68548,2,0,P|81:214|104:156,1,125.999996154785,4|6,1:2|0:2,0:0:0:0:
229,109,68935,5,4,1:2:0:0:
143,0,69128,1,6,0:2:0:0:
227,120,69322,1,4,1:2:0:0:
104,156,69515,6,0,B|152:173|152:173|239:129|158:95|219:37|219:37|312:72,1,308.000009399414,6|2,0:2|0:2,0:0:0:0:
393,137,70096,1,0,1:2:0:0:
313,237,70289,2,0,P|348:243|385:253,1,52.5000020027161,2|2,0:2|0:2,0:0:0:0:
439,280,70483,6,0,P|450:221|476:134,1,125.999996154785,4|2,1:2|0:2,0:0:0:0:
506,18,70869,6,0,P|482:25|431:39,1,52.5000020027161,8|0,1:3|0:0,0:0:0:0:
393,137,71063,2,0,P|369:130|318:116,1,52.5000020027161,4|2,1:3|0:2,0:0:0:0:
307,50,71256,6,0,B|278:74|278:74|153:38,1,154.000004699707,4|2,1:2|0:2,0:0:0:0:
151,78,71546,1,2,0:2:0:0:
151,78,71643,2,0,B|186:91|186:91|217:217,1,154.000004699707,4|2,1:2|0:2,0:0:0:0:
255,223,71933,1,2,0:2:0:0:
255,223,72030,6,0,L|150:292,1,125.999996154785,4|6,1:2|0:2,0:0:0:0:
55,162,72417,1,0,1:2:0:0:
152,304,72610,2,0,L|84:284,1,52.5000020027161,2|2,0:2|0:2,0:0:0:0:
38,338,72804,6,0,P|23:284|-9:196,1,125.999996154785,0|2,1:2|0:2,0:0:0:0:
79,75,73191,2,0,P|69:44|49:-6,2,62.9999980773926,0|0|2,1:2|0:0|0:2,0:0:0:0:
160,224,73578,1,0,1:2:0:0:
176,220,73674,1,2,0:0:0:0:
190,213,73771,1,2,0:2:0:0:
203,205,73868,1,2,0:2:0:0:
215,194,73965,2,0,P|231:129|262:43,1,125.999996154785,0|2,1:2|0:2,0:0:0:0:
370,0,74351,6,0,P|429:23|512:41,1,125.999996154785,0|6,1:2|0:2,0:0:0:0:
503,68,74641,1,2,0:2:0:0:
503,68,74738,2,0,P|480:131|466:188,1,125.999996154785,4|6,1:2|0:2,0:0:0:0:
400,302,75125,5,4,1:2:0:0:
391,282,75319,1,6,0:2:0:0:
308,330,75512,5,4,1:2:0:0:
484,263,75705,1,4,1:1:0:0:
257,157,75899,6,0,P|279:83|298:2,1,125.999996154785,4|2,1:1|1:2,0:0:0:0:
190,76,76286,5,4,1:1:0:0:
362,119,76479,1,2,1:2:0:0:
230,231,76673,5,4,1:1:0:0:
65,276,76866,1,2,1:2:0:0:
91,167,77060,6,0,P|109:202|119:238,1,52.5000020027161,10|10,1:3|1:3,0:0:0:0:
178,287,77253,2,0,P|160:322|150:358,1,52.5000020027161,6|6,1:3|1:3,0:0:0:0:
1,386,77446,6,0,B|19:350|19:350|149:366,1,154.000004699707,4|2,1:2|0:2,0:0:0:0:
174,383,77737,1,2,0:2:0:0:
174,383,77833,2,0,B|192:347|192:347|322:363,1,154.000004699707,4|2,1:2|0:2,0:0:0:0:
347,380,78124,1,2,0:2:0:0:
347,380,78220,6,0,B|495:368,1,125.999996154785,4|6,1:2|0:2,0:0:0:0:
512,296,78607,1,0,1:2:0:0:
379,259,78800,1,2,0:2:0:0:
391,261,78897,1,2,0:2:0:0:
401,254,78994,6,0,P|390:187|370:125,1,125.999996154785,0|2,1:2|0:2,0:0:0:0:
350,111,79284,1,2,0:2:0:0:
350,111,79381,2,0,P|417:100|479:80,1,125.999996154785,0|2,1:2|0:2,0:0:0:0:
389,21,79768,1,0,1:2:0:0:
273,79,79961,1,2,0:2:0:0:
394,12,80155,1,0,1:2:0:0:
264,76,80348,1,2,0:2:0:0:
253,83,80445,1,2,0:2:0:0:
240,85,80541,6,0,P|163:54|104:21,1,125.999996154785,0|6,1:2|0:2,0:0:0:0:
65,155,80928,2,0,P|142:186|201:219,1,125.999996154785,4|6,1:2|0:2,0:0:0:0:
119,41,81315,1,4,1:2:0:0:
185,199,81509,1,6,0:2:0:0:
109,35,81702,1,4,1:2:0:0:
58,164,81896,6,0,B|52:216|52:216|89:280|145:238|181:304|181:304|192:198,1,308.000009399414,6|2,0:2|0:2,0:0:0:0:
111,342,82476,1,0,1:2:0:0:
35,315,82669,2,0,L|28:379,1,52.5000020027161,2|2,0:2|0:2,0:0:0:0:
116,354,82863,6,0,P|181:321|240:303,1,125.999996154785,4|2,1:2|0:2,0:0:0:0:
317,376,83250,6,0,L|310:317,1,52.5000020027161,8|0,1:3|0:0,0:0:0:0:
221,226,83443,2,0,L|228:167,1,52.5000020027161,4|2,1:3|0:2,0:0:0:0:
211,34,83637,6,0,B|256:96|256:96|334:94,1,154.000004699707,4|2,1:2|0:2,0:0:0:0:
372,123,83927,1,2,0:2:0:0:
372,123,84023,2,0,B|409:54|409:54|485:46,1,154.000004699707,4|2,1:2|0:2,0:0:0:0:
497,92,84314,1,2,0:2:0:0:
497,92,84410,6,0,L|512:241,1,125.999996154785,4|6,1:2|0:2,0:0:0:0:
482,294,84797,1,0,1:2:0:0:
405,203,84991,1,2,0:2:0:0:
392,202,85087,1,2,0:2:0:0:
381,210,85184,6,0,P|392:276|412:345,1,125.999996154785,0|2,1:2|0:2,0:0:0:0:
390,358,85474,1,2,0:2:0:0:
390,358,85571,2,0,P|324:369|255:389,1,125.999996154785,0|2,1:2|0:2,0:0:0:0:
310,271,85958,1,0,1:2:0:0:
193,346,86151,1,2,0:2:0:0:
309,260,86345,1,0,1:2:0:0:
185,342,86538,1,2,0:2:0:0:
173,346,86635,1,2,0:2:0:0:
161,340,86732,6,0,P|160:274|167:213,1,125.999996154785,0|6,1:2|0:2,0:0:0:0:
27,207,87118,2,0,P|28:273|21:334,1,125.999996154785,4|6,1:2|0:2,0:0:0:0:
158,220,87505,1,4,1:2:0:0:
30,331,87699,1,6,0:2:0:0:
155,210,87892,1,4,1:2:0:0:
93,384,88086,1,0,1:2:0:0:
0,0,88473,5,4,1:1:0:0:
172,29,88666,1,4,1:1:0:0:
344,58,88859,1,4,1:1:0:0:
512,84,89053,1,4,1:1:0:0:
510,96,89246,1,2,0:0:0:0:
386,128,89440,1,10,1:3:0:0:
384,140,89536,1,10,1:3:0:0:
385,152,89633,1,6,1:3:0:0:
388,164,89730,1,6,1:3:0:0:
393,175,89827,5,2,1:2:0:0:
348,384,90020,1,2,0:2:0:0:
512,288,90213,1,8,1:2:0:0:
512,288,90310,1,0,3:2:0:0:
512,288,90407,2,0,P|481:296|443:309,1,52.5000020027161,2|2,0:2|3:2,0:0:0:0:
430,354,90600,5,0,1:2:0:0:
414,347,90696,1,0,3:2:0:0:
398,341,90793,1,2,0:2:0:0:
381,335,90890,1,2,3:2:0:0:
221,370,91084,1,0,3:2:0:0:
212,384,91181,2,0,P|199:351|179:317,1,52.5000020027161,2|2,0:2|3:2,0:0:0:0:
264,232,91374,6,0,B|274:214|274:214|249:168,2,52.5000020027161,4|0|10,1:2|3:2|0:2,0:0:0:0:
112,304,91664,1,10,3:2:0:0:
120,288,91761,2,0,L|60:278,1,52.5000020027161,4|0,1:2|3:0,0:0:0:0:
280,216,91954,6,0,B|290:198|290:198|265:152,2,52.5000020027161,10|6|0,0:2|3:2|1:2,0:0:0:0:
96,320,92245,1,0,3:2:0:0:
104,304,92342,2,0,L|44:294,1,52.5000020027161,14|2,0:2|3:2,0:0:0:0:
221,370,92535,1,8,1:2:0:0:
247,366,92631,1,12,3:2:0:0:
273,362,92728,1,2,0:2:0:0:
299,358,92825,1,2,3:2:0:0:
334,373,92922,5,2,1:2:0:0:
488,256,93115,1,2,0:2:0:0:
352,192,93308,1,8,1:2:0:0:
352,192,93405,1,0,3:2:0:0:
352,192,93502,2,0,P|343:158|328:115,1,52.5000020027161,2|2,0:2|3:2,0:0:0:0:
320,64,93695,5,0,1:2:0:0:
304,71,93791,1,0,3:2:0:0:
288,77,93888,1,2,0:2:0:0:
271,83,93985,2,0,P|260:115|250:139,1,52.5000020027161,2|8,3:2|1:2,0:0:0:0:
200,272,94179,2,0,B|201:284|201:284|243:324,2,52.5000020027161,0|2|2,3:2|0:2|3:2,0:0:0:0:
112,224,94469,5,4,1:2:0:0:
86,228,94565,1,0,3:2:0:0:
61,236,94662,1,10,0:2:0:0:
37,248,94759,2,0,P|26:219|6:182,2,52.5000020027161,10|4|0,3:2|1:2|3:0,0:0:0:0:
87,360,95049,1,10,0:2:0:0:
79,376,95146,2,0,L|139:386,1,52.5000020027161,6|0,3:2|1:2,0:0:0:0:
200,272,95340,1,0,3:2:0:0:
192,256,95437,2,0,L|252:246,1,52.5000020027161,14|2,0:2|3:2,0:0:0:0:
403,204,95630,6,0,P|390:234|370:269,1,52.5000020027161,8|12,1:2|3:2,0:0:0:0:
326,380,95823,1,2,0:2:0:0:
326,380,95919,1,2,3:2:0:0:
330,384,96017,5,2,1:2:0:0:
288,245,96210,1,2,0:2:0:0:
253,113,96403,1,8,1:2:0:0:
253,113,96500,1,0,3:2:0:0:
253,113,96597,2,0,P|218:109|195:106,1,52.5000020027161,2|2,0:2|3:2,0:0:0:0:
88,168,96790,5,0,1:2:0:0:
104,161,96886,1,0,3:2:0:0:
120,155,96983,1,2,0:2:0:0:
137,149,97080,2,0,P|148:117|180:25,1,105.000004005432,2|0,3:2|3:2,0:0:0:0:
80,8,97370,1,2,0:2:0:0:
74,24,97467,1,2,3:2:0:0:
68,41,97564,6,0,P|36:52|12:62,2,52.5000020027161,4|0|10,1:2|3:2|0:2,0:0:0:0:
248,16,97854,1,10,3:2:0:0:
262,6,97951,2,0,P|300:23|310:58,1,52.5000020027161,4|0,1:2|3:0,0:0:0:0:
399,26,98144,1,10,0:2:0:0:
414,33,98241,2,0,P|418:74|392:100,1,52.5000020027161,6|0,3:2|1:2,0:0:0:0:
459,174,98435,1,0,3:2:0:0:
460,190,98532,2,0,P|426:214|390:205,1,52.5000020027161,14|2,0:2|3:2,0:0:0:0:
401,357,98725,5,8,1:2:0:0:
381,324,98821,1,12,3:2:0:0:
348,305,98918,1,2,0:2:0:0:
312,304,99014,1,2,3:2:0:0:
296,318,99112,6,0,P|310:259|323:202,1,105.000004005432,2|2,1:2|0:2,0:0:0:0:
176,384,99499,1,8,1:2:0:0:
176,384,99595,1,0,3:2:0:0:
176,384,99692,2,0,P|141:376|108:369,1,52.5000020027161,2|2,0:2|3:2,0:0:0:0:
202,288,99885,5,0,1:2:0:0:
195,272,99981,1,0,3:2:0:0:
189,256,100078,1,2,0:2:0:0:
183,239,100175,1,2,3:2:0:0:
20,39,100369,1,0,3:2:0:0:
52,18,100465,1,2,0:2:0:0:
90,24,100563,1,2,3:2:0:0:
108,58,100659,5,4,1:2:0:0:
318,55,100852,5,2,0:2:0:0:
274,79,100949,1,6,1:2:0:0:
242,200,101143,5,0,0:0:0:0:
252,246,101240,1,4,1:2:0:0:
131,213,101433,5,0,0:0:0:0:
86,225,101530,1,4,1:2:0:0:
119,103,101723,5,2,2:2:0:0:
108,58,101820,1,4,1:2:0:0:
274,79,102013,1,2,1:2:0:0:
252,246,102207,6,0,P|320:261|399:275,1,125.999996154785,4|2,1:2|0:0,0:0:0:0:
320,379,102594,2,0,P|252:364|173:350,1,125.999996154785,0|2,1:2|0:0,0:0:0:0:
114,217,102981,1,0,1:2:0:0:
186,361,103174,1,2,0:0:0:0:
121,206,103367,1,0,1:2:0:0:
248,166,103754,6,0,P|230:106|204:43,1,125.999996154785,4|2,1:2|0:0,0:0:0:0:
339,11,104141,2,0,P|357:71|383:134,1,125.999996154785,0|2,1:2|0:0,0:0:0:0:
216,38,104528,1,4,1:2:0:0:
378,140,104722,1,2,0:0:0:0:
216,27,104915,2,0,P|168:60|100:98,1,125.999996154785,0|2,1:2|0:0,0:0:0:0:
17,179,105302,5,2,1:2:0:0:
17,179,105495,2,0,B|40:186|40:186|79:226,1,52.5000020027161,2|2,0:2|2:2,0:0:0:0:
101,270,105689,1,8,1:2:0:0:
88,278,105786,2,0,P|81:311|78:339,2,52.5000020027161,0|2|2,3:2|0:2|3:2,0:0:0:0:
160,321,106076,1,0,1:2:0:0:
174,313,106172,1,0,3:2:0:0:
190,308,106269,1,2,0:2:0:0:
206,306,106366,2,0,P|211:279|217:247,1,52.5000020027161,2|8,3:2|1:2,0:0:0:0:
175,160,106559,1,0,3:2:0:0:
170,145,106656,2,0,P|207:159|233:164,1,52.5000020027161,2|2,0:2|3:2,0:0:0:0:
293,240,106849,6,0,B|310:239|310:239|349:203,2,52.5000020027161,4|0|10,1:2|3:2|0:2,0:0:0:0:
405,257,107140,1,10,3:2:0:0:
422,250,107236,2,0,B|429:234|429:234|417:183,1,52.5000020027161,4|0,1:2|3:0,0:0:0:0:
491,164,107430,1,10,0:2:0:0:
493,145,107526,2,0,B|482:130|482:130|432:115,1,52.5000020027161,6|0,3:2|1:2,0:0:0:0:
445,46,107720,1,0,3:2:0:0:
429,34,107816,2,0,B|411:35|411:35|373:71,1,52.5000020027161,14|2,0:2|3:2,0:0:0:0:
336,214,108010,6,0,L|250:198,1,52.5000020027161,8|12,1:2|3:2,0:0:0:0:
265,106,108204,2,0,L|179:90,1,52.5000020027161,2|2,0:2|3:2,0:0:0:0:
216,16,108397,6,0,P|158:30|85:46,1,125.999996154785,4|2,1:2|0:0,0:0:0:0:
75,201,108784,2,0,P|133:187|206:171,1,125.999996154785,0|2,1:2|0:0,0:0:0:0:
155,318,109171,1,0,1:2:0:0:
207,163,109364,1,2,0:0:0:0:
145,313,109558,1,0,1:2:0:0:
305,292,109944,6,0,P|375:308|432:326,1,125.999996154785,4|2,1:2|0:0,0:0:0:0:
461,192,110331,2,0,P|391:176|334:158,1,125.999996154785,0|2,1:2|0:0,0:0:0:0:
436,316,110718,1,4,1:2:0:0:
332,172,110912,1,2,0:0:0:0:
447,320,111105,2,0,P|396:333|308:363,1,125.999996154785,0|2,1:2|0:0,0:0:0:0:
232,297,111492,5,2,1:2:0:0:
232,297,111685,2,0,P|198:288|163:282,1,52.5000020027161,2|2,0:2|2:2,0:0:0:0:
81,241,111879,1,8,1:2:0:0:
68,248,111976,2,0,P|66:274|58:318,2,52.5000020027161,0|2|2,3:2|0:2|3:2,0:0:0:0:
56,159,112266,1,0,1:2:0:0:
42,151,112362,1,0,3:2:0:0:
26,146,112459,1,2,0:2:0:0:
10,144,112556,2,0,P|5:117|-1:85,1,52.5000020027161,2|8,3:2|1:2,0:0:0:0:
110,38,112749,1,0,3:2:0:0:
125,31,112846,2,0,P|112:72|108:105,1,52.5000020027161,2|2,0:2|3:2,0:0:0:0:
168,198,113040,6,0,L|250:176,2,52.5000020027161,4|4|2,1:2|0:0|0:2,0:0:0:0:
61,210,113330,1,6,1:2:0:0:
57,225,113426,2,0,L|-25:247,1,52.5000020027161,4|0,2:2|0:0,0:0:0:0:
115,147,113620,1,4,1:2:0:0:
100,143,113716,2,0,L|78:61,1,52.5000020027161,6|0,3:2|0:0,0:0:0:0:
124,264,113910,1,4,1:2:0:0:
139,268,114006,2,0,L|161:350,1,52.5000020027161,6|2,0:2|2:2,0:0:0:0:
252,253,114200,6,0,L|320:269,1,52.5000020027161,4|4,1:2|2:2,0:0:0:0:
380,331,114394,2,0,L|448:315,1,52.5000020027161,2|2,1:2|2:2,0:0:0:0:
503,170,114587,6,0,B|475:188|475:188|461:293,1,140,4|2,1:2|0:0,0:0:0:0:
502,372,114974,1,0,1:2:0:0:
385,247,115167,6,0,P|390:186|411:98,1,125.999996154785,2|0,0:0|1:2,0:0:0:0:
272,103,115554,2,0,P|267:164|246:252,1,125.999996154785,2|0,0:0|1:2,0:0:0:0:
512,77,115941,6,0,B|474:117|474:117|278:94,1,251.999992309571,2|2,0:0|0:0,0:0:0:0:
152,49,116521,1,0,1:2:0:0:
131,177,116715,1,2,0:0:0:0:
253,227,116908,6,0,P|266:165|272:103,1,125.999996154785,0|2,1:2|0:0,0:0:0:0:
403,122,117295,2,0,P|390:184|385:247,1,125.999996154785,0|2,1:2|0:0,0:0:0:0:
455,371,117682,5,4,1:2:0:0:
475,212,117876,1,2,0:0:0:0:
458,289,118069,5,6,1:3:0:0:
473,291,118262,1,6,0:3:0:0:
287,163,118456,5,4,1:2:0:0:
312,351,118650,1,2,0:0:0:0:
284,262,118843,5,6,1:3:0:0:
316,258,119036,1,6,0:3:0:0:
146,372,119230,5,4,1:2:0:0:
168,213,119423,1,2,0:0:0:0:
138,380,119617,1,0,1:2:0:0:
13,310,119810,6,0,B|24:247|24:247|112:222|103:320|204:287,1,251.999992309571,2|2,0:2|0:2,0:0:0:0:
178,132,120390,1,0,1:2:0:0:
258,232,120584,1,2,1:2:0:0:
316,354,120777,6,0,B|286:341|286:341|265:202,1,140,4|2,1:2|0:0,0:0:0:0:
307,161,121164,1,0,1:2:0:0:
193,14,121358,6,0,P|186:76|186:139,1,125.999996154785,2|0,0:0|1:2,0:0:0:0:
52,130,121744,2,0,P|58:67|58:4,1,125.999996154785,2|0,0:0|1:2,0:0:0:0:
273,205,122131,6,0,B|235:157|235:157|41:139,1,251.999992309571,2|2,0:0|0:0,0:0:0:0:
0,211,122712,1,0,1:2:0:0:
173,158,122905,1,2,0:0:0:0:
183,151,123002,1,2,0:0:0:0:
186,139,123098,6,0,P|186:76|193:14,1,125.999996154785,0|2,1:2|0:0,0:0:0:0:
58,4,123485,2,0,P|58:67|52:130,1,125.999996154785,0|2,1:2|0:0,0:0:0:0:
0,211,123872,5,4,1:2:0:0:
173,158,124453,1,2,0:0:0:0:
0,211,124646,5,4,1:2:0:0:
226,222,125033,1,2,0:0:0:0:
0,211,125226,5,6,1:2:0:0:
233,299,125613,1,6,1:2:0:0:
173,158,125807,1,6,1:2:0:0:
265,77,126000,1,6,1:2:0:0:
349,126,126194,1,6,1:2:0:0:
332,202,126387,1,6,1:2:0:0:
332,202,126967,6,0,B|350:274|350:274|432:297,1,154.000004699707,4|2,1:2|0:2,0:0:0:0:
512,221,127257,1,2,0:2:0:0:
512,221,127354,2,0,B|494:149|494:149|412:126,1,154.000004699707,4|2,1:2|0:2,0:0:0:0:
423,212,127644,1,2,0:2:0:0:
423,212,127741,5,4,1:2:0:0:
360,384,127934,1,6,0:2:0:0:
240,280,128128,1,0,1:2:0:0:
310,200,128321,2,0,L|294:130,1,52.5000020027161,2|2,0:2|0:2,0:0:0:0:
328,112,128515,5,0,1:2:0:0:
240,0,128708,1,2,0:2:0:0:
216,168,128902,2,0,L|237:258,2,62.9999980773926,0|0|2,1:2|0:0|0:2,0:0:0:0:
205,321,129288,1,0,1:2:0:0:
189,317,129384,1,2,0:0:0:0:
175,310,129481,1,2,0:2:0:0:
162,302,129578,1,2,0:2:0:0:
150,291,129675,2,0,P|125:226|103:140,1,125.999996154785,0|2,1:2|0:2,0:0:0:0:
0,0,130062,5,0,1:2:0:0:
167,94,130255,1,6,0:2:0:0:
167,94,130352,1,2,0:2:0:0:
167,94,130449,2,0,P|229:80|287:57,1,125.999996154785,4|6,1:2|0:2,0:0:0:0:
512,0,130836,5,4,1:2:0:0:
320,63,131029,1,6,0:2:0:0:
512,120,131223,1,4,1:2:0:0:
288,152,131416,2,0,B|312:322,2,154.000004699707,6|0|2,0:2|1:2|0:2,0:0:0:0:
320,63,131997,1,0,1:2:0:0:
512,120,132190,2,0,P|506:155|496:192,1,52.5000020027161,2|2,0:2|0:2,0:0:0:0:
448,248,132384,6,0,P|437:307|411:394,1,125.999996154785,4|2,1:2|0:2,0:0:0:0:
339,344,132674,1,2,0:2:0:0:
339,344,132771,2,0,P|350:285|365:232,1,105.000004005432,8|4,1:3|1:3,0:0:0:0:
296,56,133157,5,4,1:2:0:0:
200,0,133350,1,2,0:2:0:0:
200,0,133447,1,2,0:2:0:0:
200,0,133544,2,0,B|235:13|235:13|266:139,1,154.000004699707,4|2,1:2|0:2,0:0:0:0:
255,223,133834,1,2,0:2:0:0:
255,223,133931,5,4,1:2:0:0:
152,384,134124,1,6,0:2:0:0:
288,344,134318,1,0,1:2:0:0:
88,304,134511,1,2,0:2:0:0:
88,304,134607,1,2,0:2:0:0:
88,304,134705,6,0,P|73:250|41:162,1,125.999996154785,0|2,1:2|0:2,0:0:0:0:
144,56,135092,1,0,1:2:0:0:
0,0,135285,1,2,0:2:0:0:
136,160,135479,1,0,1:2:0:0:
140,144,135575,1,2,0:0:0:0:
147,130,135672,1,2,0:2:0:0:
155,117,135769,1,2,0:2:0:0:
166,105,135866,2,0,P|231:89|317:58,1,125.999996154785,0|2,1:2|0:2,0:0:0:0:
352,0,136252,5,0,1:2:0:0:
336,160,136445,1,6,0:2:0:0:
336,160,136542,1,2,0:2:0:0:
336,160,136639,2,0,P|359:223|373:280,1,125.999996154785,4|6,1:2|0:2,0:0:0:0:
512,336,137026,5,4,1:2:0:0:
388,309,137220,1,6,0:2:0:0:
264,285,137413,1,4,1:2:0:0:
96,384,137607,6,0,P|118:310|137:229,1,125.999996154785,4|4,1:1|1:1,0:0:0:0:
223,135,137993,1,2,1:2:0:0:
49,173,138187,5,4,1:1:0:0:
88,16,138380,1,2,1:2:0:0:
223,135,138574,5,4,1:1:0:0:
264,285,138767,1,2,1:2:0:0:
384,200,138961,5,10,1:3:0:0:
406,171,139057,1,10,1:3:0:0:
414,135,139154,1,6,1:3:0:0:
415,98,139250,1,6,1:3:0:0:
400,70,139348,6,0,B|355:47|355:47|248:92,1,154.000004699707,4|2,1:2|0:2,0:0:0:0:
307,196,139638,1,2,0:2:0:0:
307,196,139734,2,0,B|352:219|352:219|459:174,1,154.000004699707,4|2,1:2|0:2,0:0:0:0:
354,135,140025,1,2,0:2:0:0:
354,135,140121,5,4,1:2:0:0:
227,196,140315,2,0,L|194:324,1,125.999996154785,6|0,0:2|1:2,0:0:0:0:
68,286,140702,2,0,P|59:261|44:222,1,52.5000020027161,2|2,0:2|0:2,0:0:0:0:
0,176,140895,6,0,P|63:156|114:139,1,105.000004005432,0|2,1:2|0:2,0:0:0:0:
134,27,141282,1,0,1:2:0:0:
134,27,141379,1,2,0:0:0:0:
134,27,141475,1,2,0:2:0:0:
260,76,141669,1,0,1:2:0:0:
276,80,141765,1,2,0:0:0:0:
290,87,141862,1,2,0:2:0:0:
303,95,141959,1,2,0:2:0:0:
315,106,142056,2,0,P|327:177|338:260,1,125.999996154785,0|2,1:2|0:2,0:0:0:0:
406,330,142443,5,0,1:2:0:0:
466,205,142636,2,0,P|475:160|488:120,2,62.9999980773926,6|2|4,0:2|0:2|1:2,0:0:0:0:
401,342,143023,1,6,0:2:0:0:
241,239,143216,5,4,1:2:0:0:
398,149,143410,1,6,0:2:0:0:
244,251,143603,1,4,1:2:0:0:
334,107,143797,6,0,B|339:153|399:173|399:173|285:172|331:82|193:107,1,308.000009399414,6|2,0:2|0:2,0:0:0:0:
120,197,144377,1,0,1:2:0:0:
32,124,144570,2,0,P|25:95|12:53,1,62.9999980773926,2|2,0:2|0:2,0:0:0:0:
64,6,144764,6,0,P|98:18|182:54,1,105.000004005432,4|2,1:2|0:2,0:0:0:0:
293,142,145151,6,0,P|280:163|261:196,1,52.5000020027161,8|0,1:3|0:0,0:0:0:0:
211,282,145344,2,0,P|184:273|152:265,1,52.5000020027161,4|2,1:3|0:2,0:0:0:0:
153,356,145538,6,0,B|121:354|121:354|53:226,1,154.000004699707,4|2,1:2|0:2,0:0:0:0:
11,189,145828,1,2,0:2:0:0:
11,189,145925,2,0,B|50:213|50:213|156:172,1,154.000004699707,4|2,1:2|0:2,0:0:0:0:
162,259,146215,1,2,0:2:0:0:
162,259,146311,5,4,1:2:0:0:
280,332,146505,2,0,P|286:281|313:201,1,125.999996154785,6|0,0:2|1:2,0:0:0:0:
427,146,146892,2,0,P|430:179|449:218,1,52.5000020027161,2|2,0:2|0:2,0:0:0:0:
474,289,147085,6,0,P|436:275|355:262,1,105.000004005432,0|2,1:2|0:2,0:0:0:0:
323,135,147472,1,0,1:2:0:0:
202,184,147665,1,2,0:2:0:0:
124,302,147859,1,0,1:2:0:0:
108,298,147955,1,2,0:0:0:0:
94,291,148052,1,2,0:2:0:0:
81,283,148149,1,2,0:2:0:0:
69,272,148246,2,0,P|57:201|37:119,1,125.999996154785,0|2,1:2|0:2,0:0:0:0:
116,18,148633,6,0,P|188:37|276:55,1,125.999996154785,0|6,1:2|0:2,0:0:0:0:
218,122,148923,1,2,0:2:0:0:
218,122,149020,2,0,P|146:103|58:85,1,125.999996154785,4|6,1:2|0:2,0:0:0:0:
148,193,149406,1,4,1:2:0:0:
249,267,149600,1,6,0:2:0:0:
137,197,149793,1,4,1:2:0:0:
202,363,149987,1,0,1:2:0:0:
512,134,150374,5,4,1:1:0:0:
395,24,150567,1,4,1:1:0:0:
383,252,150761,1,4,1:1:0:0:
340,79,150954,1,4,1:1:0:0:
201,230,151147,1,2,0:0:0:0:
265,82,151341,1,10,1:3:0:0:
240,62,151437,1,10,1:3:0:0:
236,30,151534,1,6,1:3:0:0:
256,6,151631,1,6,1:3:0:0:
286,12,151728,6,0,B|268:39|268:39|172:47,1,125.999996154785,2|2,1:2|0:2,0:0:0:0:
49,0,152115,1,8,1:2:0:0:
49,0,152211,1,0,3:2:0:0:
49,0,152308,2,0,L|100:10,1,52.5000020027161,2|2,0:2|3:2,0:0:0:0:
170,140,152502,5,0,1:2:0:0:
154,144,152598,1,0,3:2:0:0:
138,146,152695,1,2,0:2:0:0:
122,144,152792,2,0,P|115:116|101:84,1,52.5000020027161,2|8,3:2|1:2,0:0:0:0:
11,134,152985,1,0,3:2:0:0:
20,121,153082,2,0,P|27:149|41:181,1,52.5000020027161,2|2,0:2|3:2,0:0:0:0:
150,226,153275,6,0,B|168:231|168:231|198:215,2,52.5000020027161,4|0|10,1:2|3:2|0:2,0:0:0:0:
28,269,153565,1,10,3:2:0:0:
31,252,153662,2,0,L|63:307,1,52.5000020027161,4|0,1:2|3:0,0:0:0:0:
141,360,153856,1,10,0:2:0:0:
144,377,153953,2,0,L|176:322,1,52.5000020027161,6|0,3:2|1:2,0:0:0:0:
297,290,154146,1,0,3:2:0:0:
294,307,154243,2,0,L|262:252,1,52.5000020027161,14|2,0:2|3:2,0:0:0:0:
276,154,154436,1,8,1:2:0:0:
289,132,154532,1,12,3:2:0:0:
302,109,154629,1,2,0:2:0:0:
315,86,154726,1,2,3:2:0:0:
328,63,154823,6,0,B|337:46|337:46|423:37|423:37|435:17,1,125.999996154785,2|2,1:2|0:2,0:0:0:0:
507,108,155210,1,8,1:2:0:0:
507,108,155306,1,0,3:2:0:0:
507,108,155403,2,0,L|443:116,1,52.5000020027161,2|2,0:2|3:2,0:0:0:0:
366,153,155597,5,0,1:2:0:0:
375,166,155693,1,0,3:2:0:0:
388,175,155790,1,2,0:2:0:0:
402,182,155887,2,0,P|403:208|403:239,1,52.5000020027161,2|8,3:2|1:2,0:0:0:0:
509,284,156080,2,0,B|503:270|503:270|506:232,2,52.5000020027161,0|2|2,3:2|0:2|3:2,0:0:0:0:
436,358,156371,5,4,1:2:0:0:
416,357,156467,1,0,3:2:0:0:
395,362,156564,1,10,0:2:0:0:
377,373,156661,2,0,P|357:354|341:335,2,52.5000020027161,10|4|0,3:2|1:2|3:0,0:0:0:0:
248,306,156951,1,10,0:2:0:0:
262,294,157047,2,0,L|255:359,1,52.5000020027161,6|0,3:2|1:2,0:0:0:0:
203,202,157241,1,0,3:2:0:0:
189,190,157337,2,0,L|196:255,1,52.5000020027161,14|2,0:2|3:2,0:0:0:0:
266,140,157531,6,0,P|288:128|321:125,1,52.5000020027161,8|12,1:2|3:2,0:0:0:0:
127,71,157724,2,0,P|105:59|72:56,1,52.5000020027161,2|2,0:2|3:2,0:0:0:0:
239,29,157918,6,0,B|333:21|333:21|275:69,1,125.999996154785,2|2,1:2|0:2,0:0:0:0:
459,55,158305,1,8,1:2:0:0:
459,55,158401,1,0,3:2:0:0:
459,55,158498,2,0,L|393:61,1,52.5000020027161,2|2,0:2|3:2,0:0:0:0:
349,180,158692,1,0,1:2:0:0:
351,164,158788,1,0,3:2:0:0:
357,149,158885,1,2,0:2:0:0:
365,135,158982,2,0,P|330:125|307:124,1,52.5000020027161,2|8,3:2|1:2,0:0:0:0:
299,264,159175,1,0,3:2:0:0:
288,251,159272,2,0,P|323:261|346:262,1,52.5000020027161,2|2,0:2|3:2,0:0:0:0:
445,298,159465,6,0,B|453:278|453:278|445:236,2,52.5000020027161,4|0|10,1:2|3:2|0:2,0:0:0:0:
333,361,159756,1,10,3:2:0:0:
318,368,159852,2,0,P|286:356|265:330,1,52.5000020027161,4|0,1:2|3:0,0:0:0:0:
181,353,160046,1,10,0:2:0:0:
167,343,160142,2,0,P|160:310|172:279,1,52.5000020027161,6|0,3:2|1:2,0:0:0:0:
111,216,160336,1,0,3:2:0:0:
113,199,160432,2,0,P|138:177|171:172,1,52.5000020027161,14|2,0:2|3:2,0:0:0:0:
210,80,160626,6,0,P|241:91|262:117,1,52.5000020027161,8|12,1:2|3:2,0:0:0:0:
334,102,160819,2,0,P|340:135|328:165,1,52.5000020027161,2|2,0:2|3:2,0:0:0:0:
263,185,161013,6,0,P|319:167|404:152,1,125.999996154785,2|2,1:2|0:2,0:0:0:0:
471,240,161400,1,8,1:2:0:0:
471,240,161497,1,0,3:2:0:0:
471,240,161593,2,0,L|457:160,1,52.5000020027161,2|2,0:2|3:2,0:0:0:0:
489,36,161787,5,0,1:2:0:0:
483,50,161883,1,0,3:2:0:0:
481,65,161980,1,2,0:2:0:0:
482,80,162077,2,0,P|455:84|427:82,1,52.5000020027161,2|8,3:2|1:2,0:0:0:0:
329,30,162270,2,0,B|347:34|347:34|379:15,2,52.5000020027161,0|2|2,3:2|0:2|3:2,0:0:0:0:
270,90,162560,6,0,P|260:154|258:246,1,125.999996154785,4|2,1:2|0:2,0:0:0:0:
275,258,162851,2,0,P|211:248|119:246,1,125.999996154785,6|0,1:2|0:0,0:0:0:0:
107,263,163141,2,0,P|117:199|119:107,1,125.999996154785,4|0,1:2|0:0,0:0:0:0:
102,95,163431,2,0,P|166:105|258:107,1,125.999996154785,4|2,1:2|2:2,0:0:0:0:
270,90,163721,2,0,P|271:142|294:197,1,62.9999980773926,4|4,1:2|2:2,0:0:0:0:
319,226,163915,2,0,P|293:233|270:251,1,35,2|2,1:2|2:2,0:0:0:0:
275,257,164108,6,0,P|312:264|459:298,3,175,6|0|0|0,1:2|1:2|1:2|1:2,0:0:0:0:
171,341,165656,2,0,P|133:348|-13:382,3,175,6|0|6|0,1:2|1:2|1:2|1:2,0:0:0:0:
311,164,167203,5,2,1:2:0:0:
402,244,167396,1,2,0:2:0:0:
301,333,167590,5,8,1:2:0:0:
276,329,167686,1,0,3:2:0:0:
251,324,167783,1,2,0:2:0:0:
227,317,167880,1,2,3:2:0:0:
203,309,167976,1,0,1:2:0:0:
179,300,168073,1,0,3:2:0:0:
156,289,168170,1,2,0:2:0:0:
133,278,168267,1,2,3:2:0:0:
70,216,168460,2,0,P|81:187|98:158,2,43.75,0|2|2,3:2|0:2|3:2,0:0:0:0:
43,96,168750,5,4,1:2:0:0:
35,80,168847,2,0,L|90:69,1,43.75,0|10,3:2|0:2,0:0:0:0:
179,128,169041,1,10,3:2:0:0:
171,144,169138,2,0,L|226:155,1,43.75,4|0,1:2|3:0,0:0:0:0:
283,40,169331,5,10,0:2:0:0:
275,24,169428,2,0,L|330:13,1,43.75,6|0,3:2|1:2,0:0:0:0:
419,72,169622,1,0,3:2:0:0:
411,88,169719,2,0,L|466:99,1,43.75,14|2,0:2|3:2,0:0:0:0:
512,176,169911,5,8,1:2:0:0:
503,209,170007,1,12,3:2:0:0:
492,242,170104,1,2,1:2:0:0:
480,274,170201,1,2,3:2:0:0:
473,291,170298,6,0,B|406:294|401:359|302:372,3,175,6|0|0|0,1:2|1:2|1:2|1:2,0:0:0:0:
0,378,171846,2,0,P|85:357|171:341,1,175,6|0,1:2|1:2,0:0:0:0:
511,5,172619,2,0,P|426:26|341:43,1,175,6|0,1:2|1:2,0:0:0:0:
201,220,173393,5,2,1:2:0:0:
110,140,173586,1,2,0:2:0:0:
216,32,173780,1,8,1:2:0:0:
245,28,173876,1,0,3:2:0:0:
272,40,173973,1,2,0:2:0:0:
291,62,174070,1,2,3:2:0:0:
310,87,174166,1,0,1:2:0:0:
331,108,174263,1,0,3:2:0:0:
360,118,174360,1,2,0:2:0:0:
390,117,174457,1,2,3:2:0:0:
512,242,174650,5,0,3:2:0:0:
512,242,174747,1,2,0:2:0:0:
512,242,174844,1,2,3:2:0:0:
501,261,174940,5,4,1:2:0:0:
512,275,175037,1,4,0:0:0:0:
361,261,175231,1,6,1:2:0:0:
365,243,175328,1,4,2:2:0:0:
279,370,175521,5,4,1:2:0:0:
291,384,175618,1,6,3:2:0:0:
140,369,175812,1,4,1:2:0:0:
144,352,175909,1,6,0:2:0:0:
80,256,176101,5,4,1:2:0:0:
75,230,176197,1,4,2:2:0:0:
70,204,176294,1,2,1:2:0:0:
63,179,176391,1,2,2:2:0:0:
54,154,176487,1,4,0:0:0:0:
17,147,188868,6,0,B|42:167|42:167|133:84,1,154.000004699707,4|2,1:2|0:2,0:0:0:0:
31,72,189159,1,2,0:2:0:0:
31,72,189255,2,0,B|62:67|62:67|99:184,1,154.000004699707,4|2,1:2|0:2,0:0:0:0:
175,154,189545,1,2,0:2:0:0:
175,154,189642,5,4,1:2:0:0:
328,99,189836,2,0,L|296:273,1,125.999996154785,6|0,0:2|1:2,0:0:0:0:
451,204,190223,2,0,L|468:268,1,52.5000020027161,2|2,0:2|0:2,0:0:0:0:
512,324,190416,6,0,P|475:330|354:351,1,125.999996154785,0|2,1:2|0:3,0:0:0:0:
263,329,190803,1,2,1:3:0:0:
198,243,190996,1,2,0:3:0:0:
266,149,191190,5,2,1:3:0:0:
201,38,191383,1,2,0:3:0:0:
201,38,191480,1,2,0:2:0:0:
201,38,191577,2,0,P|278:66|352:105,1,125.999996154785,2|2,1:3|0:2,0:0:0:0:
448,67,191964,5,0,1:2:0:0:
508,159,192157,2,0,L|483:240,2,62.9999980773926,6|2|4,0:2|0:2|1:2,0:0:0:0:
451,55,192544,1,6,0:2:0:0:
358,156,192737,5,4,1:2:0:0:
315,41,192931,1,6,0:2:0:0:
365,147,193124,1,4,1:2:0:0:
289,114,193318,6,0,B|313:162|378:186|378:186|288:285|288:285|266:229,1,308.000009399414,6|2,0:2|0:2,0:0:0:0:
169,187,193898,1,0,1:2:0:0:
91,247,194091,2,0,L|-7:219,1,52.5000020027161,2|2,0:2|0:2,0:0:0:0:
93,166,194285,6,0,P|61:89|37:43,1,125.999996154785,4|2,1:2|0:2,0:0:0:0:
178,37,194672,6,0,P|203:48|241:81,1,52.5000020027161,8|0,1:3|0:0,0:0:0:0:
304,82,194865,2,0,P|284:112|260:161,1,52.5000020027161,4|2,1:3|0:2,0:0:0:0:
264,204,195059,6,0,B|285:205|285:205|322:284|393:270,1,154.000004699707,4|2,1:2|0:2,0:0:0:0:
376,172,195349,1,2,0:2:0:0:
376,172,195445,2,0,B|358:183|358:183|365:270|297:293,1,154.000004699707,4|2,1:2|0:2,0:0:0:0:
369,351,195736,1,2,0:2:0:0:
369,351,195832,5,4,1:2:0:0:
478,260,196026,2,0,P|489:184|506:113,1,125.999996154785,6|0,0:2|1:2,0:0:0:0:
406,9,196413,2,0,P|417:36|430:74,1,52.5000020027161,2|2,0:2|0:2,0:0:0:0:
504,145,196606,6,0,P|433:135|378:126,1,125.999996154785,0|2,1:2|0:3,0:0:0:0:
295,35,196993,1,2,1:3:0:0:
183,102,197186,1,2,0:3:0:0:
61,168,197380,5,2,1:3:0:0:
184,242,197573,1,2,0:3:0:0:
184,242,197670,1,2,0:2:0:0:
184,242,197767,2,0,P|169:302|160:366,1,125.999996154785,2|2,1:3|0:2,0:0:0:0:
333,256,198154,6,0,P|405:244|497:233,1,125.999996154785,0|6,1:2|0:2,0:0:0:0:
444,160,198444,1,2,0:2:0:0:
444,160,198540,2,0,P|372:172|280:183,1,125.999996154785,4|6,1:2|0:2,0:0:0:0:
215,57,198927,5,4,1:2:0:0:
205,31,199121,1,6,0:2:0:0:
133,80,199314,5,4,1:2:0:0:
288,20,199508,1,4,1:1:0:0:
255,170,199701,6,0,P|237:219|215:313,1,125.999996154785,4|2,1:1|1:2,0:0:0:0:
152,205,200088,5,4,1:1:0:0:
320,249,200281,1,2,1:2:0:0:
329,365,200475,5,4,1:1:0:0:
479,322,200668,1,2,1:2:0:0:
512,197,200862,6,0,P|481:183|433:169,1,52.5000020027161,10|10,1:3|1:3,0:0:0:0:
372,120,201055,2,0,P|358:95|367:56,1,52.5000020027161,6|6,1:3|1:3,0:0:0:0:
499,47,201249,6,0,B|476:98|476:98|364:114,1,154.000004699707,4|2,1:2|0:2,0:0:0:0:
428,7,201539,1,2,0:2:0:0:
428,7,201636,2,0,B|395:52|395:52|437:157,1,154.000004699707,4|2,1:2|0:2,0:0:0:0:
365,191,201926,1,2,0:2:0:0:
365,191,202022,5,4,1:2:0:0:
297,44,202216,2,0,L|280:174,1,125.999996154785,6|0,0:2|1:2,0:0:0:0:
199,87,202603,1,2,0:2:0:0:
201,98,202699,1,2,0:2:0:0:
203,110,202796,1,0,1:2:0:0:
24,29,202990,5,2,0:3:0:0:
118,106,203183,1,2,1:3:0:0:
45,149,203377,1,2,0:3:0:0:
53,158,203473,1,2,0:2:0:0:
49,170,203570,2,0,L|43:277,2,105.000004005432,2|2|2,1:3|0:3|1:3,0:0:0:0:
133,238,204150,1,2,0:2:0:0:
131,226,204247,1,2,0:2:0:0:
129,215,204343,1,0,1:2:0:0:
291,253,204537,5,6,0:2:0:0:
175,311,204731,1,4,1:2:0:0:
283,382,204924,1,6,0:2:0:0:
209,185,205117,1,4,1:2:0:0:
385,301,205311,1,6,0:2:0:0:
339,178,205504,1,4,1:2:0:0:
394,298,205698,6,0,B|415:265|410:219|410:219|449:230|449:230|410:120|410:120|445:139|492:138,1,308.000009399414,6|2,0:2|0:2,0:0:0:0:
354,59,206278,1,0,1:2:0:0:
254,66,206472,1,2,0:2:0:0:
265,69,206568,1,2,0:2:0:0:
275,76,206665,2,0,L|284:215,1,125.999996154785,4|2,1:2|0:2,0:0:0:0:
75,311,207052,6,0,P|91:282|131:257,1,52.5000020027161,8|0,1:3|0:0,0:0:0:0:
211,239,207245,2,0,P|189:218|167:186,1,52.5000020027161,4|2,1:3|0:2,0:0:0:0:
111,85,207439,6,0,B|120:116|120:116|109:179|38:203,1,154.000004699707,4|2,1:2|0:2,0:0:0:0:
32,118,207729,1,2,0:2:0:0:
32,118,207826,2,0,B|48:147|48:147|99:183|167:150,1,154.000004699707,4|2,1:2|0:2,0:0:0:0:
128,247,208116,1,2,0:2:0:0:
128,247,208213,5,4,1:2:0:0:
52,356,208406,2,0,L|203:370,1,125.999996154785,6|0,0:2|1:2,0:0:0:0:
272,314,208793,1,2,0:2:0:0:
259,317,208890,1,2,0:2:0:0:
246,320,208986,1,0,1:2:0:0:
339,370,209180,5,2,0:3:0:0:
450,283,209373,1,2,1:3:0:0:
366,218,209567,1,2,0:3:0:0:
374,209,209663,1,2,0:2:0:0:
369,197,209760,2,0,L|372:73,2,105.000004005432,2|2|2,1:3|0:3|1:3,0:0:0:0:
445,45,210340,1,2,0:2:0:0:
448,58,210437,1,2,0:2:0:0:
451,71,210533,1,0,1:2:0:0:
312,33,210727,5,6,0:2:0:0:
292,132,210921,1,4,1:2:0:0:
216,65,211114,1,6,0:2:0:0:
321,38,211308,1,4,1:2:0:0:
187,159,211501,1,6,0:2:0:0:
326,46,211694,1,4,1:2:0:0:
180,151,211888,1,0,1:2:0:0:
512,287,212275,5,4,1:1:0:0:
374,263,212468,1,4,1:1:0:0:
236,240,212661,1,4,1:1:0:0:
102,219,212855,1,4,1:1:0:0:
100,209,213049,1,2,0:0:0:0:
166,50,213242,1,10,1:3:0:0:
178,73,213338,1,10,1:3:0:0:
184,99,213435,1,6,1:3:0:0:
185,125,213532,1,6,1:3:0:0:
179,151,213629,6,0,P|214:145|296:137,1,105.000004005432,6|2,2:2|0:0,0:0:0:0:
384,56,214016,2,0,L|398:-4,7,52.5000020027161,2|2|2|2|2|2|2|2,0:0|0:0|0:0|0:0|0:0|0:0|0:0|0:0,0:0:0:0:
464,272,214886,2,0,L|452:220,2,52.5000020027161,2|2|2,0:0|0:0|0:0,0:0:0:0:
459,164,215176,6,0,L|519:150,2,52.5000020027161,6|2|2,0:0|0:0|0:0,0:0:0:0:
374,191,215467,2,0,L|434:177,2,52.5000020027161,2|6|2,0:0|0:0|0:0,0:0:0:0:
284,214,215757,2,0,L|344:200,2,52.5000020027161,2|6|2,0:0|0:0|0:0,0:0:0:0:
194,237,216047,2,0,L|254:223,2,52.5000020027161,2|6|2,0:0|0:0|0:0,0:0:0:0:
100,263,216337,2,0,L|160:249,3,52.5000020027161,2|6|2|2,0:0|0:0|0:0|0:0,0:0:0:0:
60,231,216724,6,0,P|70:196|88:116,1,105.000004005432,6|2,0:0|0:0,0:0:0:0:
12,51,217111,2,0,L|-2:-9,7,52.5000020027161,2|2|2|2|2|2|2|2,0:0|0:0|0:0|0:0|0:0|0:0|0:0|0:0,0:0:0:0:
192,51,217981,1,2,0:0:0:0:
192,51,218078,1,2,0:0:0:0:
192,51,218175,1,2,0:0:0:0:
192,51,218271,6,0,P|197:28|198:-7,2,52.5000020027161,6|2|2,0:0|0:0|3:2,0:0:0:0:
289,78,218562,2,0,P|296:52|308:29,2,52.5000020027161,2|6|2,0:0|3:2|0:0,0:0:0:0:
153,59,218852,6,0,P|158:36|159:1,2,52.5000020027161,2|6|2,3:2|0:0|3:2,0:0:0:0:
308,101,219142,2,0,P|315:75|327:52,2,52.5000020027161,2|6|2,0:0|0:0|0:0,0:0:0:0:
120,74,219432,6,0,P|125:51|126:16,2,52.5000020027161,2|6|2,3:2|0:0|0:0,0:0:0:0:
327,126,219722,2,0,P|334:100|346:77,1,52.5000020027161,2|6,0:0|3:2,0:0:0:0:
390,233,220012,5,2,3:2:0:0:
390,233,220206,2,0,L|456:224,3,52.5000020027161,2|2|2|2,0:0|0:0|0:0|0:0,0:0:0:0:
341,307,220593,1,2,2:2:0:0:
337,333,220689,1,2,0:0:0:0:
333,358,220786,1,2,0:0:0:0:
328,384,220883,1,2,0:0:0:0:
108,296,221076,2,0,L|94:236,2,52.5000020027161,2|2|2,0:0|0:0|0:0,0:0:0:0:
53,220,221366,6,0,L|-7:234,2,52.5000020027161,6|2|2,0:0|0:0|0:0,0:0:0:0:
138,193,221657,2,0,L|78:207,2,52.5000020027161,2|6|2,0:0|0:0|0:0,0:0:0:0:
228,170,221947,2,0,L|168:184,2,52.5000020027161,2|6|2,0:0|0:0|0:0,0:0:0:0:
318,147,222237,2,0,L|258:161,2,52.5000020027161,2|6|2,0:0|0:0|0:0,0:0:0:0:
412,121,222527,2,0,L|352:135,3,52.5000020027161,2|6|2|2,0:0|0:0|0:0|0:0,0:0:0:0:
512,192,222914,5,6,0:0:0:0:
426,129,223107,1,2,0:0:0:0:
456,48,223301,2,0,L|520:34,3,52.5000020027161,2|2|2|2,0:0|0:0|0:0|0:0,0:0:0:0:
426,129,223688,1,2,0:0:0:0:
430,155,223784,1,2,0:0:0:0:
434,180,223881,1,2,0:0:0:0:
439,206,223978,1,2,0:0:0:0:
320,51,224171,1,2,0:0:0:0:
320,51,224268,1,2,0:0:0:0:
320,51,224365,1,2,0:2:0:0:
320,51,224461,5,6,1:2:0:0:
313,0,224557,1,6,0:2:0:0:
223,78,224752,1,6,1:2:0:0:
204,29,224848,1,6,0:2:0:0:
359,59,225042,5,6,1:2:0:0:
352,7,225138,1,6,0:2:0:0:
204,101,225332,1,6,1:2:0:0:
185,52,225428,1,6,0:2:0:0:
392,74,225622,6,0,P|387:51|386:16,1,52.5000020027161,6|6,1:2|0:2,0:0:0:0:
166,77,225816,2,0,P|178:100|185:126,1,52.5000020027161,2|2,1:2|0:2,0:0:0:0:
310,149,226009,5,6,2:2:0:0:
310,149,226203,1,2,3:2:0:0:
310,149,226396,2,0,P|298:188|296:231,1,70,8|2,2:2|3:2,0:0:0:0:
361,305,226783,1,2,2:2:0:0:
239,356,226976,1,2,3:2:0:0:
372,311,227170,1,8,2:2:0:0:
170,238,227557,5,6,2:2:0:0:
170,238,227750,1,2,3:2:0:0:
170,238,227944,2,0,P|160:196|146:156,1,70,8|2,2:2|3:2,0:0:0:0:
85,40,228330,1,6,2:2:0:0:
221,70,228524,1,2,3:2:0:0:
90,30,228717,2,0,L|2:67,1,70,8|2,2:2|3:2,0:0:0:0:
0,186,229104,5,6,2:2:0:0:
0,186,229298,2,0,P|28:194|63:204,1,52.5000020027161,2|0,3:2|2:2,0:0:0:0:
84,282,229491,1,10,2:2:0:0:
98,291,229588,2,0,P|134:279|166:270,2,52.5000020027161,2|2|2,2:2|3:2|2:2,0:0:0:0:
203,171,229878,1,2,2:2:0:0:
217,179,229974,1,2,2:2:0:0:
233,184,230071,1,2,3:2:0:0:
249,186,230168,2,0,P|254:213|260:245,1,52.5000020027161,2|8,2:2|2:2,0:0:0:0:
326,347,230362,1,2,2:2:0:0:
340,339,230458,2,0,P|344:289|354:248,1,52.5000020027161,2|2,3:2|2:2,0:0:0:0:
387,136,230652,6,0,B|399:123|399:123|470:117,2,52.5000020027161,6|2|10,2:2|2:2|3:2,0:0:0:0:
271,176,230942,1,10,2:2:0:0:
253,185,231039,2,0,L|181:165,1,52.5000020027161,6|2,2:2|2:2,0:0:0:0:
393,155,231232,6,0,B|409:149|409:149|474:180,2,52.5000020027161,10|6|2,3:2|2:2|2:2,0:0:0:0:
263,157,231522,1,2,2:2:0:0:
243,156,231619,2,0,L|190:102,1,52.5000020027161,14|2,3:2|2:2,0:0:0:0:
381,171,231812,6,0,B|398:174|398:174|438:233,1,52.5000020027161,10|14,2:2|2:2,0:0:0:0:
498,268,232006,2,0,L|471:346,1,52.5000020027161,2|2,3:2|2:2,0:0:0:0:
357,343,232199,5,6,2:2:0:0:
357,343,232393,1,2,3:2:0:0:
357,343,232586,2,0,P|312:331|286:324,1,70,8|2,2:2|3:2,0:0:0:0:
211,253,232973,1,2,2:2:0:0:
274,129,233166,1,2,3:2:0:0:
212,263,233360,1,8,2:2:0:0:
34,133,233747,5,6,2:2:0:0:
34,133,233940,1,2,3:2:0:0:
34,133,234134,2,0,P|77:141|114:148,1,70,8|2,2:2|3:2,0:0:0:0:
260,61,234521,1,6,2:2:0:0:
401,128,234714,1,2,3:2:0:0:
256,71,234907,2,0,P|300:54|341:37,1,70,8|2,2:2|3:2,0:0:0:0:
336,175,235294,5,6,2:2:0:0:
336,175,235488,2,0,P|321:209|317:238,1,52.5000020027161,2|0,3:2|2:2,0:0:0:0:
280,322,235681,1,10,2:2:0:0:
295,333,235778,2,0,L|353:318,2,52.5000020027161,2|2|2,2:2|3:2|2:2,0:0:0:0:
241,235,236068,1,2,2:2:0:0:
227,227,236164,1,2,2:2:0:0:
211,222,236261,1,2,3:2:0:0:
195,220,236358,2,0,P|190:193|184:161,1,52.5000020027161,2|8,2:2|2:2,0:0:0:0:
121,284,236552,1,2,2:2:0:0:
110,298,236648,2,0,P|80:278|44:252,1,52.5000020027161,2|2,3:2|2:2,0:0:0:0:
65,157,236842,6,0,B|52:157|52:157|23:119,2,52.5000020027161,6|6|2,2:2|2:2|2:2,0:0:0:0:
147,85,237132,1,6,3:2:0:0:
163,93,237229,2,0,L|247:83,1,52.5000020027161,6|0,2:2|0:0,0:0:0:0:
254,154,237422,6,0,B|267:154|267:154|296:116,2,52.5000020027161,6|6|0,3:2|2:2|0:0,0:0:0:0:
170,226,237712,1,6,3:2:0:0:
154,234,237809,2,0,L|70:224,1,52.5000020027161,6|0,2:2|2:2,0:0:0:0:
220,313,238002,6,0,L|298:297,1,52.5000020027161,6|6,3:2|2:2,0:0:0:0:
137,375,238196,2,0,L|71:364,1,52.5000020027161,2|2,3:2|2:2,0:0:0:0:
0,317,238389,5,6,1:2:0:0:
0,317,238776,1,2,1:2:0:0:
74,279,238970,2,0,L|83:177,1,83.9999974365235,2|0,2:2|1:2,0:0:0:0:
14,147,239357,2,0,L|5:45,1,83.9999974365235,2|0,2:2|1:2,0:0:0:0:
58,0,239743,1,2,2:2:0:0:
58,0,240130,5,2,2:2:0:0:
115,57,240324,1,2,1:2:0:0:
193,37,240517,1,2,2:2:0:0:
316,87,240711,1,2,1:2:0:0:
238,108,240904,1,0,2:2:0:0:
324,98,241098,1,2,1:2:0:0:
217,186,241484,5,6,1:2:0:0:
100,204,241678,1,2,2:2:0:0:
157,185,241871,5,4,1:3:0:0:
160,201,242065,1,4,2:3:0:0:
211,266,242258,5,6,1:2:0:0:
328,284,242452,1,2,2:2:0:0:
271,265,242645,5,4,1:3:0:0:
268,281,242839,1,4,2:3:0:0:
219,347,243032,5,6,1:2:0:0:
97,359,243225,1,2,2:2:0:0:
225,355,243419,1,2,1:2:0:0:
94,368,243612,2,0,B|52:331|86:257|109:296|131:252|103:207,1,167.999994873047,6|6,2:2|2:2,0:0:0:0:
42,169,244193,1,6,1:2:0:0:
186,195,244386,1,6,2:2:0:0:
330,221,244579,1,6,1:2:0:0:
458,382,244966,5,2,1:2:0:0:
458,382,245160,2,0,L|470:285,1,83.9999974365235,2|0,2:2|1:2,0:0:0:0:
414,236,245547,2,0,L|402:139,1,83.9999974365235,2|0,2:2|1:2,0:0:0:0:
475,45,245934,2,0,B|500:60|500:60|354:76,1,167.999994873047,2|2,2:2|2:2,0:0:0:0:
222,21,246514,1,2,1:2:0:0:
281,82,246707,1,2,2:2:0:0:
218,29,246901,2,0,L|131:25,1,83.9999974365235,2|0,1:2|2:2,0:0:0:0:
285,89,247288,2,0,L|368:92,1,83.9999974365235,2|0,1:2|2:2,0:0:0:0:
205,144,247675,5,6,1:2:0:0:
299,232,248448,5,6,1:2:0:0:
187,301,249029,5,6,1:2:0:0:
187,301,249415,5,6,1:2:0:0:
299,231,249609,1,6,1:2:0:0:
205,144,249802,1,6,1:2:0:0:
285,89,249996,1,6,1:2:0:0:
218,29,250189,1,6,1:2:0:0:
390,251,263150,6,0,B|363:267|363:267|409:380,1,154.000004699707,12|2,1:2|0:0,0:0:0:0:
490,357,263441,1,2,0:0:0:0:
490,357,263537,2,0,B|516:340|516:340|470:227,1,154.000004699707,12|2,1:2|0:0,0:0:0:0:
512,152,263827,1,2,0:0:0:0:
512,152,263924,5,12,1:2:0:0:
280,256,264118,1,6,1:2:0:0:
16,291,264505,6,0,L|-1:355,1,52.5000020027161,2|2,0:0|0:0,0:0:0:0:
9,364,264698,2,0,P|46:370|167:391,1,125.999996154785,8|2,0:0|0:0,0:0:0:0:
250,348,265085,1,8,0:0:0:0:
185,262,265278,1,2,0:0:0:0:
253,168,265472,5,8,0:0:0:0:
188,57,265665,1,2,0:0:0:0:
188,57,265762,1,2,0:0:0:0:
188,57,265859,2,0,P|265:85|339:124,2,125.999996154785,8|2|8,0:0|0:0|0:0,0:0:0:0:
51,205,266439,5,6,0:0:0:0:
51,205,266535,1,2,0:0:0:0:
51,205,266632,1,12,0:0:0:0:
192,186,266826,1,6,0:0:0:0:
190,317,267019,5,12,0:0:0:0:
216,212,267212,1,6,0:0:0:0:
254,105,267406,1,12,0:0:0:0:
136,126,267600,6,0,B|125:85|125:85|349:35|349:35|344:-4,1,308.000009399414,2|2,1:2|1:2,0:0:0:0:
264,77,268180,1,8,0:0:0:0:
216,212,268373,1,2,0:0:0:0:
183,346,268566,1,8,1:2:0:0:
183,346,268953,1,8,1:2:0:0:
330,251,269341,6,0,P|317:325|374:389,1,154.000004699707,12|2,1:2|0:0,0:0:0:0:
472,353,269631,1,2,0:0:0:0:
472,353,269727,2,0,P|484:278|427:214,1,154.000004699707,12|2,1:2|0:0,0:0:0:0:
403,305,270018,1,2,0:0:0:0:
403,305,270114,5,12,1:2:0:0:
512,72,270308,1,6,1:2:0:0:
404,43,270501,1,8,0:0:0:0:
404,43,270695,2,0,P|431:32|469:19,1,52.5000020027161,2|2,0:0|0:0,0:0:0:0:
475,10,270888,6,0,P|465:81|456:136,1,125.999996154785,8|2,0:0|0:0,0:0:0:0:
409,235,271275,1,8,0:0:0:0:
286,174,271468,1,2,0:0:0:0:
239,290,271662,5,8,0:0:0:0:
348,366,271855,1,2,0:0:0:0:
348,366,271952,1,2,0:0:0:0:
348,366,272049,2,0,P|408:351|472:341,2,125.999996154785,8|2|8,0:0|0:0|0:0,0:0:0:0:
194,375,272628,5,6,0:0:0:0:
212,262,272822,1,12,0:0:0:0:
126,176,273015,1,6,0:0:0:0:
178,316,273209,5,12,0:0:0:0:
160,203,273403,1,6,0:0:0:0:
246,117,273596,1,12,0:0:0:0:
90,0,273789,5,2,1:2:0:0:
512,80,274176,1,2,1:2:0:0:
512,80,274370,1,8,0:0:0:0:
359,148,274563,5,2,1:2:0:0:
246,117,274757,1,8,1:2:0:0:
246,117,274950,1,2,0:0:0:0:
152,240,275144,2,0,P|159:273|181:366,1,105.000004005432,8|2,1:2|0:0,0:0:0:0:
27,375,275530,5,6,1:2:0:0:
27,375,275723,2,0,L|45:301,1,52.5000020027161,2|0,0:0|0:0,0:0:0:0:
81,262,275917,2,0,L|43:200,2,52.5000020027161,2|2|2,0:0|0:0|0:0,0:0:0:0:
248,135,276304,5,2,0:0:0:0:
258,148,276400,1,2,0:0:0:0:
271,158,276497,1,2,0:0:0:0:
286,165,276594,2,0,P|340:141|401:128,1,105.000004005432,2|2,0:0|0:0,0:0:0:0:
403,99,276884,2,0,P|390:79|360:48,1,52.5000020027161,2|2,0:0|0:0,0:0:0:0:
474,64,277078,6,0,B|489:95|489:95|453:209,1,140,6|2,1:2|0:0,0:0:0:0:
473,220,277368,2,0,B|442:235|442:235|328:199,1,140,6|2,1:2|0:0,0:0:0:0:
313,216,277658,2,0,B|298:185|298:185|334:71,1,140,6|2,1:2|0:0,0:0:0:0:
314,60,277948,2,0,B|345:44|345:44|459:80,1,140,6|2,1:2|0:0,0:0:0:0:
474,64,278238,1,6,1:2:0:0:
392,185,278625,5,6,0:0:0:0:
392,185,278819,2,0,L|473:207,1,52.5000020027161,2|0,0:0|0:0,0:0:0:0:
344,248,279012,2,0,P|315:256|279:264,2,52.5000020027161,2|2|2,0:0|0:0|0:0,0:0:0:0:
145,354,279399,5,2,0:0:0:0:
135,341,279495,1,2,0:0:0:0:
122,331,279592,1,2,0:0:0:0:
107,324,279689,2,0,L|141:186,1,105.000004005432,2|2,0:0|0:0,0:0:0:0:
108,215,279979,2,0,L|71:151,1,52.5000020027161,2|2,0:0|0:0,0:0:0:0:
137,114,280173,6,0,L|209:235,1,140,6|2,1:2|2:2,0:0:0:0:
230,25,280463,2,0,L|109:96,1,140,6|2,1:2|0:0,0:0:0:0:
319,122,280753,2,0,L|247:1,1,140,6|2,1:2|2:2,0:0:0:0:
226,211,281043,2,0,L|346:139,1,140,6|2,1:2|0:0,0:0:0:0:
225,119,281333,1,6,1:2:0:0:
475,84,281720,5,6,1:2:0:0:
475,84,281914,2,0,L|497:143,1,52.5000020027161,2|0,2:2|0:0,0:0:0:0:
471,219,282107,2,0,P|449:212|412:204,2,52.5000020027161,2|2|2,0:0|0:0|0:0,0:0:0:0:
342,322,282494,5,2,2:2:0:0:
332,335,282590,1,2,0:0:0:0:
319,345,282687,1,2,0:0:0:0:
304,352,282784,2,0,L|187:331,1,105.000004005432,2|2,0:0|0:0,0:0:0:0:
177,350,283074,2,0,L|150:294,1,52.5000020027161,2|2,0:0|0:2,0:0:0:0:
99,207,283268,6,0,B|65:194|65:194|122:78,1,140,6|2,1:2|0:2,0:0:0:0:
95,73,283558,2,0,B|108:38|108:38|224:96,1,140,6|2,1:2|0:2,0:0:0:0:
229,70,283848,2,0,B|263:83|263:83|206:199,1,140,6|2,1:2|0:2,0:0:0:0:
233,204,284138,2,0,B|220:238|220:238|104:181,1,140,6|2,1:2|0:2,0:0:0:0:
99,207,284428,1,6,1:2:0:0:
55,58,284815,5,6,0:2:0:0:
55,58,285009,2,0,L|121:76,1,52.5000020027161,2|0,0:0|0:0,0:0:0:0:
213,68,285202,2,0,P|207:40|199:11,2,52.5000020027161,2|2|2,0:0|0:0|0:0,0:0:0:0:
405,83,285589,5,2,0:0:0:0:
395,96,285685,1,2,0:0:0:0:
382,106,285782,1,2,0:0:0:0:
367,113,285879,2,0,L|401:251,1,105.000004005432,2|2,0:0|0:0,0:0:0:0:
370,242,286169,2,0,L|444:270,1,52.5000020027161,2|2,0:0|0:2,0:0:0:0:
247,343,286363,6,0,P|235:282|189:197,1,140,6|2,1:2|0:2,0:0:0:0:
265,343,286653,2,0,P|277:282|323:197,1,140,6|2,1:2|0:2,0:0:0:0:
247,343,286943,2,0,P|186:286|101:287,1,140,6|2,1:2|0:2,0:0:0:0:
265,343,287233,2,0,P|326:286|411:287,1,140,6|2,1:2|0:2,0:0:0:0:
257,158,287523,1,6,1:2:0:0:
257,158,287910,6,0,B|272:135|272:135|405:122,1,125.999996154785,2|2,1:2|0:2,0:0:0:0:
449,30,288297,1,8,1:2:0:0:
449,30,288394,1,0,3:2:0:0:
449,30,288491,2,0,L|442:92,1,52.5000020027161,2|2,0:2|3:2,0:0:0:0:
484,153,288684,5,0,1:2:0:0:
480,168,288781,1,0,3:2:0:0:
478,183,288877,1,2,0:2:0:0:
478,198,288974,2,0,P|447:206|401:225,1,52.5000020027161,2|8,3:2|1:2,0:0:0:0:
471,316,289168,1,0,3:2:0:0:
455,307,289264,2,0,P|486:299|532:280,1,52.5000020027161,2|2,0:2|3:2,0:0:0:0:
352,263,289458,6,0,B|363:269|363:269|376:319,2,52.5000020027161,4|0|10,1:2|3:2|0:2,0:0:0:0:
256,227,289748,1,10,3:2:0:0:
252,217,289845,2,0,B|258:206|258:206|296:195,1,52.5000020027161,4|0,1:2|3:0,0:0:0:0:
216,313,290038,1,10,0:2:0:0:
206,317,290135,2,0,B|195:311|195:311|184:272,1,52.5000020027161,6|0,3:2|1:2,0:0:0:0:
302,353,290328,1,0,3:2:0:0:
306,363,290425,2,0,B|300:374|300:374|261:384,1,52.5000020027161,14|2,0:2|3:2,0:0:0:0:
161,384,290618,1,8,1:2:0:0:
132,380,290714,1,12,3:2:0:0:
125,355,290811,1,2,0:2:0:0:
119,329,290908,1,2,3:2:0:0:
111,304,291005,6,0,B|80:288|80:288|59:195,1,125.999996154785,2|2,1:2|0:2,0:0:0:0:
32,114,291392,1,8,1:2:0:0:
32,114,291489,1,0,3:2:0:0:
32,114,291586,2,0,L|98:117,1,52.5000020027161,2|2,0:2|3:2,0:0:0:0:
162,25,291779,1,0,1:2:0:0:
161,40,291876,1,0,3:2:0:0:
159,55,291973,1,2,0:2:0:0:
153,69,292069,2,0,P|175:95|186:111,1,52.5000020027161,2|8,3:2|1:2,0:0:0:0:
267,150,292263,2,0,B|266:134|266:134|286:101,2,52.5000020027161,0|2|2,3:2|0:2|3:2,0:0:0:0:
364,11,292553,5,4,1:2:0:0:
359,29,292650,2,0,B|354:55|354:55|375:32,1,52.5000020027161,0|10,3:2|0:2,0:0:0:0:
482,87,292843,1,10,3:2:0:0:
463,87,292940,2,0,B|436:90|436:90|465:103,1,52.5000020027161,4|0,1:2|3:0,0:0:0:0:
445,221,293133,1,10,0:2:0:0:
439,203,293230,2,0,B|427:179|427:179|424:209,1,52.5000020027161,6|0,3:2|1:2,0:0:0:0:
305,228,293423,1,0,3:2:0:0:
320,217,293520,2,0,B|339:198|339:198|308:205,1,52.5000020027161,14|2,0:2|3:2,0:0:0:0:
269,108,293713,6,0,B|292:120|292:120|276:93,1,52.5000020027161,8|12,1:2|3:2,0:0:0:0:
161,138,293907,2,0,B|180:119|180:119|149:126,1,52.5000020027161,2|2,0:2|3:2,0:0:0:0:
156,249,294100,6,0,B|144:225|144:225|139:338,1,125.999996154785,2|2,1:2|0:2,0:0:0:0:
18,382,294487,1,8,1:2:0:0:
18,382,294584,1,0,3:2:0:0:
18,382,294681,2,0,L|83:376,1,52.5000020027161,2|2,0:2|3:2,0:0:0:0:
222,301,294874,5,0,1:2:0:0:
232,312,294971,1,0,3:2:0:0:
245,319,295068,1,2,0:2:0:0:
259,323,295164,2,0,P|263:354|262:379,1,52.5000020027161,2|8,3:2|1:2,0:0:0:0:
359,353,295358,1,0,3:2:0:0:
368,369,295454,2,0,P|364:338|365:313,1,52.5000020027161,2|2,0:2|3:2,0:0:0:0:
461,258,295648,5,4,1:2:0:0:
445,264,295744,2,0,P|416:251|395:238,1,52.5000020027161,0|10,3:2|0:2,0:0:0:0:
395,127,295939,1,10,3:2:0:0:
392,144,296035,2,0,P|367:162|345:174,1,52.5000020027161,4|0,1:2|3:0,0:0:0:0:
248,118,296229,1,10,0:2:0:0:
261,129,296325,2,0,P|265:159|264:184,1,52.5000020027161,6|0,3:2|1:2,0:0:0:0:
167,240,296519,1,0,3:2:0:0:
183,234,296615,2,0,P|211:246|232:259,1,52.5000020027161,14|2,0:2|3:2,0:0:0:0:
236,354,296809,6,0,P|260:335|282:323,1,52.5000020027161,8|12,1:2|3:2,0:0:0:0:
112,309,297002,2,0,P|140:321|155:344,1,52.5000020027161,2|2,0:2|3:2,0:0:0:0:
25,371,297195,6,0,L|35:213,1,125.999996154785,2|2,1:2|0:2,0:0:0:0:
133,166,297582,1,8,1:2:0:0:
133,166,297679,1,0,3:2:0:0:
133,166,297776,2,0,L|57:178,1,52.5000020027161,2|2,0:2|3:2,0:0:0:0:
1,84,297969,5,0,1:2:0:0:
13,93,298066,1,0,3:2:0:0:
28,97,298163,1,2,0:2:0:0:
43,99,298259,2,0,P|55:72|68:48,1,52.5000020027161,2|8,3:2|1:2,0:0:0:0:
192,24,298453,2,0,B|180:16|180:16|129:22,2,52.5000020027161,0|2|2,3:2|0:2|3:2,0:0:0:0:
306,246,298743,6,0,B|281:248|281:248|303:174|250:123,1,154.000004699707,4|2,1:2|0:2,0:0:0:0:
217,125,299033,2,0,B|207:101|207:101|284:99|316:33,1,154.000004699707,6|0,1:2|0:0,0:0:0:0:
304,2,299323,2,0,B|323:-14|323:-14|348:58|421:68,1,154.000004699707,4|0,1:2|0:0,0:0:0:0:
447,47,299613,2,0,B|468:60|468:60|407:107|420:179,1,154.000004699707,4|2,1:2|2:2,0:0:0:0:
449,198,299903,6,0,B|443:222|443:222|400:197|371:200,1,77.0000023498536,4|4,1:2|2:2,0:0:0:0:
301,238,300097,2,0,P|322:260|348:269,1,52.5000020027161,2|2,1:2|2:2,0:0:0:0:
512,262,300290,5,4,1:2:0:0:
256,313,300677,1,4,1:2:0:0:
0,364,301064,1,4,1:2:0:0:
256,313,301258,5,4,1:2:0:0:
