osu file format v14

[General]
AudioFilename: audio.mp3
AudioLeadIn: 0
PreviewTime: 67279
Countdown: 0
SampleSet: Normal
StackLeniency: 0.5
Mode: 0
LetterboxInBreaks: 0
StoryFireInFront: 0
WidescreenStoryboard: 1

[Editor]
Bookmarks: 20176,52700,56064,91952,109896,136812
DistanceSpacing: 3.4
BeatDivisor: 4
GridSize: 4
TimelineZoom: 1.600001

[Metadata]
Title:Bullet Waiting for Me (James Landino remix)
TitleUnicode:Bullet Waiting for Me (James Landino remix)
Artist:Nikki Simmons
ArtistUnicode:Nikki Simmons
Creator:Mr_Pandaria
Version:Hard Collab
Source:Cytus II
Tags:cytus tropical house edm Uselessful
BeatmapID:1671812
BeatmapSetID:796144

[Difficulty]
HPDrainRate:6
CircleSize:3
OverallDifficulty:7
ApproachRate:8
SliderMultiplier:1.2
SliderTickRate:1

[Events]
//Background and Video events
0,0,"maxresdefault.jpg",0,0
//Break Periods
//Storyboard Layer 0 (Background)
//Storyboard Layer 1 (Fail)
//Storyboard Layer 2 (Pass)
//Storyboard Layer 3 (Foreground)
Sprite,Foreground,TopRight,"sb\f\uslsf.png",700,415 F,0,2120,2320,0,1 S,0,2320,,0.5 F,0,19980,20180,1,0
Sprite,Foreground,TopRight,"sb\f\pand.png",700,415 F,0,19980,20180,0,1 S,0,20180,,0.5 F,0,55860,56060,1,0
Sprite,Foreground,TopRight,"sb\f\uslsf.png",700,415 F,0,55860,56060,0,1 S,0,56060,,0.5 F,0,91750,91950,1,0
Sprite,Foreground,TopRight,"sb\f\pand.png",700,415 F,0,92310,92510,0,1 S,0,92510,,0.5 F,0,109280,109480,1,0
Sprite,Foreground,TopRight,"sb\f\uslsf.png",700,415 F,0,109700,109900,0,1 S,0,109900,,0.5 F,0,136610,136810,1,0
Sprite,Foreground,TopRight,"sb\f\pand.png",700,415 F,0,136610,136810,0,1 S,0,136810,,0.5 F,0,148950,149150,1,0
//Storyboard Sound Samples

[TimingPoints]
2224,560.747663551402,4,1,1,50,1,0
2224,-100,4,1,1,50,0,0
11195,-90.9090909090909,4,1,1,50,0,0
12037,-83.3333333333333,4,1,1,50,0,0
17994,-83.3333333333333,4,1,1,50,0,0
19046,-83.3333333333333,4,1,1,25,0,0
19466,-83.3333333333333,4,1,1,40,0,0
19607,-83.3333333333333,4,1,1,50,0,0
20167,-100,4,1,1,50,0,0
43158,-133.333333333333,4,1,1,50,0,0
43719,-100,4,1,1,50,0,0
44280,-133.333333333333,4,1,1,50,0,0
44840,-100,4,1,1,50,0,0
45401,-133.333333333333,4,1,1,50,0,0
45962,-100,4,1,1,50,0,0
46523,-133.333333333333,4,1,1,50,0,0
47083,-100,4,1,1,50,0,0
51569,-100,4,1,1,50,0,0
56055,-90.9090909090909,4,1,1,50,0,0
60541,-78.7401574803149,4,1,1,50,0,0
65027,-90.9090909090909,4,1,1,20,0,0
65448,-90.9090909090909,4,1,1,25,0,0
65868,-90.9090909090909,4,1,1,30,0,0
66289,-90.9090909090909,4,1,1,35,0,0
66709,-90.9090909090909,4,1,1,40,0,0
66990,-90.9090909090909,4,1,1,45,0,0
67270,-90.9090909090909,4,1,1,50,0,0
69373,-90.9090909090909,4,1,1,30,0,0
69513,-90.9090909090909,4,1,1,50,0,0
73999,-66.6666666666667,4,2,1,50,0,1
75681,-58.8235294117647,4,2,1,50,0,1
76102,-66.6666666666667,4,2,1,50,0,1
80167,-58.8235294117647,4,2,1,50,0,1
80588,-66.6666666666667,4,2,1,50,0,1
84653,-66.6666666666667,4,2,1,50,0,1
85074,-66.6666666666667,4,2,1,50,0,1
89139,-66.6666666666667,4,2,1,50,0,1
89560,-66.6666666666667,4,2,1,50,0,1
91943,-33.3333333333333,4,2,1,50,0,1
92504,-66.6666666666667,4,2,1,50,0,1
94186,-66.6666666666667,4,2,1,50,0,1
96429,-66.6666666666667,4,2,1,50,0,1
98672,-66.6666666666667,4,2,1,50,0,1
103158,-66.6666666666667,4,2,1,50,0,1
107644,-66.6666666666667,4,2,1,50,0,1
109887,-133.333333333333,4,1,1,50,0,0
118579,-90.9090909090908,4,1,1,50,0,0
123084,-90.9090909090908,4,1,1,50,0,0
125588,-133.333333333333,4,1,1,50,0,0
126709,-90.9090909090908,4,1,1,50,0,0
127831,-125,4,1,1,50,0,0

[Colours]
Combo1 : 44,211,140
Combo2 : 202,53,169
Combo3 : 41,145,188
Combo4 : 227,38,133

[HitObjects]
80,184,2223,6,0,P|97:215|132:248,1,60
200,256,2644,1,0,0:0:0:0:
356,192,3065,2,0,P|392:136|384:76,1,120
212,40,4046,1,0,0:0:0:0:
80,184,4466,6,0,L|156:192,1,60
200,256,4887,1,0,0:0:0:0:
96,373,5308,2,0,P|78:342|78:326,1,30
69,259,5588,1,0,0:0:0:0:
185,205,5868,2,0,P|192:172|187:150,1,30
159,120,6149,2,0,P|151:87|156:65,1,30
178,32,6429,1,0,0:0:0:0:
344,88,6709,6,0,P|348:136|321:194,1,90
72,240,7551,2,0,P|77:282|83:294,1,30
102,325,7831,1,0,0:0:0:0:
211,361,8111,1,0,0:0:0:0:
335,317,8392,2,0,L|391:311,2,30
344,202,8952,6,0,P|325:154|282:107,1,90
72,240,9794,2,0,P|78:178|103:127,1,120
363,306,10635,2,0,L|367:266,1,30
394,223,10915,1,0,0:0:0:0:
387,104,11195,6,0,P|369:133|342:151,1,66.0000020141602
261,163,11616,1,0,0:0:0:0:
182,133,11756,1,0,0:0:0:0:
243,317,12037,2,0,L|285:313,2,35.9999989013672
108,323,12597,2,0,P|77:304|45:261,1,71.9999978027344
138,233,13018,2,0,P|174:200|261:168,2,107.999996704102
108,323,13999,1,0,0:0:0:0:
48,164,14280,6,0,P|64:132|82:108,1,35.9999989013672
130,73,14560,1,0,0:0:0:0:
316,91,14840,2,0,P|322:112|317:141,1,35.9999989013672
301,206,15121,2,0,P|294:224|272:247,1,35.9999989013672
203,263,15401,1,0,0:0:0:0:
459,87,15681,6,0,P|428:71|387:67,1,71.9999978027344
322,126,16102,1,0,0:0:0:0:
404,162,16242,1,0,0:0:0:0:
278,313,16523,2,0,P|247:310|219:293,1,35.9999989013672
203,263,16803,1,0,0:0:0:0:
368,49,17083,6,0,P|393:71|401:86,1,35.9999989013672
404,162,17364,1,0,0:0:0:0:
331,212,17504,1,0,0:0:0:0:
319,125,17644,1,0,0:0:0:0:
107,46,17924,6,0,P|71:75|56:122,1,71.9999978027344
74,184,18345,1,0,0:0:0:0:
143,126,18485,1,0,0:0:0:0:
346,30,18766,2,0,P|412:94|423:153,1,143.999995605469
315,137,19466,1,0,0:0:0:0:
416,174,19607,1,2,0:0:0:0:
294,341,19887,6,0,L|289:295,1,35.9999989013672
279,248,20167,6,0,P|243:242|207:230,1,60
149,196,20588,1,0,0:0:0:0:
81,150,20728,2,0,P|64:112|60:84,1,60,2|0,0:0|0:0,0:0:0:0:
222,98,21289,2,0,P|258:92|294:80,1,60
353,50,21709,1,0,0:0:0:0:
432,68,21850,2,0,P|468:80|504:107,1,60,2|0,0:0|0:0,0:0:0:0:
486,281,22410,6,4,P|476:249|453:222,1,60,0|0,0:0|0:0,0:0:0:0:
386,187,22831,1,0,0:0:0:0:
310,156,22971,2,0,P|276:144|256:128,1,60,2|0,0:0|0:0,0:0:0:0:
129,47,23532,6,0,P|156:66|178:97,1,60
177,177,23952,1,0,0:0:0:0:
196,254,24093,2,4,P|205:292|225:321,1,60,2|0,0:0|0:0,0:0:0:0:
118,220,24653,6,0,P|165:227|200:260,1,90
123,308,25214,2,0,L|92:369,1,60,2|0,0:0|0:0,0:0:0:0:
46,206,25775,2,0,P|52:162|81:128,1,90
137,196,26336,2,0,L|201:220,1,60,2|0,0:0|0:0,0:0:0:0:
314,332,26896,6,0,P|283:301|270:258,1,90
360,258,27457,2,0,L|415:232,1,60,2|0,0:0|0:0,0:0:0:0:
489,88,28018,2,0,P|440:86|400:105,1,90
319,135,28579,2,0,P|277:152|233:149,1,90,2|0,0:0|0:0,0:0:0:0:
117,134,29139,5,4,0:0:0:0:
117,134,29700,2,0,L|97:194,2,40,2|0|0,0:0|0:0|0:0,0:0:0:0:
205,98,30261,1,0,0:0:0:0:
405,119,30541,2,0,L|378:107,1,30
402,204,30822,2,0,L|422:227,1,30,2|0,0:0|0:0,0:0:0:0:
274,329,31242,5,0,0:0:0:0:
204,272,31382,2,0,L|161:260,2,30
23,264,31943,2,0,L|51:211,1,60,2|0,0:0|0:0,0:0:0:0:
74,132,32364,1,0,0:0:0:0:
74,132,32504,1,0,0:0:0:0:
198,257,32784,1,0,0:0:0:0:
376,228,33065,1,2,0:0:0:0:
411,88,33345,1,0,0:0:0:0:
376,228,33625,6,0,P|418:252|436:281,1,60
424,341,34046,1,0,0:0:0:0:
348,317,34186,2,0,P|314:303|294:270,1,60,2|0,0:0|0:0,0:0:0:0:
299,285,34747,1,0,0:0:0:0:
198,184,35027,1,0,0:0:0:0:
111,314,35308,1,2,0:0:0:0:
132,136,35588,1,0,0:0:0:0:
132,136,35868,6,0,L|125:250,1,90
126,225,36429,1,2,0:0:0:0:
264,308,36709,2,0,L|248:272,1,30
324,224,36990,2,0,L|340:184,2,40
368,128,37551,1,2,0:0:0:0:
160,88,37831,5,0,0:0:0:0:
160,88,38111,2,0,L|88:136,1,60
52,176,38532,1,0,0:0:0:0:
40,256,38672,2,0,L|52:316,1,60,2|0,0:0|0:0,0:0:0:0:
208,272,39233,2,0,P|240:288|292:293,1,60
344,276,39653,1,0,0:0:0:0:
424,276,39794,2,0,L|496:264,1,60,2|0,0:0|0:0,0:0:0:0:
344,184,40354,6,0,L|373:126,1,60
372,48,40775,1,0,0:0:0:0:
296,76,40915,2,0,L|242:101,1,60,2|0,0:0|0:0,0:0:0:0:
292,256,41476,2,0,P|277:221|252:205,1,60
188,168,41897,1,0,0:0:0:0:
112,140,42037,2,0,L|72:94,1,60,2|0,0:0|0:0,0:0:0:0:
102,264,42597,6,0,P|146:292|194:296,1,90
172,210,43158,2,0,L|188:165,1,45.0000017166138,2|0,0:0|0:0,0:0:0:0:
360,108,43719,2,0,P|316:115|279:141,1,90
353,195,44280,2,0,L|378:236,1,45.0000017166138,2|0,0:0|0:0,0:0:0:0:
512,208,44840,6,0,B|499:259|499:259|448:290,1,90
418,201,45401,2,0,L|427:157,1,45.0000017166138,2|0,0:0|0:0,0:0:0:0:
256,128,45962,2,0,B|240:77|240:77|187:50,1,90
163,141,46523,2,0,L|176:184,1,45.0000017166138,2|0,0:0|0:0,0:0:0:0:
328,228,47083,6,0,P|298:226|268:232,1,60
196,264,47504,1,0,0:0:0:0:
120,292,47644,2,0,P|91:301|60:304,1,60,2|0,0:0|0:0,0:0:0:0:
16,148,48205,2,0,P|6:119|7:89,1,60
76,48,48626,1,0,0:0:0:0:
156,40,48766,2,0,L|215:27,1,60,2|0,0:0|0:0,0:0:0:0:
372,80,49326,6,0,P|336:88|318:104,1,60
284,180,49747,1,0,0:0:0:0:
236,244,49887,2,0,P|216:264|185:276,1,60,2|0,0:0|0:0,0:0:0:0:
32,320,50448,2,0,P|32:284|20:256,1,60
88,212,50869,1,0,0:0:0:0:
144,156,51009,2,0,L|202:143,1,60,2|0,0:0|0:0,0:0:0:0:
410,201,51569,6,0,P|380:160|336:148,1,90
289,72,52130,1,2,0:0:0:0:
157,166,52410,1,0,0:0:0:0:
240,305,52691,2,0,B|295:234,1,90
254,163,53252,1,2,0:0:0:0:
118,75,53532,1,0,0:0:0:0:
202,96,53812,6,0,P|150:92|101:58,1,90
32,88,54373,1,2,0:0:0:0:
202,96,54653,1,0,0:0:0:0:
231,255,54934,2,0,P|275:227|335:226,1,90
390,200,55495,1,0,0:0:0:0:
231,255,55775,1,0,0:0:0:0:
100,136,56055,6,0,P|96:96|115:61,1,66.0000020141602,4|0,0:0|0:0,0:0:0:0:
168,18,56476,1,0,0:0:0:0:
234,66,56616,1,0,0:0:0:0:
154,210,56896,6,0,P|192:169|217:155,1,66.0000020141602
282,174,57317,2,0,P|336:163|365:166,1,66.0000020141602
405,221,57738,2,0,P|455:244|476:263,1,66.0000020141602
437,342,58158,1,0,0:0:0:0:
356,360,58298,6,0,P|320:350|287:331,1,66.0000020141602
272,256,58719,1,0,0:0:0:0:
282,175,58859,2,0,P|296:146|325:113,2,66.0000020141602
272,256,59560,6,0,P|307:252|343:227,1,66.0000020141602
382,170,59981,1,0,0:0:0:0:
287,338,60261,5,0,0:0:0:0:
214,359,60401,1,0,0:0:0:0:
140,380,60541,2,0,L|244:349,1,76.1999994186401
107,311,60962,2,0,L|205:329,1,76.1999994186401
108,236,61382,2,0,L|174:300,1,76.1999994186401
153,174,61803,2,0,L|182:265,1,76.1999994186401
213,358,62224,1,0,0:0:0:0:
436,65,62504,5,0,0:0:0:0:
460,134,62644,1,0,0:0:0:0:
488,204,62784,2,0,L|458:129,1,76.1999994186401
421,241,63205,2,0,L|428:149,1,76.1999994186401
345,250,63625,2,0,L|379:164,1,76.1999994186401
268,250,64046,2,0,L|334:162,1,76.1999994186401
436,65,64466,1,0,0:0:0:0:
436,65,64747,1,0,0:0:0:0:
127,272,65027,6,0,L|69:265,1,33.0000010070801,2|2,0:0|0:0,0:0:0:0:
200,156,65448,5,2,0:0:0:0:
176,128,65588,1,2,0:0:0:0:
340,133,65868,6,2,L|343:97,1,33.0000010070801
448,227,66289,5,2,0:0:0:0:
472,199,66429,1,2,0:0:0:0:
400,316,66709,6,8,L|411:337,2,16.5000005035401
356,224,66990,2,8,L|359:199,2,16.5000005035401
304,308,67270,5,2,0:0:0:0:
288,340,67410,1,2,0:0:0:0:
196,229,67691,6,2,L|144:234,1,33.0000010070801
136,92,68111,5,2,0:0:0:0:
196,68,68252,2,2,L|230:114,1,33.0000010070801,2|0,0:0|0:0,0:0:0:0:
257,145,68532,5,2,0:0:0:0:
298,195,68672,2,2,L|350:163,1,33.0000010070801,2|0,0:0|0:0,0:0:0:0:
383,145,68952,5,2,0:0:0:0:
438,108,69093,2,2,L|474:158,2,33.0000010070801,2|0|2,0:0|0:0|0:0,0:0:0:0:
360,56,69513,6,2,L|335:49,5,16.5000005035401
271,84,70074,2,2,L|251:103,5,16.5000005035401
228,169,70635,2,2,L|229:189,5,16.5000005035401
256,260,71195,2,2,L|272:280,5,16.5000005035401
279,282,71756,6,0,P|228:188|308:60,1,264.000008056641,0|0,1:0|1:0,1:0:0:0:
409,138,73158,1,8,0:0:0:0:
355,178,73298,2,0,L|348:235,1,33.0000010070801,8|2,0:0|0:0,0:0:0:0:
164,132,73719,5,0,0:0:0:0:
52,296,73999,6,2,L|128:304,1,45.0000017166138
180,284,74280,1,2,0:0:0:0:
240,208,74420,1,2,0:0:0:0:
148,196,74560,1,2,0:0:0:0:
236,381,74840,5,2,0:0:0:0:
312,325,74980,1,2,0:0:0:0:
224,288,75121,2,2,L|151:280,1,45.0000017166138
299,232,75401,1,2,0:0:0:0:
178,45,75681,6,0,P|146:41|98:69,1,51.0000009727478
164,132,75962,2,0,P|194:138|228:120,1,51.0000009727478
288,83,76242,6,2,L|359:76,2,45.0000017166138
212,132,76663,1,2,0:0:0:0:
291,174,76803,1,2,0:0:0:0:
96,300,77083,6,2,P|78:260|76:226,1,45.0000017166138
150,195,77364,2,2,P|166:239|158:277,1,45.0000017166138
122,324,77644,1,2,0:0:0:0:
307,280,77924,5,2,0:0:0:0:
402,270,78065,1,2,0:0:0:0:
347,192,78205,2,2,L|267:187,1,45.0000017166138
307,280,78485,6,4,L|312:333,2,45.0000017166138
248,201,78906,1,4,0:0:0:0:
347,192,79046,1,4,0:0:0:0:
250,18,79326,6,4,P|221:26|182:51,1,45.0000017166138
160,115,79607,2,4,P|198:119|231:130,1,45.0000017166138
248,201,79887,1,4,0:0:0:0:
209,370,80167,6,0,P|176:358|153:321,1,51.0000009727478
166,214,80448,2,0,P|174:252|154:305,1,51.0000009727478
96,300,80728,5,4,0:0:0:0:
68,204,80868,1,4,0:0:0:0:
166,214,81009,2,4,L|245:221,1,45.0000017166138
308,228,81289,1,4,0:0:0:0:
398,49,81569,5,4,0:0:0:0:
438,138,81709,1,4,0:0:0:0:
338,128,81850,2,4,L|260:119,1,45.0000017166138
195,112,82130,1,4,0:0:0:0:
21,117,82410,6,4,L|79:123,1,45.0000017166138
195,112,82691,2,4,L|137:118,1,45.0000017166138
263,58,82971,6,2,L|257:-7,2,45.0000017166138
345,95,83392,1,2,0:0:0:0:
271,146,83532,1,2,0:0:0:0:
360,312,83812,6,2,L|304:360,1,45.0000017166138
296,252,84093,2,2,L|356:192,1,45.0000017166138
396,156,84373,1,2,0:0:0:0:
228,55,84653,6,0,P|196:75|184:115,1,45.0000017166138,0|0,2:0|2:0,2:0:0:0:
256,151,84934,2,0,P|235:173|204:180,1,45.0000017166138
133,209,85214,5,2,0:0:0:0:
133,209,85354,1,2,0:0:0:0:
133,209,85495,1,2,0:0:0:0:
150,116,85635,1,2,0:0:0:0:
222,179,85775,1,2,0:0:0:0:
360,312,86055,5,2,0:0:0:0:
360,312,86195,1,2,0:0:0:0:
360,312,86336,1,2,0:0:0:0:
434,253,86476,1,2,0:0:0:0:
350,216,86616,1,2,0:0:0:0:
181,140,86896,5,2,0:0:0:0:
249,162,87037,1,2,0:0:0:0:
291,104,87177,1,2,0:0:0:0:
248,45,87317,1,2,0:0:0:0:
180,70,87457,6,4,L|93:79,1,45.0000017166138
46,92,87738,2,4,L|55:153,1,45.0000017166138
67,225,88018,1,4,0:0:0:0:
365,280,88298,6,4,L|294:271,1,45.0000017166138
232,263,88579,2,4,L|239:177,1,45.0000017166138
242,124,88859,1,4,0:0:0:0:
477,59,89139,6,0,P|489:83|481:131,1,45.0000017166138
397,111,89420,2,0,P|393:139|405:179,1,45.0000017166138
408,244,89700,6,4,L|332:252,2,45.0000017166138
231,262,90121,1,4,0:0:0:0:
298,255,90261,1,4,0:0:0:0:
125,142,90541,6,4,L|193:135,1,45.0000017166138
263,126,90822,2,4,L|340:118,1,45.0000017166138
227,218,91102,2,4,L|234:291,1,45.0000017166138,4|0,0:0|0:0,0:0:0:0:
237,302,91382,5,4,0:0:0:0:
248,341,91523,2,4,P|259:366|293:388,2,45.0000017166138
231,262,91943,6,0,B|226:216|226:216|224:164|263:127|263:127|170:138|170:138|156:117|156:117|103:129|45:104,1,360.000013732911,2|2,0:0|0:0,0:0:0:0:
62,110,92784,6,2,L|70:154,1,45.0000017166138
34,237,93065,2,2,L|42:281,1,45.0000017166138
121,324,93345,1,2,0:0:0:0:
287,256,93625,6,0,L|311:200,1,45.0000017166138
395,209,93906,2,0,L|424:175,1,45.0000017166138
480,66,94186,6,2,L|445:94,1,45.0000017166138
356,79,94467,2,2,L|321:107,1,45.0000017166138
234,130,94747,1,2,0:0:0:0:
234,130,95027,6,2,L|222:173,1,45.0000017166138
139,209,95308,2,2,L|127:252,1,45.0000017166138
69,321,95588,1,2,0:0:0:0:
139,209,95868,5,2,0:0:0:0:
106,200,96008,1,2,0:0:0:0:
77,185,96148,1,2,0:0:0:0:
51,164,96288,1,2,0:0:0:0:
25,144,96429,6,4,L|59:105,1,45.0000017166138
137,75,96709,1,4,0:0:0:0:
206,133,96850,1,4,0:0:0:0:
283,86,96990,1,4,0:0:0:0:
247,272,97270,5,4,0:0:0:0:
325,229,97410,1,4,0:0:0:0:
399,291,97551,2,4,L|419:250,1,45.0000017166138
402,162,97831,1,4,0:0:0:0:
223,140,98111,6,0,L|186:115,1,45.0000017166138
136,204,98392,2,0,L|92:210,1,45.0000017166138
63,285,98672,6,4,L|21:302,1,45.0000017166138
157,279,98952,2,4,L|199:296,1,45.0000017166138
106,204,99233,1,4,0:0:0:0:
213,82,99513,6,4,L|255:65,1,45.0000017166138
119,88,99793,2,4,L|77:71,1,45.0000017166138
170,163,100074,1,4,0:0:0:0:
170,163,100354,5,4,0:0:0:0:
165,207,100494,1,4,0:0:0:0:
152,250,100634,1,4,0:0:0:0:
129,289,100774,1,4,0:0:0:0:
91,313,100915,6,2,L|55:261,1,45.0000017166138
11,204,101195,1,2,0:0:0:0:
41,118,101336,2,0,L|42:61,1,45.0000017166138
216,113,101756,6,2,L|244:147,1,45.0000017166138
330,176,102037,1,0,0:0:0:0:
417,155,102177,2,2,L|462:179,1,45.0000017166138
443,352,102597,6,0,L|452:308,1,45.0000017166138
361,309,102878,2,0,L|363:264,1,45.0000017166138
272,304,103158,6,2,L|248:265,1,45.0000017166138
187,200,103438,1,2,0:0:0:0:
242,128,103579,1,2,0:0:0:0:
160,90,103719,1,2,0:0:0:0:
160,90,103999,5,2,0:0:0:0:
73,114,104139,1,2,0:0:0:0:
34,196,104280,2,2,L|32:248,1,45.0000017166138
36,330,104560,1,2,0:0:0:0:
210,285,104840,5,2,0:0:0:0:
250,262,104981,1,2,0:0:0:0:
277,228,105120,1,2,0:0:0:0:
291,184,105260,1,2,0:0:0:0:
289,145,105401,6,4,L|236:125,2,45.0000017166138
365,192,105822,1,4,0:0:0:0:
439,242,105962,1,4,0:0:0:0:
278,208,106242,6,4,L|234:219,2,45.0000017166138
317,126,106663,1,4,0:0:0:0:
355,44,106803,1,4,0:0:0:0:
278,208,107083,6,0,L|247:246,1,45.0000017166138
157,255,107364,2,0,L|126:293,1,45.0000017166138
136,172,107644,6,4,L|120:96,1,45.0000017166138
183,58,107924,1,4,0:0:0:0:
183,58,108065,1,4,0:0:0:0:
183,58,108205,1,4,0:0:0:0:
337,185,108485,6,4,L|356:225,1,45.0000017166138
444,245,108765,1,4,0:0:0:0:
444,245,108906,1,4,0:0:0:0:
444,245,109046,1,4,0:0:0:0:
288,292,109326,5,4,0:0:0:0:
265,289,109466,1,4,0:0:0:0:
245,277,109606,1,4,0:0:0:0:
230,259,109746,1,4,0:0:0:0:
221,238,109887,6,0,P|230:192|257:153,1,90.0000034332277,4|0,0:0|0:0,0:0:0:0:
468,168,111009,2,0,P|437:121|398:94,2,90.0000034332277
404,348,112691,1,0,0:0:0:0:
340,172,113252,2,0,P|304:132|262:113,1,90.0000034332277
184,140,114093,1,0,0:0:0:0:
116,204,114373,6,0,L|124:280,1,67.5000025749207
260,228,115214,2,0,L|268:144,1,67.5000025749207
388,88,116055,1,0,0:0:0:0:
424,176,116336,1,0,0:0:0:0:
346,229,116616,6,0,L|334:150,1,67.5000025749207
192,169,117457,2,0,L|184:243,2,67.5000025749207
144,38,118579,5,0,0:0:0:0:
92,168,118859,2,2,L|93:214,1,33.0000010070801
175,312,119280,1,2,0:0:0:0:
185,263,119420,1,2,0:0:0:0:
307,193,119700,1,2,0:0:0:0:
307,242,119840,1,2,0:0:0:0:
423,329,120121,1,2,0:0:0:0:
417,279,120261,1,2,0:0:0:0:
385,15,120541,6,8,L|377:-9,2,16.5000005035401
451,78,120822,2,8,L|475:70,2,16.5000005035401
366,104,121102,5,2,0:0:0:0:
304,126,121242,1,2,0:0:0:0:
135,185,121523,1,2,0:0:0:0:
198,203,121663,1,2,0:0:0:0:
342,306,121943,1,2,0:0:0:0:
352,240,122083,1,2,0:0:0:0:
363,174,122224,6,0,P|385:162|400:148,1,33.0000010070801
392,90,122504,2,0,P|370:80|347:57,1,33.0000010070801,2|0,0:0|0:0,0:0:0:0:
275,61,122784,1,2,0:0:0:0:
214,126,122924,2,0,P|206:146|207:176,2,33.0000010070801,2|0|2,0:0|0:0|0:0,0:0:0:0:
127,284,123345,6,2,L|155:280,5,16.5000005035401
223,247,123906,2,2,L|245:231,5,16.5000005035401
287,167,124466,2,2,L|294:140,5,16.5000005035401
299,67,125027,2,2,L|290:39,5,16.5000005035401
287,34,125588,6,0,P|303:120|260:210,1,180.000006866455
136,212,126990,2,8,L|180:188,1,33.0000010070801
131,292,127270,1,2,0:0:0:0:
206,106,127551,1,0,0:0:0:0:
359,86,127831,6,0,P|384:134|387:167,1,72
382,271,128392,6,0,L|385:232,1,24
474,198,128672,2,0,L|439:201,1,24
386,151,128952,6,0,L|351:148,1,24
277,114,129233,1,0,0:0:0:0:
202,61,129373,1,0,0:0:0:0:
113,50,129513,6,0,L|108:83,1,24
140,157,129794,2,0,L|135:190,1,24
91,263,130074,6,0,P|128:301|159:314,1,72
263,331,130635,2,0,L|227:326,1,24
204,222,130915,2,0,L|209:258,1,24
295,245,131195,5,0,0:0:0:0:
366,191,131336,2,0,L|361:147,2,24
278,158,131756,2,0,L|273:114,1,24
299,28,132037,2,0,L|303:71,1,24
446,76,132317,6,0,P|484:113|497:144,1,72
493,250,132878,2,0,L|497:204,1,24
402,202,133158,2,0,L|406:248,1,24
416,345,133438,6,0,L|412:299,1,24
326,280,133719,2,0,L|322:326,1,24
266,380,133999,1,0,0:0:0:0:
227,292,134139,1,0,0:0:0:0:
134,319,134280,2,0,L|130:284,1,24
49,220,134560,6,0,P|93:191|126:185,1,72
230,184,135121,2,0,L|191:179,1,24
287,110,135401,2,0,L|248:105,1,24
159,76,135681,6,0,L|198:81,1,24
251,23,135962,2,0,L|290:28,1,24
439,42,136242,6,0,L|441:78,1,24
445,174,136523,1,0,0:0:0:0:
506,250,136663,1,0,0:0:0:0:
410,262,136803,6,0,L|417:188,1,72
328,117,137364,2,0,L|366:128,3,24
268,171,137924,2,0,L|295:196,3,24
198,193,138485,1,0,0:0:0:0:
174,199,138625,1,0,0:0:0:0:
151,202,138765,1,0,0:0:0:0:
127,200,138905,1,0,0:0:0:0:
103,194,139046,6,0,P|68:203|32:205,1,72
83,111,139607,2,0,L|97:92,1,24
178,96,139887,2,0,L|192:77,1,24
273,71,140167,1,0,0:0:0:0:
351,96,140308,2,0,L|358:135,2,24
451,137,140728,6,0,L|438:157,1,24
394,228,141009,2,0,L|380:247,1,24
324,311,141289,6,0,P|287:325|234:325,1,72
165,266,141850,2,0,L|180:292,1,24
87,243,142130,2,0,L|85:272,1,24
44,174,142410,2,0,L|23:196,1,24
44,89,142690,2,0,L|15:96,1,24
120,56,142971,6,0,L|158:51,1,24
225,55,143252,1,0,0:0:0:0:
275,72,143392,1,0,0:0:0:0:
308,91,143532,6,0,P|334:126|342:152,1,72
240,203,144093,2,0,L|258:187,1,24
158,197,144373,2,0,L|165:174,1,24
94,247,144653,2,0,L|84:224,1,24
59,322,144933,2,0,L|39:308,1,24
143,328,145214,6,0,P|185:300|244:306,1,96
256,192,146055,12,0,149139,0:0:0:0:
