osu file format v14

[General]
AudioFilename: audio.mp3
AudioLeadIn: 0
PreviewTime: 30535
Countdown: 0
SampleSet: Normal
StackLeniency: 0.7
Mode: 1
LetterboxInBreaks: 0
WidescreenStoryboard: 1

[Editor]
Bookmarks: 7738,30595,61071,91547,122023
DistanceSpacing: 1.1
BeatDivisor: 4
GridSize: 4
TimelineZoom: 1.5

[Metadata]
Title:TIMEOUT (KORDHELL REMIX)
TitleUnicode:ТАЙМАУТ (KORDHELL REMIX)
Artist:Nikitata
ArtistUnicode:Nikitata
Creator:SWAKE
Version:ONI
Source:
Tags:phonkhouse electronic russian funk hip hop hiphop hip-hop tachibana_ taymaut
BeatmapID:3704400
BeatmapSetID:1805678

[Difficulty]
HPDrainRate:5
CircleSize:5
OverallDifficulty:5
ApproachRate:5
SliderMultiplier:1.4
SliderTickRate:1

[Events]
//Background and Video events
0,0,"4697e46c1c8335c68991925e24e89ced.jpg",0,40
//Break Periods
//Storyboard Layer 0 (Background)
//Storyboard Layer 1 (Fail)
//Storyboard Layer 2 (Pass)
//Storyboard Layer 3 (Foreground)
//Storyboard Layer 4 (Overlay)
//Storyboard Sound Samples

[TimingPoints]
105,476.190476190476,4,1,0,50,1,0
105,-125,4,1,0,50,0,0
15343,-111.111111111111,4,1,0,50,0,0
22962,-111.111111111111,4,1,0,50,0,0
23200,-110.588274325273,4,1,0,50,0,0
23438,-110.070213789376,4,1,0,50,0,0
23676,-109.557104449552,4,1,0,50,0,0
23795,-109.302279826953,4,1,0,50,0,0
23914,-109.048756789648,4,1,0,50,0,0
24033,-108.796288740998,4,1,0,50,0,0
24152,-108.544987012592,4,1,0,50,0,0
24390,-108.045967076233,4,1,0,50,0,0
24509,-107.798115688938,4,1,0,50,0,0
24628,-107.551514486651,4,1,0,50,0,0
24747,-107.305923823525,4,1,0,50,0,0
24866,-107.06145220295,4,1,0,50,0,0
24985,-106.818206095047,4,1,0,50,0,0
25104,-106.575949218692,4,1,0,50,0,0
25224,-106.334788702141,4,1,0,50,0,0
25343,-106.094829680665,4,1,0,50,0,0
25462,-105.855839166872,4,1,0,50,0,0
25581,-105.617922939051,4,1,0,50,0,0
25700,-105.381184821737,4,1,0,50,0,0
25819,-105.145395052278,4,1,0,50,0,0
25938,-104.910768146153,4,1,0,50,0,0
26057,-104.677076452996,4,1,0,50,0,0
26176,-104.44442355556,4,1,0,50,0,0
26295,-104.212911145988,4,1,0,50,0,0
26414,-103.982314687918,4,1,0,50,0,0
26533,-103.752736478425,4,1,0,50,0,0
26652,-103.524276960569,4,1,0,50,0,0
26771,-103.296714647991,4,1,0,50,0,0
26890,-103.070150575183,4,1,0,50,0,0
27009,-102.844683958286,4,1,0,50,0,0
27128,-102.620096298698,4,1,0,50,0,0
27247,-102.396487390897,4,1,0,50,0,0
27366,-102.173955245764,4,1,0,50,0,0
27485,-101.952284291906,4,1,0,50,0,0
27604,-101.731573105834,4,1,0,50,0,0
27724,-101.511918514353,4,1,0,50,0,0
27843,-101.293107814358,4,1,0,50,0,0
27962,-101.07523838595,4,1,0,50,0,0
28081,-100.858405892552,4,1,0,50,0,0
28200,-100.642400442021,4,1,0,50,0,0
28319,-100.427318239107,4,1,0,50,0,0
28438,-100.213253804095,4,1,0,50,0,0
28557,-100,4,1,0,50,0,0
29152,-125,4,1,0,50,0,0
30581,-100,4,1,0,65,0,1
45343,-100,4,1,0,65,0,0
45819,-100,4,1,0,65,0,1
59152,-111.111111111111,4,1,0,50,0,0
61176,-125,4,1,0,50,0,0
76295,-111.111111111111,4,1,0,50,0,0
83914,-111.111111111111,4,1,0,50,0,0
84152,-110.588274325273,4,1,0,50,0,0
84390,-110.070213789376,4,1,0,50,0,0
84628,-109.557104449552,4,1,0,50,0,0
84747,-109.302279826953,4,1,0,50,0,0
84866,-109.048756789648,4,1,0,50,0,0
84985,-108.796288740998,4,1,0,50,0,0
85104,-108.544987012592,4,1,0,50,0,0
85342,-108.045967076233,4,1,0,50,0,0
85461,-107.798115688938,4,1,0,50,0,0
85580,-107.551514486651,4,1,0,50,0,0
85699,-107.305923823525,4,1,0,50,0,0
85818,-107.06145220295,4,1,0,50,0,0
85937,-106.818206095047,4,1,0,50,0,0
86056,-106.575949218692,4,1,0,50,0,0
86176,-106.334788702141,4,1,0,50,0,0
86295,-106.094829680665,4,1,0,50,0,0
86414,-105.855839166872,4,1,0,50,0,0
86533,-105.617922939051,4,1,0,50,0,0
86652,-105.381184821737,4,1,0,50,0,0
86771,-105.145395052278,4,1,0,50,0,0
86890,-104.910768146153,4,1,0,50,0,0
87009,-104.677076452996,4,1,0,50,0,0
87128,-104.44442355556,4,1,0,50,0,0
87247,-104.212911145988,4,1,0,50,0,0
87366,-103.982314687918,4,1,0,50,0,0
87485,-103.752736478425,4,1,0,50,0,0
87604,-103.524276960569,4,1,0,50,0,0
87723,-103.296714647991,4,1,0,50,0,0
87842,-103.070150575183,4,1,0,50,0,0
87961,-102.844683958286,4,1,0,50,0,0
88080,-102.620096298698,4,1,0,50,0,0
88199,-102.396487390897,4,1,0,50,0,0
88318,-102.173955245764,4,1,0,50,0,0
88437,-101.952284291906,4,1,0,50,0,0
88556,-101.731573105834,4,1,0,50,0,0
88676,-101.511918514353,4,1,0,50,0,0
88795,-101.293107814358,4,1,0,50,0,0
88914,-101.07523838595,4,1,0,50,0,0
89033,-100.858405892552,4,1,0,50,0,0
89152,-100.642400442021,4,1,0,50,0,0
89271,-100.427318239107,4,1,0,50,0,0
89390,-100.213253804095,4,1,0,50,0,0
89509,-100,4,1,0,50,0,0
90104,-125,4,1,0,50,0,0
91533,-100,4,1,0,65,0,1
106295,-100,4,1,0,65,0,0
106771,-100,4,1,0,65,0,1
118200,-111.111111111111,4,1,0,50,0,0
118319,-110.726643598616,4,1,0,50,0,0
118438,-110.344827586207,4,1,0,50,0,0
118557,-109.965635738832,4,1,0,50,0,0
118676,-109.58904109589,4,1,0,50,0,0
118795,-109.215017064846,4,1,0,50,0,0
118914,-108.843537414966,4,1,0,50,0,0
119033,-108.474576271186,4,1,0,50,0,0
119152,-108.108108108108,4,1,0,50,0,0
119271,-107.744107744108,4,1,0,50,0,0
119390,-107.38255033557,4,1,0,50,0,0
119509,-107.023411371237,4,1,0,50,0,0
119628,-106.666666666667,4,1,0,50,0,0
119747,-106.312292358804,4,1,0,50,0,0
119866,-105.960264900662,4,1,0,50,0,0
119985,-105.610561056106,4,1,0,50,0,0
120104,-105.263157894737,4,1,0,50,0,0
120224,-104.918032786885,4,1,0,50,0,0
120343,-104.575163398693,4,1,0,50,0,0
120462,-104.234527687296,4,1,0,50,0,0
120581,-103.896103896104,4,1,0,50,0,0
120700,-103.559870550162,4,1,0,50,0,0
120819,-103.225806451613,4,1,0,50,0,0
120938,-102.893890675241,4,1,0,50,0,0
121057,-102.564102564103,4,1,0,50,0,0
121176,-102.23642172524,4,1,0,50,0,0
121295,-101.910828025478,4,1,0,50,0,0
121414,-101.587301587302,4,1,0,50,0,0
121533,-101.26582278481,4,1,0,50,0,0
121771,-100.62893081761,4,1,0,50,0,0
122009,-100,4,1,0,65,0,1
150581,-125,4,1,0,50,0,0

[HitObjects]
255,109,7724,5,0,0:0:0:0:
255,109,8200,1,0,0:0:0:0:
255,109,8438,1,8,0:0:0:0:
255,109,8676,1,8,0:0:0:0:
255,109,9152,1,0,0:0:0:0:
255,109,9390,1,8,0:0:0:0:
255,109,9628,1,0,0:0:0:0:
256,61,10104,1,0,0:0:0:0:
256,61,10343,1,0,0:0:0:0:
256,61,10581,1,8,0:0:0:0:
240,63,11057,1,8,0:0:0:0:
240,63,11295,1,0,0:0:0:0:
240,63,11533,1,0,0:0:0:0:
240,63,12009,1,8,0:0:0:0:
240,63,12247,1,8,0:0:0:0:
240,63,12485,1,8,0:0:0:0:
240,63,12962,1,8,0:0:0:0:
240,63,13200,1,0,0:0:0:0:
240,63,13676,1,0,0:0:0:0:
240,63,13914,1,8,0:0:0:0:
240,63,14152,1,8,0:0:0:0:
240,63,14390,1,0,0:0:0:0:
241,56,14866,1,0,0:0:0:0:
241,57,15104,1,8,0:0:0:0:
241,57,15343,1,0,0:0:0:0:
241,56,15581,1,8,0:0:0:0:
241,56,15819,1,8,0:0:0:0:
241,57,16057,1,0,0:0:0:0:
241,57,16295,1,8,0:0:0:0:
241,56,16533,1,8,0:0:0:0:
241,56,16771,1,0,0:0:0:0:
241,57,17247,1,8,0:0:0:0:
233,59,17724,1,0,0:0:0:0:
233,59,17962,1,0,0:0:0:0:
240,47,18081,1,0,0:0:0:0:
233,59,18200,1,8,0:0:0:0:
235,58,18438,1,0,0:0:0:0:
233,59,18676,1,8,0:0:0:0:
247,66,19152,1,8,0:0:0:0:
335,92,19390,1,0,0:0:0:0:
197,148,19509,1,0,0:0:0:0:
335,92,19628,1,8,0:0:0:0:
321,80,19866,1,0,0:0:0:0:
321,80,20104,1,8,0:0:0:0:
306,78,20581,1,8,0:0:0:0:
295,78,21057,1,0,0:0:0:0:
295,78,21533,1,8,0:0:0:0:
295,78,21771,1,8,0:0:0:0:
295,78,21890,1,8,0:0:0:0:
295,78,22009,1,0,0:0:0:0:
295,78,22247,1,0,0:0:0:0:
295,78,22485,1,8,0:0:0:0:
314,67,22962,1,0,0:0:0:0:
306,65,23438,1,8,0:0:0:0:
306,65,23676,1,0,0:0:0:0:
247,61,23795,1,0,0:0:0:0:
306,65,23914,1,8,0:0:0:0:
306,65,24152,1,0,0:0:0:0:
286,68,24390,1,8,0:0:0:0:
161,106,24509,1,8,0:0:0:0:
286,68,24628,1,0,0:0:0:0:
286,68,24866,1,0,0:0:0:0:
224,252,25104,1,8,0:0:0:0:
279,93,25343,1,0,0:0:0:0:
279,93,25581,1,8,0:0:0:0:
279,93,25700,1,8,0:0:0:0:
279,93,25819,1,0,0:0:0:0:
279,93,26057,1,0,0:0:0:0:
279,93,26295,1,8,0:0:0:0:
246,47,26414,1,0,0:0:0:0:
279,93,26533,1,8,0:0:0:0:
286,112,26771,1,0,0:0:0:0:
226,53,27009,1,0,0:0:0:0:
227,60,27247,1,8,0:0:0:0:
226,55,27366,1,0,0:0:0:0:
227,60,27485,1,8,0:0:0:0:
227,60,27724,1,8,0:0:0:0:
233,72,27962,1,0,0:0:0:0:
208,51,28200,1,8,0:0:0:0:
233,72,28319,1,8,0:0:0:0:
208,51,28438,1,8,0:0:0:0:
227,92,28557,1,0,0:0:0:0:
280,57,29152,1,8,0:0:0:0:
280,57,29390,1,8,0:0:0:0:
280,57,29628,1,8,0:0:0:0:
281,62,30104,1,0,0:0:0:0:
281,62,30343,1,0,0:0:0:0:
278,68,30581,1,4,0:0:0:0:
264,114,30938,1,8,0:0:0:0:
276,92,31295,1,8,0:0:0:0:
267,94,31533,5,0,0:0:0:0:
184,85,31771,1,8,0:0:0:0:
266,97,31890,1,0,0:0:0:0:
266,97,32009,1,0,0:0:0:0:
264,100,32247,1,8,0:0:0:0:
264,100,32485,1,0,0:0:0:0:
266,97,32843,1,8,0:0:0:0:
253,103,33200,1,8,0:0:0:0:
253,103,33438,1,8,0:0:0:0:
251,103,33557,1,8,0:0:0:0:
253,103,33676,1,0,0:0:0:0:
253,103,33795,1,8,0:0:0:0:
221,85,34033,1,0,0:0:0:0:
221,85,34152,1,8,0:0:0:0:
221,85,34390,1,0,0:0:0:0:
251,78,34866,1,0,0:0:0:0:
284,63,34985,1,8,0:0:0:0:
251,78,35104,1,0,0:0:0:0:
251,83,35343,1,8,0:0:0:0:
248,83,35581,1,0,0:0:0:0:
246,84,35819,1,8,0:0:0:0:
246,83,35938,1,8,0:0:0:0:
246,83,36057,1,0,0:0:0:0:
237,83,36295,1,8,0:0:0:0:
259,82,36533,1,0,0:0:0:0:
249,146,36771,1,8,0:0:0:0:
289,40,36890,1,8,0:0:0:0:
256,82,37009,1,0,0:0:0:0:
255,83,37247,1,8,0:0:0:0:
253,83,37485,1,0,0:0:0:0:
251,88,37724,1,0,0:0:0:0:
251,88,37843,1,8,0:0:0:0:
251,88,37962,1,0,0:0:0:0:
248,88,38200,1,0,0:0:0:0:
238,71,38557,1,8,0:0:0:0:
236,73,38914,1,8,0:0:0:0:
233,73,39152,1,0,0:0:0:0:
303,121,39390,1,0,0:0:0:0:
230,74,39509,1,8,0:0:0:0:
230,74,39628,1,0,0:0:0:0:
272,57,39866,1,8,0:0:0:0:
272,57,40104,1,0,0:0:0:0:
272,57,40462,1,8,0:0:0:0:
254,66,40819,1,8,0:0:0:0:
253,67,41057,1,0,0:0:0:0:
249,59,41176,1,8,0:0:0:0:
248,62,41295,1,0,0:0:0:0:
247,64,41414,1,8,0:0:0:0:
245,65,41652,1,0,0:0:0:0:
245,65,41771,1,8,0:0:0:0:
245,65,42009,1,0,0:0:0:0:
196,82,42485,1,8,0:0:0:0:
196,82,42604,1,0,0:0:0:0:
196,82,42724,1,0,0:0:0:0:
194,86,42962,1,8,0:0:0:0:
192,88,43200,1,0,0:0:0:0:
190,89,43438,1,8,0:0:0:0:
189,89,43557,1,8,0:0:0:0:
189,89,43676,1,0,0:0:0:0:
188,89,43914,1,0,0:0:0:0:
192,88,44152,1,8,0:0:0:0:
163,28,44390,1,0,0:0:0:0:
168,41,44509,1,0,0:0:0:0:
181,91,44628,1,8,0:0:0:0:
179,91,44866,1,8,0:0:0:0:
174,94,45104,1,8,0:0:0:0:
161,87,45224,1,8,0:0:0:0:
171,93,45343,1,0,0:0:0:0:
266,64,45819,1,12,0:0:0:0:
263,76,46057,1,0,0:0:0:0:
262,77,46176,1,0,0:0:0:0:
262,77,46295,1,8,0:0:0:0:
262,79,46533,1,0,0:0:0:0:
262,79,46771,1,8,0:0:0:0:
195,59,46890,1,0,0:0:0:0:
263,76,47128,1,0,0:0:0:0:
262,77,47247,1,8,0:0:0:0:
256,40,47485,1,0,0:0:0:0:
257,77,47724,1,8,0:0:0:0:
217,212,48081,1,0,0:0:0:0:
242,76,48200,1,8,0:0:0:0:
214,97,48438,1,0,0:0:0:0:
286,68,48557,1,8,0:0:0:0:
286,68,48676,1,8,0:0:0:0:
278,71,48914,1,8,0:0:0:0:
276,71,49033,1,0,0:0:0:0:
276,71,49152,1,8,0:0:0:0:
265,41,49390,1,8,0:0:0:0:
204,108,49628,1,0,0:0:0:0:
177,63,49985,1,0,0:0:0:0:
204,57,50104,1,8,0:0:0:0:
218,74,50343,1,0,0:0:0:0:
224,84,50581,1,8,0:0:0:0:
220,81,50700,1,0,0:0:0:0:
217,83,50938,1,8,0:0:0:0:
217,83,51057,1,8,0:0:0:0:
255,84,51295,1,8,0:0:0:0:
255,84,51533,1,0,0:0:0:0:
269,194,51890,1,8,0:0:0:0:
271,103,52009,1,0,0:0:0:0:
266,78,52247,1,8,0:0:0:0:
266,79,52366,1,8,0:0:0:0:
266,79,52485,1,0,0:0:0:0:
261,81,52724,1,0,0:0:0:0:
249,81,52962,1,0,0:0:0:0:
231,74,53081,1,0,0:0:0:0:
231,74,53200,1,8,0:0:0:0:
266,64,53438,1,4,0:0:0:0:
262,77,53914,1,8,0:0:0:0:
262,79,54152,1,0,0:0:0:0:
262,79,54390,1,8,0:0:0:0:
195,59,54509,1,0,0:0:0:0:
180,52,54747,5,8,0:0:0:0:
240,10,54866,1,0,0:0:0:0:
262,77,55104,1,8,0:0:0:0:
257,77,55343,1,0,0:0:0:0:
272,68,55700,1,0,0:0:0:0:
242,76,55819,1,8,0:0:0:0:
214,97,56057,1,0,0:0:0:0:
286,68,56295,1,8,0:0:0:0:
185,44,56414,1,0,0:0:0:0:
276,71,56652,1,0,0:0:0:0:
276,71,56771,1,8,0:0:0:0:
226,39,57009,1,8,0:0:0:0:
204,108,57247,1,0,0:0:0:0:
209,60,57604,1,0,0:0:0:0:
204,57,57724,1,8,0:0:0:0:
218,74,57962,1,8,0:0:0:0:
224,84,58200,1,0,0:0:0:0:
220,81,58319,1,0,0:0:0:0:
217,83,58557,1,0,0:0:0:0:
217,83,58676,1,8,0:0:0:0:
255,84,58914,1,0,0:0:0:0:
271,103,59628,1,8,0:0:0:0:
266,78,59866,1,8,0:0:0:0:
266,79,60104,1,8,0:0:0:0:
249,81,60581,1,0,0:0:0:0:
231,74,60819,1,0,0:0:0:0:
204,68,61057,1,4,0:0:0:0:
330,127,61533,1,8,0:0:0:0:
330,127,61692,1,0,0:0:0:0:
330,127,61851,1,0,0:0:0:0:
330,127,62009,1,8,0:0:0:0:
330,127,62327,1,8,0:0:0:0:
330,127,62485,1,0,0:0:0:0:
330,127,62803,1,8,0:0:0:0:
330,127,62962,1,0,0:0:0:0:
330,127,63438,1,8,0:0:0:0:
330,127,63597,1,8,0:0:0:0:
330,127,63755,1,0,0:0:0:0:
330,127,63914,1,8,0:0:0:0:
330,127,64231,1,8,0:0:0:0:
330,127,64390,1,8,0:0:0:0:
330,127,64708,1,0,0:0:0:0:
334,125,64866,1,8,0:0:0:0:
334,125,65343,1,8,0:0:0:0:
334,125,65501,1,0,0:0:0:0:
334,125,65660,1,0,0:0:0:0:
334,125,65819,1,8,0:0:0:0:
334,125,66295,1,0,0:0:0:0:
273,112,66454,1,8,0:0:0:0:
273,112,66612,1,8,0:0:0:0:
273,112,66771,1,0,0:0:0:0:
273,112,67247,1,8,0:0:0:0:
273,112,67406,1,0,0:0:0:0:
273,112,67565,1,0,0:0:0:0:
273,112,67724,1,8,0:0:0:0:
273,112,68041,1,0,0:0:0:0:
273,112,68200,1,8,0:0:0:0:
273,112,68517,1,8,0:0:0:0:
255,109,68676,5,0,0:0:0:0:
255,109,69152,1,0,0:0:0:0:
255,109,69390,1,8,0:0:0:0:
255,109,69628,1,8,0:0:0:0:
255,109,70104,1,0,0:0:0:0:
255,109,70343,1,8,0:0:0:0:
255,109,70581,1,0,0:0:0:0:
256,61,71057,1,0,0:0:0:0:
256,61,71295,1,0,0:0:0:0:
256,61,71533,1,8,0:0:0:0:
240,63,72009,1,8,0:0:0:0:
240,63,72247,1,0,0:0:0:0:
240,63,72485,1,0,0:0:0:0:
240,63,72962,1,8,0:0:0:0:
240,63,73200,1,8,0:0:0:0:
240,63,73438,1,8,0:0:0:0:
240,63,73914,1,8,0:0:0:0:
240,63,74152,1,0,0:0:0:0:
240,63,74390,1,0,0:0:0:0:
240,63,74866,1,8,0:0:0:0:
240,63,75104,5,8,0:0:0:0:
240,63,75343,1,0,0:0:0:0:
241,56,75819,1,0,0:0:0:0:
241,57,76057,1,8,0:0:0:0:
241,57,76295,1,0,0:0:0:0:
241,56,76533,1,8,0:0:0:0:
241,56,76771,1,8,0:0:0:0:
241,57,77009,1,0,0:0:0:0:
241,57,77247,1,8,0:0:0:0:
241,56,77485,1,8,0:0:0:0:
241,56,77724,1,0,0:0:0:0:
241,57,78200,1,8,0:0:0:0:
235,58,78319,1,0,0:0:0:0:
233,59,78676,1,8,0:0:0:0:
233,59,78914,1,0,0:0:0:0:
240,47,79033,1,0,0:0:0:0:
233,59,79152,1,8,0:0:0:0:
235,58,79390,1,0,0:0:0:0:
233,59,79628,1,8,0:0:0:0:
247,66,80104,1,8,0:0:0:0:
335,92,80343,1,0,0:0:0:0:
197,148,80462,1,0,0:0:0:0:
335,92,80581,1,8,0:0:0:0:
321,80,80819,1,0,0:0:0:0:
321,80,81057,1,8,0:0:0:0:
307,77,81176,1,0,0:0:0:0:
306,78,81533,1,8,0:0:0:0:
295,78,82009,1,0,0:0:0:0:
295,78,82247,1,0,0:0:0:0:
295,78,82485,1,8,0:0:0:0:
295,78,82724,1,8,0:0:0:0:
295,78,82843,1,8,0:0:0:0:
295,78,82962,1,0,0:0:0:0:
295,78,83200,1,0,0:0:0:0:
295,78,83438,1,8,0:0:0:0:
314,67,83914,1,0,0:0:0:0:
306,65,84390,1,8,0:0:0:0:
306,65,84628,1,0,0:0:0:0:
247,61,84747,1,8,0:0:0:0:
306,65,84866,1,8,0:0:0:0:
306,65,85104,1,0,0:0:0:0:
286,68,85343,1,8,0:0:0:0:
161,106,85462,1,0,0:0:0:0:
286,68,85581,1,8,0:0:0:0:
286,68,85819,1,0,0:0:0:0:
212,201,86057,1,8,0:0:0:0:
279,93,86295,1,0,0:0:0:0:
279,93,86533,1,0,0:0:0:0:
279,93,86652,1,8,0:0:0:0:
279,93,86771,1,8,0:0:0:0:
279,93,87009,1,0,0:0:0:0:
279,93,87247,1,8,0:0:0:0:
246,47,87366,1,0,0:0:0:0:
279,93,87485,1,8,0:0:0:0:
286,112,87724,1,8,0:0:0:0:
226,53,87962,1,0,0:0:0:0:
226,55,88081,1,0,0:0:0:0:
227,60,88200,1,8,0:0:0:0:
227,60,88438,1,0,0:0:0:0:
227,60,88676,1,8,0:0:0:0:
233,72,88795,1,8,0:0:0:0:
233,72,88914,5,0,0:0:0:0:
208,51,89152,1,0,0:0:0:0:
208,51,89390,1,8,0:0:0:0:
209,52,89509,1,8,0:0:0:0:
280,57,90104,1,8,0:0:0:0:
280,57,90343,5,8,0:0:0:0:
280,57,90581,1,8,0:0:0:0:
281,62,91057,1,0,0:0:0:0:
244,136,91295,1,0,0:0:0:0:
278,68,91533,1,4,0:0:0:0:
264,114,91890,1,8,0:0:0:0:
276,92,92247,1,8,0:0:0:0:
267,94,92485,5,0,0:0:0:0:
184,85,92724,1,8,0:0:0:0:
266,97,92843,1,8,0:0:0:0:
266,97,92962,1,0,0:0:0:0:
264,100,93200,1,8,0:0:0:0:
264,100,93438,1,0,0:0:0:0:
266,97,93795,1,8,0:0:0:0:
253,103,94152,1,8,0:0:0:0:
253,103,94390,1,8,0:0:0:0:
251,103,94509,1,0,0:0:0:0:
253,103,94628,1,0,0:0:0:0:
253,103,94747,1,8,0:0:0:0:
221,85,94985,1,0,0:0:0:0:
221,85,95104,1,8,0:0:0:0:
221,85,95343,1,0,0:0:0:0:
251,78,95819,1,0,0:0:0:0:
284,63,95938,1,8,0:0:0:0:
251,78,96057,1,0,0:0:0:0:
251,83,96295,1,8,0:0:0:0:
248,83,96533,1,0,0:0:0:0:
246,84,96771,1,8,0:0:0:0:
246,83,96890,1,8,0:0:0:0:
246,83,97009,1,0,0:0:0:0:
237,83,97247,1,8,0:0:0:0:
259,82,97485,1,0,0:0:0:0:
249,146,97724,1,8,0:0:0:0:
256,82,97843,1,0,0:0:0:0:
256,82,97962,1,8,0:0:0:0:
255,83,98200,1,8,0:0:0:0:
253,83,98438,1,8,0:0:0:0:
251,88,98676,1,8,0:0:0:0:
251,88,98795,1,8,0:0:0:0:
251,88,98914,1,0,0:0:0:0:
248,88,99152,1,0,0:0:0:0:
238,71,99509,1,8,0:0:0:0:
236,73,99866,1,8,0:0:0:0:
233,73,100104,1,0,0:0:0:0:
303,121,100343,1,0,0:0:0:0:
230,74,100462,1,0,0:0:0:0:
230,74,100581,1,0,0:0:0:0:
272,57,100819,1,8,0:0:0:0:
272,57,101057,1,0,0:0:0:0:
272,57,101414,1,8,0:0:0:0:
254,66,101771,1,8,0:0:0:0:
253,67,102009,1,8,0:0:0:0:
249,59,102128,1,8,0:0:0:0:
248,62,102247,1,0,0:0:0:0:
247,64,102366,1,8,0:0:0:0:
245,65,102604,1,0,0:0:0:0:
245,65,102724,1,8,0:0:0:0:
245,65,102962,1,0,0:0:0:0:
196,82,103438,1,8,0:0:0:0:
196,82,103557,1,8,0:0:0:0:
196,82,103676,1,0,0:0:0:0:
194,86,103914,1,8,0:0:0:0:
192,88,104152,1,0,0:0:0:0:
190,89,104390,1,8,0:0:0:0:
189,89,104509,1,0,0:0:0:0:
189,89,104628,1,0,0:0:0:0:
188,89,104866,1,0,0:0:0:0:
192,88,105104,1,8,0:0:0:0:
182,92,105343,1,0,0:0:0:0:
181,91,105581,5,0,0:0:0:0:
179,91,105700,1,8,0:0:0:0:
179,91,105819,1,8,0:0:0:0:
174,94,106057,1,8,0:0:0:0:
161,87,106176,1,8,0:0:0:0:
171,93,106295,1,0,0:0:0:0:
297,158,106414,1,8,0:0:0:0:
297,158,106533,1,0,0:0:0:0:
266,64,106771,5,12,0:0:0:0:
263,76,107009,1,0,0:0:0:0:
262,77,107128,1,8,0:0:0:0:
262,77,107247,1,8,0:0:0:0:
262,79,107485,1,0,0:0:0:0:
262,79,107724,1,8,0:0:0:0:
195,59,107843,1,0,0:0:0:0:
263,76,108081,1,0,0:0:0:0:
262,77,108200,1,8,0:0:0:0:
256,40,108438,1,0,0:0:0:0:
257,77,108676,1,8,0:0:0:0:
271,127,109033,1,0,0:0:0:0:
242,76,109152,1,8,0:0:0:0:
214,97,109390,1,0,0:0:0:0:
286,68,109509,1,0,0:0:0:0:
286,68,109628,1,8,0:0:0:0:
278,71,109866,1,0,0:0:0:0:
276,71,109985,1,8,0:0:0:0:
276,71,110104,1,8,0:0:0:0:
265,41,110343,1,8,0:0:0:0:
204,108,110581,1,0,0:0:0:0:
266,145,110938,1,0,0:0:0:0:
204,57,111057,1,8,0:0:0:0:
218,74,111295,1,0,0:0:0:0:
224,84,111533,1,8,0:0:0:0:
220,81,111652,1,0,0:0:0:0:
217,83,111890,1,8,0:0:0:0:
217,83,112009,1,8,0:0:0:0:
255,84,112247,1,8,0:0:0:0:
255,84,112485,1,0,0:0:0:0:
271,103,112962,1,8,0:0:0:0:
266,78,113200,1,8,0:0:0:0:
266,79,113319,1,8,0:0:0:0:
266,79,113438,1,0,0:0:0:0:
261,81,113676,1,0,0:0:0:0:
249,81,113914,1,0,0:0:0:0:
231,74,114033,1,8,0:0:0:0:
231,74,114152,1,8,0:0:0:0:
266,64,114390,1,4,0:0:0:0:
262,77,114866,1,8,0:0:0:0:
262,79,115104,1,0,0:0:0:0:
262,79,115343,1,8,0:0:0:0:
195,59,115462,1,0,0:0:0:0:
180,52,115700,5,8,0:0:0:0:
240,10,115819,1,0,0:0:0:0:
262,77,116057,1,8,0:0:0:0:
257,77,116295,1,0,0:0:0:0:
272,68,116652,1,8,0:0:0:0:
242,76,116771,1,0,0:0:0:0:
214,97,117009,1,8,0:0:0:0:
286,68,117247,5,8,0:0:0:0:
185,44,117366,1,0,0:0:0:0:
276,71,117604,1,0,0:0:0:0:
276,71,117724,1,8,0:0:0:0:
226,39,117962,1,0,0:0:0:0:
355,73,118200,1,0,0:0:0:0:
270,51,118438,1,8,0:0:0:0:
279,83,118676,1,8,0:0:0:0:
279,83,118795,1,8,0:0:0:0:
279,83,118914,1,0,0:0:0:0:
279,83,119152,1,8,0:0:0:0:
279,83,119390,1,0,0:0:0:0:
279,83,119628,1,0,0:0:0:0:
279,83,119747,1,8,0:0:0:0:
279,83,119866,1,0,0:0:0:0:
279,83,120104,1,8,0:0:0:0:
262,83,120343,1,0,0:0:0:0:
261,82,120462,1,0,0:0:0:0:
262,83,120581,1,8,0:0:0:0:
261,82,120819,1,0,0:0:0:0:
261,82,120938,1,0,0:0:0:0:
261,82,121057,1,8,0:0:0:0:
262,83,121295,1,0,0:0:0:0:
262,83,121414,1,0,0:0:0:0:
261,82,121533,1,8,0:0:0:0:
278,68,122009,5,4,0:0:0:0:
264,114,122366,1,8,0:0:0:0:
269,124,122485,1,0,0:0:0:0:
276,92,122724,1,8,0:0:0:0:
267,94,122962,5,0,0:0:0:0:
184,85,123200,1,8,0:0:0:0:
266,97,123319,1,0,0:0:0:0:
266,97,123438,1,0,0:0:0:0:
264,100,123676,1,8,0:0:0:0:
264,100,123914,1,0,0:0:0:0:
266,97,124152,1,0,0:0:0:0:
266,97,124271,1,8,0:0:0:0:
261,101,124390,1,0,0:0:0:0:
253,103,124628,1,8,0:0:0:0:
253,103,124866,1,8,0:0:0:0:
216,69,124985,1,8,0:0:0:0:
253,103,125104,1,0,0:0:0:0:
253,103,125224,1,8,0:0:0:0:
221,85,125462,1,0,0:0:0:0:
221,85,125581,1,8,0:0:0:0:
221,85,125819,1,8,0:0:0:0:
251,78,126295,1,0,0:0:0:0:
252,82,126414,1,8,0:0:0:0:
251,78,126533,1,0,0:0:0:0:
251,83,126771,1,8,0:0:0:0:
248,83,127009,1,0,0:0:0:0:
246,84,127247,1,8,0:0:0:0:
246,83,127366,1,8,0:0:0:0:
246,83,127485,1,0,0:0:0:0:
237,83,127724,1,8,0:0:0:0:
210,73,127962,1,0,0:0:0:0:
259,82,128200,1,0,0:0:0:0:
256,82,128319,1,0,0:0:0:0:
256,82,128438,1,8,0:0:0:0:
255,83,128676,1,0,0:0:0:0:
253,83,128914,1,8,0:0:0:0:
251,88,129152,1,0,0:0:0:0:
251,88,129271,1,8,0:0:0:0:
251,88,129390,1,0,0:0:0:0:
200,176,129509,1,8,0:0:0:0:
248,88,129628,1,0,0:0:0:0:
238,71,129985,1,8,0:0:0:0:
238,73,130104,1,0,0:0:0:0:
236,73,130343,1,8,0:0:0:0:
233,73,130581,1,0,0:0:0:0:
303,121,130819,1,0,0:0:0:0:
230,74,130938,1,8,0:0:0:0:
230,74,131057,1,0,0:0:0:0:
272,57,131295,1,8,0:0:0:0:
272,57,131533,1,0,0:0:0:0:
272,57,131771,1,8,0:0:0:0:
272,57,131890,1,8,0:0:0:0:
268,60,132009,1,0,0:0:0:0:
254,66,132247,1,8,0:0:0:0:
253,67,132485,1,0,0:0:0:0:
250,66,132604,1,8,0:0:0:0:
248,62,132724,1,0,0:0:0:0:
247,64,132843,1,8,0:0:0:0:
245,65,133081,1,0,0:0:0:0:
245,65,133200,1,8,0:0:0:0:
245,65,133438,1,0,0:0:0:0:
196,82,133914,1,8,0:0:0:0:
196,82,134033,1,0,0:0:0:0:
196,82,134152,1,8,0:0:0:0:
194,86,134390,1,8,0:0:0:0:
192,88,134628,1,0,0:0:0:0:
190,89,134866,1,8,0:0:0:0:
234,86,134985,1,8,0:0:0:0:
189,89,135104,1,0,0:0:0:0:
188,89,135343,1,0,0:0:0:0:
224,72,135581,1,8,0:0:0:0:
182,92,135819,1,0,0:0:0:0:
232,54,135938,1,0,0:0:0:0:
181,91,136057,1,8,0:0:0:0:
174,46,136176,1,0,0:0:0:0:
179,91,136295,1,8,0:0:0:0:
245,41,136533,1,8,0:0:0:0:
171,93,136771,1,0,0:0:0:0:
211,25,136890,1,8,0:0:0:0:
172,92,137009,1,0,0:0:0:0:
266,64,137247,1,12,0:0:0:0:
263,76,137485,1,0,0:0:0:0:
262,77,137604,1,0,0:0:0:0:
262,77,137724,1,8,0:0:0:0:
262,79,137962,1,0,0:0:0:0:
262,79,138200,1,8,0:0:0:0:
195,59,138319,1,0,0:0:0:0:
263,76,138557,1,0,0:0:0:0:
262,77,138676,1,8,0:0:0:0:
222,55,138914,1,8,0:0:0:0:
257,77,139152,1,0,0:0:0:0:
180,138,139509,1,0,0:0:0:0:
242,76,139628,1,8,0:0:0:0:
214,97,139866,1,0,0:0:0:0:
286,68,139985,1,8,0:0:0:0:
286,68,140104,1,8,0:0:0:0:
278,71,140343,1,8,0:0:0:0:
276,71,140462,1,0,0:0:0:0:
276,71,140581,1,8,0:0:0:0:
239,47,140700,1,0,0:0:0:0:
265,41,140819,1,8,0:0:0:0:
204,108,141057,1,0,0:0:0:0:
212,162,141414,1,0,0:0:0:0:
204,57,141533,1,8,0:0:0:0:
218,74,141771,1,0,0:0:0:0:
224,84,142009,1,8,0:0:0:0:
220,81,142128,1,0,0:0:0:0:
217,83,142366,1,8,0:0:0:0:
217,83,142485,1,8,0:0:0:0:
255,84,142724,1,8,0:0:0:0:
255,84,142962,1,0,0:0:0:0:
200,162,143319,1,0,0:0:0:0:
271,103,143438,1,8,0:0:0:0:
266,78,143676,1,8,0:0:0:0:
266,79,143795,1,8,0:0:0:0:
266,79,143914,1,0,0:0:0:0:
261,81,144152,1,0,0:0:0:0:
231,74,144271,1,8,0:0:0:0:
249,81,144390,1,0,0:0:0:0:
231,74,144509,1,0,0:0:0:0:
231,74,144628,1,8,0:0:0:0:
266,64,144866,1,4,0:0:0:0:
286,60,145224,1,8,0:0:0:0:
262,77,145343,1,8,0:0:0:0:
262,79,145581,1,0,0:0:0:0:
309,79,145700,1,8,0:0:0:0:
262,79,145819,1,8,0:0:0:0:
195,59,145938,1,0,0:0:0:0:
180,52,146176,5,8,0:0:0:0:
240,10,146295,1,0,0:0:0:0:
262,77,146533,1,8,0:0:0:0:
257,77,146771,1,0,0:0:0:0:
279,101,147009,1,0,0:0:0:0:
272,68,147128,1,0,0:0:0:0:
242,76,147247,1,8,0:0:0:0:
214,97,147485,1,0,0:0:0:0:
286,68,147604,1,0,0:0:0:0:
286,68,147724,1,8,0:0:0:0:
185,44,147843,1,0,0:0:0:0:
276,71,148081,1,8,0:0:0:0:
276,71,148200,1,0,0:0:0:0:
237,31,148319,1,8,0:0:0:0:
226,39,148438,1,0,0:0:0:0:
204,108,148676,1,0,0:0:0:0:
209,60,149033,1,0,0:0:0:0:
204,57,149152,1,8,0:0:0:0:
218,74,149390,1,8,0:0:0:0:
228,32,149509,1,8,0:0:0:0:
224,84,149628,1,0,0:0:0:0:
220,81,149747,1,0,0:0:0:0:
217,83,149985,1,0,0:0:0:0:
217,83,150104,1,8,0:0:0:0:
255,84,150343,1,0,0:0:0:0:
318,45,150819,1,0,0:0:0:0:
271,103,151057,1,8,0:0:0:0:
266,78,151295,1,8,0:0:0:0:
266,79,151533,1,0,0:0:0:0:
312,73,152009,1,0,0:0:0:0:
312,73,152247,1,8,0:0:0:0:
