osu file format v14

[General]
AudioFilename: audio.mp3
AudioLeadIn: 0
PreviewTime: 67438
Countdown: 0
SampleSet: Soft
StackLeniency: 0.1
Mode: 0
LetterboxInBreaks: 0
WidescreenStoryboard: 1

[Editor]
Bookmarks: 52571
DistanceSpacing: 1.1
BeatDivisor: 8
GridSize: 16
TimelineZoom: 2.699999

[Metadata]
Title:Zankoku na Tenshi no These (TV Size)
TitleUnicode:残酷な天使のテーゼ (TV Size)
Artist:Nika Lenina
ArtistUnicode:Nika Lenina
Creator:schoolboy
Version:Insane
Source:新世紀エヴァンゲリオン
Tags:pop ukrainian neon genesis evangelion anime opening a cruel angel's thesis angel komore ника ленина mirash piroshki unranked_mapper unranked mapper wenect wenet sherrycherry tatemae Loreley Anishina Kodoku maiev op cover evangerion ukraine
BeatmapID:3388441
BeatmapSetID:1629671

[Difficulty]
HPDrainRate:5
CircleSize:4
OverallDifficulty:7
ApproachRate:8
SliderMultiplier:2.1
SliderTickRate:1

[Events]
//Background and Video events
0,0,"bg.jpg",0,0
//Break Periods
//Storyboard Layer 0 (Background)
//Storyboard Layer 1 (Fail)
//Storyboard Layer 2 (Pass)
//Storyboard Layer 3 (Foreground)
//Storyboard Layer 4 (Overlay)
//Storyboard Sound Samples

[TimingPoints]
1288,845.070422535211,4,2,1,40,1,0
1288,-200,4,2,1,40,0,0
2133,670.391061452513,4,2,1,40,1,0
2803,606.060606060605,4,2,1,40,1,0
2803,-200,4,2,1,40,0,0
3409,540.54054054054,4,2,1,40,1,0
3949,705.882352941175,4,2,1,40,1,0
4301,799.999999999998,4,2,1,40,1,0
4301,-200,4,2,1,40,0,0
5888,-100,4,2,1,40,0,0
5900,857.142857142855,4,2,1,40,1,0
5900,-76.9230769230769,4,2,1,40,0,0
7388,-166.666666666667,4,2,1,40,0,0
7483,759.493670886074,4,2,1,40,1,0
7483,-181.818181818182,4,2,1,40,0,0
8178,-200,4,2,1,40,0,0
8907,789.473684210524,4,2,1,40,1,0
8907,-200,4,2,1,40,0,0
10387,769.230769230767,4,2,1,40,1,0
10387,-200,4,2,1,40,0,0
10420,-200,4,2,1,40,0,0
11156,-197.085231231232,4,2,1,40,0,0
11535,749.999999999998,4,2,1,40,1,0
11909,722.891566265058,4,2,1,40,1,0
11909,-200,4,2,1,40,0,0
12293,-303.030303030303,4,2,1,40,0,0
12451,-305.023123123374,4,2,1,40,0,0
14325,466.417910447761,4,2,1,50,1,0
15258,466.417910447761,4,2,1,60,1,0
15258,-100,4,2,1,60,0,0
15724,-100,4,2,2,60,0,0
22720,-111.111111111111,4,2,2,50,0,0
23187,-111.111111111111,4,2,1,45,0,0
29950,-111.111111111111,4,2,1,45,0,0
30183,-111.111111111111,4,2,1,45,0,0
37646,-111.111111111111,4,2,2,50,0,0
38112,-111.111111111111,4,2,1,45,0,0
44875,-111.111111111111,4,2,1,45,0,0
45108,-111.111111111111,4,2,1,45,0,0
48840,-111.111111111111,4,2,1,50,0,0
50705,-90.9090909090908,4,2,1,55,0,0
51172,-66.6666666666667,4,2,1,55,0,0
51238,-90.9090909090908,4,2,1,55,0,0
51638,-90.9090909090908,4,2,3,55,0,0
52105,-90.9090909090908,4,2,1,55,0,0
52454,-90.9090909090908,4,2,1,60,0,0
52571,-105.263157894737,4,2,2,60,0,0
52921,-105.263157894737,4,2,1,50,0,0
58168,-83.3333333333333,4,2,1,50,0,0
59800,-90.9090909090908,4,2,1,50,0,0
60034,-111.111111111111,4,2,1,55,0,0
65164,-90.9090909090908,4,2,1,55,0,0
65397,-90.9090909090908,4,2,1,55,0,0
65631,-71.4285714285714,4,2,1,55,0,0
66330,-71.4285714285714,4,2,1,55,0,0
66563,-100,4,2,1,55,0,0
66913,-100,4,2,1,60,0,0
67122,-76.9230769230769,4,2,1,60,0,0
67263,-76.9230769230769,4,2,1,65,0,0
67496,-100,4,2,2,50,0,0
67963,-71.4285714285714,4,2,2,60,0,0
68429,-100,4,2,2,60,0,0
71694,-285.714285714284,4,2,2,60,0,0
72160,-100,4,2,2,60,0,0
74959,-100,4,2,2,50,0,0
75425,-71.4285714285714,4,2,2,60,0,0
75484,-100,4,2,2,60,0,0
78690,-250,4,2,2,60,0,0
79157,-100,4,2,2,60,0,0
80556,-100,4,2,3,60,0,0
82188,-100,4,2,5,60,0,0
82422,-200,4,2,2,50,0,0
82888,-71.4285714285714,4,2,2,60,0,0
83355,-100,4,2,2,60,0,0
88019,-100,4,2,3,60,0,0
88952,-66.6666666666667,4,2,3,60,0,0
89301,-181.818181818181,4,2,2,60,0,0
89651,-181.818181818181,4,2,2,5,0,0

[Colours]
Combo1 : 255,255,132
Combo2 : 91,95,238

[HitObjects]
478,281,1288,6,0,P|457:240|397:248,1,105,2|2,0:2|0:1,0:0:0:0:
351,317,2803,2,0,P|330:358|270:350,1,105,2|2,0:2|0:1,0:0:0:0:
206,309,3949,1,2,0:0:0:0:
206,309,4301,6,0,L|190:253,1,52.5,2|2,0:2|0:2,0:0:0:0:
269,252,5100,2,0,L|281:196,1,52.5,2|2,0:1|0:3,0:0:0:0:
174,115,5900,2,0,B|122:124|122:124|121:126|121:126|51:138,2,102.374995313645,2|2|2,0:2|0:1|0:1,0:0:0:0:
388,205,7483,6,0,P|445:199|455:147,1,115.50000352478,2|2,0:2|0:1,0:0:0:0:
455,149,8907,2,0,P|440:123|403:116,1,65.625,2|2,0:2|0:1,0:0:0:0:
252,9,9992,1,2,0:1:0:0:
252,9,10387,6,0,L|261:73,1,52.5,2|2,0:2|0:2,0:0:0:0:
336,97,11156,2,0,P|343:76|336:45,1,52.5,2|2,0:1|0:3,0:0:0:0:
176,97,11909,2,0,P|168:72|175:47,1,52.5,2|0,0:1|0:0,0:0:0:0:
244,186,12451,6,0,B|199:171|181:126|181:126|151:169|103:170,1,178.500001089478,2|4,0:1|3:3,0:0:0:0:
102,167,14441,1,12,3:3:0:0:
97,164,14558,1,8,3:3:0:0:
92,161,14674,1,8,3:3:0:0:
87,158,14791,5,4,3:3:0:0:
358,9,15024,1,4,3:3:0:0:
368,14,15141,1,4,3:3:0:0:
364,22,15258,6,0,L|390:191,1,157.5,4|0,3:1|0:0,0:0:0:0:
463,238,15724,2,0,P|491:196|474:148,1,105,2|0,1:1|0:0,0:0:0:0:
385,293,16074,5,0,1:0:0:0:
374,300,16190,2,0,P|315:279|252:281,1,105,2|0,3:3|0:0,0:0:0:0:
108,373,16540,2,0,P|159:383|198:333,1,105,2|0,0:1|0:0,0:0:0:0:
154,232,16890,2,0,P|135:255|138:280,1,52.5,2|0,0:1|0:0,0:0:0:0:
289,377,17123,5,2,3:2:0:0:
232,117,17356,1,2,0:2:0:0:
427,196,17590,5,2,1:1:0:0:
401,307,17823,1,2,0:3:0:0:
154,232,18056,5,2,3:2:0:0:
89,175,18173,2,0,P|91:143|117:116,1,52.5,2|0,0:1|0:0,0:0:0:0:
250,257,18406,5,2,0:1:0:0:
239,267,18522,2,0,P|162:281|85:338,1,157.5,0|0,1:0|0:0,0:0:0:0:
7,371,18989,6,0,L|25:251,1,105,2|0,3:2|0:0,0:0:0:0:
177,134,19339,1,0,0:0:0:0:
178,147,19455,2,0,P|140:180|71:161,1,105,2|0,1:1|0:0,0:0:0:0:
16,117,19805,1,0,1:0:0:0:
86,43,19922,6,0,P|112:51|139:49,1,52.5,2|0,3:3|0:0,0:0:0:0:
307,164,20155,2,0,P|280:162|255:170,1,52.5,0|2,0:0|0:1,0:0:0:0:
163,276,20388,1,0,1:0:0:0:
352,36,20621,1,2,0:1:0:0:
357,37,20738,1,0,0:0:0:0:
362,38,20855,5,2,1:2:0:0:
16,117,21088,1,2,1:2:0:0:
381,249,21321,5,2,1:1:0:0:
165,197,21554,1,2,1:3:0:0:
31,364,21787,5,2,1:1:0:0:
36,363,21904,1,8,3:3:0:0:
41,362,22021,1,0,1:0:0:0:
46,361,22137,1,2,1:1:0:0:
51,360,22254,1,0,1:0:0:0:
108,364,22370,1,8,3:3:0:0:
165,366,22487,1,4,3:3:0:0:
222,369,22604,1,4,3:3:0:0:
273,371,22720,5,4,3:1:0:0:
420,137,23070,1,0,0:0:0:0:
416,124,23187,1,2,3:2:0:0:
512,155,23420,2,0,B|416:138|449:214|321:187,1,188.999994232178,2|0,0:1|0:0,0:0:0:0:
201,125,24119,2,0,L|183:18,1,94.499997116089,0|2,3:0|0:3,0:0:0:0:
246,222,24469,1,0,0:0:0:0:
247,205,24586,6,0,P|255:135|266:45,2,141.749995674133,2|2|2,3:2|0:1|0:3,0:0:0:0:
83,370,25519,2,0,P|58:308|162:313,1,188.999994232178,2|0,3:1|3:0,0:0:0:0:
248,384,26218,1,2,0:3:0:0:
400,295,26452,6,0,P|428:249|401:193,1,94.499997116089,2|0,3:2|0:0,0:0:0:0:
294,98,26801,2,0,P|319:148|365:147,1,94.499997116089,2|0,0:1|0:0,0:0:0:0:
481,138,27151,2,0,P|454:123|423:132,1,47.2499985580445,2|0,0:3|0:0,0:0:0:0:
320,241,27384,6,0,L|215:258,1,94.499997116089,2|0,3:2|0:0,0:0:0:0:
91,151,27734,2,0,P|136:147|183:188,1,94.499997116089,2|0,0:1|0:0,0:0:0:0:
120,305,28084,2,0,P|113:284|130:250,1,47.2499985580445,2|0,0:3|0:0,0:0:0:0:
176,174,28317,6,0,L|154:13,2,141.749995674133,2|2|2,3:2|0:1|0:3,0:0:0:0:
365,363,29250,2,0,B|397:228|397:228|332:198,1,188.999994232178,2|0,3:1|3:0,0:0:0:0:
120,336,29950,1,4,0:2:0:0:
120,336,30066,1,2,0:2:0:0:
193,366,30183,6,0,P|242:354|259:290,1,94.499997116089,4|0,3:1|0:0,0:0:0:0:
179,259,30533,2,0,P|171:212|129:187,1,94.499997116089,2|0,0:1|0:0,0:0:0:0:
52,238,30882,2,0,L|39:299,1,47.2499985580445,2|0,0:3|0:0,0:0:0:0:
18,130,31116,6,0,P|30:195|139:177,1,188.999994232178,2|0,3:1|3:0,0:0:0:0:
281,78,31815,1,2,0:3:0:0:
281,78,31932,1,2,0:2:0:0:
219,28,32049,6,0,L|241:170,1,141.749995674133,2|2,3:2|0:1,0:0:0:0:
395,380,32748,2,0,P|397:343|415:322,1,47.2499985580445,2|0,0:3|0:0,0:0:0:0:
486,271,32981,2,0,B|390:254|423:330|295:303,1,188.999994232178,2|0,3:1|3:0,0:0:0:0:
84,228,33681,2,0,L|152:220,1,47.2499985580445,2|0,0:3|0:0,0:0:0:0:
193,295,33914,6,0,P|165:345|75:335,2,141.749995674133,2|2|2,3:2|0:1|0:3,0:0:0:0:
168,132,34847,2,0,L|146:14,1,94.499997116089,2|0,3:2|0:0,0:0:0:0:
216,219,35197,1,0,0:0:0:0:
219,201,35313,6,0,B|234:79|234:79|266:54,1,141.749995674133,2|0,3:1|0:0,0:0:0:0:
318,14,35780,2,0,P|411:29|515:46,1,188.999994232178,4|0,3:1|3:0,0:0:0:0:
337,240,36480,6,0,P|327:218|332:195,1,47.2499985580445,2|0,0:3|0:0,0:0:0:0:
399,131,36713,2,0,B|513:152|513:152|464:221,1,188.999994232178,4|0,3:2|3:0,0:0:0:0:
362,368,37412,1,12,3:3:0:0:
358,351,37529,1,4,3:3:0:0:
395,308,37646,5,4,3:1:0:0:
137,210,37995,1,0,0:0:0:0:
71,168,38112,2,0,P|97:104|144:141,1,141.749995674133,2|0,3:2|0:0,0:0:0:0:
89,293,38578,6,0,B|134:265|138:216|138:216|174:247|231:237,1,188.999994232178,2|0,3:1|3:0,0:0:0:0:
474,152,39278,2,0,P|452:137|417:141,1,47.2499985580445,2|0,0:3|0:0,0:0:0:0:
347,163,39511,6,0,P|309:106|336:37,2,141.749995674133,2|2|2,3:2|0:1|0:3,0:0:0:0:
480,363,40444,2,0,P|471:285|367:280,1,188.999994232178,2|0,3:1|3:0,0:0:0:0:
210,384,41144,1,2,0:3:0:0:
253,176,41377,6,0,L|274:281,1,94.499997116089,2|0,3:2|0:0,0:0:0:0:
112,384,41727,2,0,P|110:324|142:299,1,94.499997116089,2|0,0:1|0:0,0:0:0:0:
53,242,42077,2,0,L|-11:249,1,47.2499985580445,2|0,0:3|0:0,0:0:0:0:
115,152,42310,6,0,L|222:174,1,94.499997116089,2|0,3:2|0:0,0:0:0:0:
374,201,42660,1,2,0:1:0:0:
322,141,42893,5,0,0:0:0:0:
326,125,43009,2,0,L|338:66,1,47.2499985580445,2|0,0:3|0:0,0:0:0:0:
398,20,43243,6,0,P|455:13|488:112,2,141.749995674133,2|2|2,3:2|0:1|0:3,0:0:0:0:
276,213,44175,2,0,L|246:26,1,188.999994232178,2|0,3:1|3:0,0:0:0:0:
408,226,44875,1,4,0:2:0:0:
408,226,44992,1,2,0:2:0:0:
349,177,45108,6,0,P|299:179|275:232,1,94.499997116089,4|0,3:1|0:0,0:0:0:0:
171,357,45458,2,0,P|206:323|200:274,1,94.499997116089,2|0,0:1|0:0,0:0:0:0:
99,194,45808,2,0,L|108:248,1,47.2499985580445,2|0,0:3|0:0,0:0:0:0:
22,313,46041,6,0,B|130:327|100:264|202:280,1,188.999994232178,2|0,3:1|3:0,0:0:0:0:
455,362,46741,1,2,0:3:0:0:
455,362,46857,1,2,0:2:0:0:
378,379,46974,6,0,P|379:310|464:281,1,141.749995674133,2|2,3:2|0:1,0:0:0:0:
287,118,47674,2,0,L|301:181,1,47.2499985580445,2|0,0:3|0:0,0:0:0:0:
238,220,47907,2,0,B|201:194|146:215|146:215|117:262|53:255,1,188.999994232178,2|0,3:1|3:0,0:0:0:0:
67,255,48606,2,0,L|50:168,1,47.2499985580445,2|0,0:3|0:0,0:0:0:0:
32,27,48840,6,0,P|85:30|126:74,1,94.499997116089,2|0,3:2|0:0,0:0:0:0:
221,309,49189,1,2,0:1:0:0:
160,260,49423,5,0,0:0:0:0:
155,245,49539,2,0,P|165:217|205:215,1,47.2499985580445,2|0,0:3|0:0,0:0:0:0:
264,138,49772,6,0,L|447:164,2,141.749995674133,2|2|2,3:2|0:1|0:3,0:0:0:0:
21,5,50705,6,0,B|40:14|40:14|76:177,1,173.250005287171,4|0,3:1|0:0,0:0:0:0:
129,291,51172,2,0,B|156:321|156:321|101:377|101:377|38:344|38:344|55:298,1,236.250009012223,4|0,3:2|0:0,0:0:0:0:
72,162,51638,6,0,P|108:173|115:221,1,57.7500017623902,4|0,3:1|0:0,0:0:0:0:
244,359,51871,2,0,P|280:348|287:300,1,57.7500017623902
360,128,52105,5,4,3:2:0:0:
414,111,52221,1,0,0:0:0:0:
468,130,52338,1,2,1:3:0:0:
501,176,52454,1,2,1:1:0:0:
502,233,52571,6,0,B|387:210,1,99.7499973363877,4|0,3:1|0:0,0:0:0:0:
289,332,52921,2,0,P|336:339|373:308,1,99.7499973363877,2|0,0:1|0:0,0:0:0:0:
294,172,53271,2,0,L|314:248,1,49.8749986681939,2|0,0:3|1:0,0:0:0:0:
176,376,53504,6,0,L|193:255,1,99.7499973363877,2|0,3:2|0:0,0:0:0:0:
217,57,53854,1,2,0:1:0:0:
165,124,54087,5,0,0:0:0:0:
158,134,54203,2,0,P|130:149|96:136,1,49.8749986681939,2|0,0:3|0:0,0:0:0:0:
0,11,54437,6,0,P|70:-1|112:64,2,149.624996004582,2|2|2,3:2|0:1|0:3,0:0:0:0:
147,219,55369,2,0,P|195:217|227:181,1,99.7499973363877,2|0,3:2|0:0,0:0:0:0:
314,174,55719,2,0,L|281:0,1,149.624996004582,2|2,0:1|0:3,0:0:0:0:
332,197,56186,1,0,0:0:0:0:
343,208,56302,6,0,L|454:229,1,99.7499973363877,2|0,3:2|0:0,0:0:0:0:
166,155,56652,1,2,0:1:0:0:
101,106,56885,5,0,0:0:0:0:
96,90,57002,2,0,L|84:31,1,49.8749986681939,2|0,0:3|1:0,0:0:0:0:
166,155,57235,6,0,B|82:140|108:171|14:157,2,149.624996004582,2|2|2,3:2|0:1|0:3,0:0:0:0:
329,47,58168,6,0,B|286:41|255:-9|255:-9|269:41|228:87,1,188.999994232178,2|0,3:2|0:0,0:0:0:0:
360,140,58634,6,0,B|366:97|416:66|416:66|366:80|320:39,1,188.999994232178,2|0,1:1|1:0,0:0:0:0:
266,171,59101,6,0,B|309:177|340:227|340:227|326:177|367:131,1,188.999994232178,2|0,3:1|0:0,0:0:0:0:
235,78,59567,6,0,B|229:121|179:152|179:152|229:138|275:179,1,188.999994232178,4|0,1:2|1:0,0:0:0:0:
512,286,60034,6,0,P|479:253|433:251,1,94.499997116089,4|0,3:1|0:0,0:0:0:0:
319,378,60383,2,0,P|362:386|409:338,1,94.499997116089,2|0,0:1|0:0,0:0:0:0:
329,234,60733,2,0,L|340:294,1,47.2499985580445,2|0,0:3|1:0,0:0:0:0:
221,382,60966,6,0,L|125:367,1,94.499997116089,2|0,3:2|0:0,0:0:0:0:
101,198,61316,2,0,P|142:226|139:277,1,94.499997116089,2|0,0:1|0:0,0:0:0:0:
23,373,61666,2,0,P|21:344|47:314,1,47.2499985580445,2|0,0:3|0:0,0:0:0:0:
92,210,61899,6,0,L|61:49,1,141.749995674133,2|2,3:2|0:1,0:0:0:0:
245,236,62482,1,0,0:0:0:0:
254,250,62599,2,0,L|315:266,1,47.2499985580445,2|0,0:3|1:0,0:0:0:0:
456,144,62832,6,0,P|409:143|377:176,1,94.499997116089,2|0,3:2|0:0,0:0:0:0:
331,384,63182,1,2,0:1:0:0:
400,334,63415,5,0,0:0:0:0:
396,319,63532,2,0,L|378:247,1,47.2499985580445,2|0,0:3|0:0,0:0:0:0:
334,54,63765,6,0,L|214:76,1,94.499997116089,2|0,3:2|0:0,0:0:0:0:
49,177,64115,2,0,P|75:205|134:205,1,94.499997116089,2|0,0:1|0:0,0:0:0:0:
215,254,64465,2,0,L|225:323,1,47.2499985580445,2|0,0:3|0:0,0:0:0:0:
227,314,64698,6,0,L|243:175,1,94.499997116089,2|0,3:2|0:0,0:0:0:0:
260,0,65048,1,2,3:1:0:0:
203,65,65164,5,4,1:2:0:0:
157,98,65280,1,0,0:0:0:0:
101,94,65397,1,2,0:3:0:0:
61,53,65513,1,0,1:0:0:0:
137,10,65631,6,0,B|263:79|277:286|160:343|61:210|192:164,1,440.999986541749,4|0,3:1|0:0,0:0:0:0:
186,166,66563,6,0,P|207:182|208:244,1,52.5,2|0,3:1|1:0,0:0:0:0:
331,113,66797,1,0,1:0:0:0:
366,147,66913,6,0,P|355:170|334:186,1,52.5,2|0,3:1|3:0,0:0:0:0:
456,260,67146,1,0,1:0:0:0:
442,312,67263,6,0,P|380:327|312:283,1,136.499993751526,2|4,1:1|3:2,0:0:0:0:
319,293,67963,6,0,B|344:311|344:311|124:266,1,220.499993270874,6|0,1:1|1:0,0:0:0:0:
97,352,68429,6,0,P|63:325|82:250,1,105,2|0,3:3|0:0,0:0:0:0:
214,137,68779,2,0,P|177:181|116:166,1,105,2|0,0:1|0:0,0:0:0:0:
47,136,69129,2,0,L|31:69,1,52.5,2|0,0:1|0:0,0:0:0:0:
15,0,69362,5,2,3:2:0:0:
214,137,69595,2,0,P|249:133|275:104,1,52.5,2|0,0:2|0:0,0:0:0:0:
333,55,69828,5,2,1:1:0:0:
488,281,70062,2,0,P|456:260|425:261,1,52.5,2|0,0:3|1:0,0:0:0:0:
370,310,70295,5,2,3:2:0:0:
324,239,70411,2,0,L|341:98,1,105,2|2,0:1|0:1,0:0:0:0:
298,362,70761,2,0,L|116:386,1,157.5,0|0,1:0|0:0,0:0:0:0:
19,234,71228,6,0,P|83:222|122:298,1,157.5,2|0,3:2|0:0,0:0:0:0:
32,380,71694,6,0,L|42:319,1,55.1249983177186,2|0,1:1|1:0,0:0:0:0:
72,56,72160,6,0,P|90:72|133:78,1,52.5,2|0,3:3|0:0,0:0:0:0:
264,163,72394,1,0,0:0:0:0:
326,209,72510,2,0,P|279:208|218:240,1,105,2|0,0:1|0:0,0:0:0:0:
153,290,72860,2,0,L|144:355,1,52.5,2|0,0:1|0:0,0:0:0:0:
79,230,73093,6,0,L|62:109,1,105,2|2,3:2|0:2,0:0:0:0:
145,342,73443,1,0,0:0:0:0:
134,353,73560,2,0,P|101:376|29:351,1,105,2|2,1:1|0:3,0:0:0:0:
263,221,74026,2,0,P|297:225|324:256,1,52.5,2|2,3:2|3:1,0:0:0:0:
372,284,74259,1,0,1:0:0:0:
434,225,74376,6,0,L|412:105,1,105,2|0,1:1|1:0,0:0:0:0:
391,3,74726,1,0,1:0:0:0:
499,46,74842,1,0,1:0:0:0:
415,121,74959,6,0,B|340:111|340:111|338:112|338:112|234:98,1,157.5,4|0,3:2|0:0,0:0:0:0:
152,254,75425,6,0,B|206:282|203:348|203:348|225:289|323:279,1,220.499993270874,14|0,1:1|1:0,0:0:0:0:
236,203,75892,6,0,L|263:83,1,105,2|0,3:3|0:0,0:0:0:0:
430,327,76242,2,0,P|390:363|323:333,1,105,2|0,0:1|0:0,0:0:0:0:
368,221,76591,2,0,L|428:233,1,52.5,2|0,0:1|0:0,0:0:0:0:
246,372,76825,5,2,3:2:0:0:
149,103,77058,1,2,0:2:0:0:
0,281,77291,6,0,P|18:262|51:260,1,52.5,2|0,1:1|0:0,0:0:0:0:
133,299,77524,1,2,0:3:0:0:
68,124,77757,5,2,3:2:0:0:
10,181,77874,2,0,P|37:206|106:193,1,105,2|2,0:1|0:1,0:0:0:0:
155,0,78224,2,0,L|-43:51,1,157.5,0|0,1:0|0:0,0:0:0:0:
197,75,78690,6,0,L|269:83,1,63,2|0,3:2|0:0,0:0:0:0:
487,97,79157,6,0,P|518:62|484:-5,1,105,2|0,1:1|0:0,0:0:0:0:
422,159,79507,2,0,L|434:210,1,52.5,0|2,1:0|3:3,0:0:0:0:
344,112,79740,6,0,L|352:42,1,52.5
260,166,79973,2,0,L|249:221,1,52.5,2|0,0:1|1:0,0:0:0:0:
178,122,80206,5,0,0:0:0:0:
175,110,80323,2,0,L|167:40,1,52.5,2|0,0:1|0:0,0:0:0:0:
96,165,80556,5,2,1:2:0:0:
487,97,80789,1,2,1:2:0:0:
458,339,81022,5,2,1:1:0:0:
180,300,81256,1,2,0:3:0:0:
315,71,81489,6,0,L|334:199,1,105,2|0,3:1|3:0,0:0:0:0:
410,217,81839,2,0,P|423:187|404:157,1,52.5,14|4,3:3|3:3,0:0:0:0:
242,23,82188,5,2,0:3:0:0:
182,94,82305,1,2,0:1:0:0:
253,158,82422,6,0,L|345:177,1,78.75,4|0,3:2|0:0,0:0:0:0:
512,28,82888,6,0,L|364:64,1,146.999995513916,6|0,1:1|0:0,0:0:0:0:
456,262,83238,1,0,1:0:0:0:
471,253,83355,6,0,L|492:127,1,105,2|0,3:3|0:0,0:0:0:0:
327,365,83704,2,0,P|389:366|415:323,1,105,2|0,0:1|0:0,0:0:0:0:
395,175,84054,2,0,L|385:110,1,52.5,2|0,0:1|0:0,0:0:0:0:
366,30,84287,5,2,3:2:0:0:
216,370,84521,1,2,0:2:0:0:
23,213,84754,6,0,L|16:152,1,52.5,2|0,1:1|0:0,0:0:0:0:
100,203,84987,2,0,L|93:142,1,52.5,2|0,0:3|1:0,0:0:0:0:
47,78,85220,5,2,3:2:0:0:
94,150,85337,2,0,P|160:139|182:98,1,105,2|2,0:1|0:1,0:0:0:0:
253,283,85687,2,0,P|287:226|278:128,1,157.5,0|0,1:0|0:0,0:0:0:0:
277,39,86153,6,0,P|317:20|354:112,1,157.5,2|0,3:2|0:0,0:0:0:0:
512,206,86619,2,0,L|398:180,1,105,2|0,1:1|0:0,0:0:0:0:
277,343,87086,1,2,3:3:0:0:
351,384,87202,2,0,P|369:354|359:306,1,52.5,0|0,1:0|0:0,0:0:0:0:
309,225,87436,5,2,0:1:0:0:
305,208,87552,2,0,B|285:78,1,105,0|2,1:0|0:1,0:0:0:0:
276,18,87902,1,0,0:0:0:0:
354,48,88019,5,2,1:2:0:0:
133,348,88252,1,2,1:2:0:0:
141,24,88485,5,2,1:1:0:0:
394,382,88718,1,2,1:3:0:0:
211,228,88952,6,0,B|241:197|239:159|239:159|256:195|304:209,1,157.500006008148,2|0,1:1|0:0,0:0:0:0:
307,301,89301,6,0,P|270:330|228:308,1,86.6250026435853,2|0,1:3|0:0,0:0:0:0:
