osu file format v14

[General]
AudioFilename: 09 - Futari no Kimochi no Honto no Himitsu (Russian Version).mp3
AudioLeadIn: 0
PreviewTime: 53236
Countdown: 0
SampleSet: Normal
StackLeniency: 0.7
Mode: 0
LetterboxInBreaks: 0
CountdownOffset: 3
WidescreenStoryboard: 1

[Editor]
Bookmarks: 4145,18691,53236,71418,87782,102327,136873
DistanceSpacing: 0.9
BeatDivisor: 4
GridSize: 4
TimelineZoom: 1

[Metadata]
Title:Futari no Kimochi no Honto no Himitsu
TitleUnicode:ふたりのきもちのほんとのひみつ
Artist:Nika Lenina
ArtistUnicode:Nika Lenina
Creator:Loony Key
Version:Easy
Source:Baby, please kill me.
Tags:cover russian Akasaki Chinatsu Tamura Mutsumi the original vocal
BeatmapID:617587
BeatmapSetID:271641

[Difficulty]
HPDrainRate:2
CircleSize:3
OverallDifficulty:1
ApproachRate:3
SliderMultiplier:1
SliderTickRate:2

[Events]
//Background and Video events
0,0,"theAnimeGallery_176557_904x900.jpg",0,0
//Break Periods
2,87781,100887
2,136872,151796
//Storyboard Layer 0 (Background)
//Storyboard Layer 1 (Fail)
//Storyboard Layer 2 (Pass)
//Storyboard Layer 3 (Foreground)
//Storyboard Sound Samples

[TimingPoints]
509,454.545454545455,4,1,1,60,1,0
53236,-100,4,1,1,60,0,1
71418,-100,4,1,1,60,0,0
118690,-100,4,1,1,60,0,1
136872,-100,4,1,1,60,0,0
153236,-100,4,2,1,60,0,0

[Colours]
Combo1 : 128,64,0
Combo2 : 255,0,0
Combo3 : 0,128,0

[HitObjects]
208,136,509,6,0,L|172:244,2,100,0|8|0,0:0|0:0|0:0,0:0:0:0:
296,140,1872,2,0,L|332:248,2,100,0|8|0,0:0|0:0|0:0,0:0:0:0:
260,60,3236,2,0,P|225:22|164:24,1,100,0|8,0:0|0:0,0:0:0:0:
92,40,4145,5,4,0:0:0:0:
52,120,4599,1,0,0:0:0:0:
72,208,5054,2,0,P|136:256|216:272,2,150,0|2|0,0:0|0:0|0:0,0:0:0:0:
36,124,6872,1,0,0:0:0:0:
216,92,7782,6,0,L|316:56,1,100,4|0,0:0|0:0,0:0:0:0:
400,56,8691,2,0,P|476:120|496:180,2,150,0|2|0,0:0|0:0|0:0,0:0:0:0:
320,8,10509,1,0,0:0:0:0:
224,160,11418,6,0,L|168:260,1,100,4|0,0:0|0:0,0:0:0:0:
240,308,12327,2,0,P|338:337|428:288,1,200
448,208,13691,2,0,P|344:208|252:176,1,200
184,120,15054,2,0,P|144:156|132:216,1,100,0|0,0:0|0:0,0:0:0:0:
256,192,15964,12,0,18691,0:0:0:0:
180,68,19145,5,2,0:0:0:0:
212,152,19600,2,0,L|212:268,1,100
296,284,20509,2,0,L|296:164,1,100
380,148,21418,2,0,L|380:256,1,100
384,340,22327,5,2,0:0:0:0:
448,276,22781,1,0,0:0:0:0:
468,188,23236,1,0,0:0:0:0:
472,100,23691,2,0,B|372:100|280:55|280:55|240:156,1,300
280,324,25964,6,0,L|376:256,1,100,2|0,0:0|0:0,0:0:0:0:
352,176,26873,2,0,L|256:244,1,100,0|0,0:0|0:0,0:0:0:0:
188,196,27782,2,0,L|269:138,1,100
340,84,28690,1,12,0:0:0:0:
496,172,29599,5,0,0:0:0:0:
428,232,30054,1,0,0:0:0:0:
344,264,30509,1,0,0:0:0:0:
272,212,30964,2,0,P|299:178|364:164,2,100
208,276,32327,2,0,L|104:336,1,100,0|12,0:0|0:0,0:0:0:0:
44,372,33236,6,0,P|24:324|32:268,1,100,2|0,0:0|0:0,0:0:0:0:
84,208,34145,1,0,0:0:0:0:
108,120,34599,1,0,0:0:0:0:
156,44,35054,2,0,P|196:20|336:56,1,200,4|12,0:0|0:0,0:0:0:0:
224,200,36873,6,0,P|318:153|328:152,1,100,2|0,0:0|0:0,0:0:0:0:
404,164,37782,1,0,0:0:0:0:
456,236,38236,2,0,P|416:265|369:281,1,100,2|0,0:0|0:0,0:0:0:0:
280,300,39145,1,0,0:0:0:0:
208,244,39599,1,12,0:0:0:0:
208,244,40509,6,0,L|124:188,1,100,2|0,0:0|0:0,0:0:0:0:
148,100,41418,2,0,L|232:156,1,100,2|0,0:0|0:0,0:0:0:0:
308,108,42327,2,0,L|224:52,1,100,2|0,0:0|0:0,0:0:0:0:
148,100,43236,1,4,0:0:0:0:
288,212,44145,6,0,P|380:244|452:180,2,200,4|0|0,0:0|0:0|0:0,0:0:0:0:
200,188,46418,2,0,P|196:216|260:280,1,100,0|12,0:0|0:0,0:0:0:0:
412,240,47781,6,0,P|473:213|488:180,2,100,4|0|0,0:0|0:0|0:0,0:0:0:0:
324,220,49145,2,0,P|188:220|264:316,1,300,0|12,0:0|0:0,0:0:0:0:
76,244,51418,6,0,L|-4:164,2,100
248,296,53236,6,0,P|272:180|225:72,1,200,2|0,0:0|0:0,0:0:0:0:
180,44,54599,2,0,P|132:152|157:267,1,200
204,296,55963,2,0,L|283:206,1,100,0|2,0:0|0:0,0:0:0:0:
265,131,56873,6,0,P|207:143|173:190,1,100,4|0,0:0|0:0,0:0:0:0:
144,256,57781,1,0,0:0:0:0:
208,320,58236,2,0,P|296:332|252:184,1,300,0|12,0:0|0:0,0:0:0:0:
440,216,60509,6,0,L|532:308,2,100,6|0|0,0:0|0:0|0:0,0:0:0:0:
376,152,61873,2,0,P|321:251|404:304,1,200
459,324,63236,2,0,L|481:226,1,100,0|12,0:0|0:0,0:0:0:0:
488,137,64145,6,0,P|448:65|412:57,1,100,2|0,0:0|0:0,0:0:0:0:
348,48,65054,1,0,0:0:0:0:
300,124,65509,1,0,1:0:0:0:
304,216,65964,2,0,L|332:336,2,100,12|0|12,0:0|0:0|0:0,0:0:0:0:
208,64,67781,6,8,P|144:128|136:168,1,100,8|0,1:0|0:0,0:0:0:0:
119,222,68690,1,0,0:0:0:0:
136,310,69145,1,0,0:0:0:0:
192,240,69599,2,0,P|260:180|328:248,1,200,4|8,0:0|0:0,0:0:0:0:
468,128,71418,6,0,L|368:60,1,100,4|0,0:0|0:0,0:0:0:0:
336,148,72327,2,0,L|436:216,1,100
468,280,73236,1,0,0:0:0:0:
396,336,73690,1,0,0:0:0:0:
324,280,74145,1,4,0:0:0:0:
184,168,75054,6,0,P|144:124|152:60,1,100,2|0,0:0|0:0,0:0:0:0:
200,20,75963,1,0,0:0:0:0:
276,68,76418,1,0,0:0:0:0:
340,132,76872,2,0,P|376:180|368:228,2,100,0|0|4,0:0|0:0|0:0,0:0:0:0:
164,104,78690,5,2,0:0:0:0:
128,188,79145,2,0,B|120:236|64:232|88:292,2,100
140,100,80509,1,2,0:0:0:0:
208,40,80963,2,0,P|236:64|292:24,1,100,0|4,0:0|0:0,0:0:0:0:
404,164,82327,6,0,B|420:216|472:192|488:240,2,100,4|0|0,0:0|0:0|0:0,0:0:0:0:
388,76,83690,1,0,0:0:0:0:
320,136,84145,2,0,B|279:154|283:98|235:90,1,100
148,92,85054,1,12,0:0:0:0:
224,256,85963,6,0,B|272:260|272:320|320:280,1,100,2|0,0:0|0:0,0:0:0:0:
384,236,86872,1,0,0:0:0:0:
340,156,87327,1,12,0:0:0:0:
148,296,102327,6,0,L|242:249,2,100,0|0|0,0:0|0:0|0:0,0:0:0:0:
104,216,103691,2,0,L|198:169,2,100,0|0|0,0:0|0:0|0:0,0:0:0:0:
176,268,105054,1,2,0:0:0:0:
324,168,105964,6,0,L|428:112,2,100,4|0|0,0:0|0:0|0:0,0:0:0:0:
244,208,107327,2,0,P|176:256|168:292,1,100
81,268,108236,2,0,P|53:226|8:207,1,100,0|2,0:0|0:0,0:0:0:0:
188,236,109599,6,0,P|332:228|360:176,2,200
116,180,111872,2,0,P|116:168|64:80,1,100,0|2,0:0|0:0,0:0:0:0:
260,120,113236,6,0,P|308:144|344:212,2,100
176,84,114599,1,0,0:0:0:0:
96,128,115054,2,0,B|16:160|16:232|80:276|128:256,1,200,0|2,0:0|0:0,0:0:0:0:
288,260,116872,2,0,L|400:260,2,100,8|0|12,0:0|0:0|0:0,0:0:0:0:
132,172,118690,6,0,L|36:96,1,100,0|0,0:0|0:0,0:0:0:0:
44,200,119599,2,0,B|44:268|72:316|136:328|172:316,1,200
252,284,120963,2,0,L|360:236,2,100,0|0|2,0:0|0:0|0:0,0:0:0:0:
168,316,122327,5,0,0:0:0:0:
168,316,122781,2,0,P|101:304|72:256,2,100
260,316,124145,2,0,B|372:344|344:284|452:272,1,200,0|2,0:0|0:0,0:0:0:0:
448,184,125509,1,2,0:0:0:0:
380,124,125963,6,0,L|296:64,1,100
236,132,126872,2,0,L|317:190,1,100
380,256,127781,1,8,0:0:0:0:
388,168,128236,1,8,0:0:0:0:
332,96,128690,1,8,0:0:0:0:
256,144,129145,1,12,0:0:0:0:
172,104,129599,6,0,L|56:60,1,100,2|0,1:0|0:0,0:0:0:0:
16,134,130509,1,0,0:0:0:0:
16,224,130963,2,0,P|56:292|108:308,1,100,0|4,0:0|2:0,0:0:0:0:
160,292,131872,2,0,B|208:296|208:356|272:328,2,100,0|0|0,0:0|0:0|0:0,0:0:0:0:
92,232,133236,5,4,2:0:0:0:
164,176,133690,1,0,0:0:0:0:
236,124,134145,2,0,L|336:60,1,100,4|4,2:0|2:0,0:0:0:0:
320,160,135054,2,0,P|296:208|168:180,1,200,4|0,0:0|0:0,0:0:0:0:
184,248,153236,6,0,L|100:320,1,100,4|0,0:0|0:0,0:0:0:0:
40,256,154145,2,0,P|81:147|168:104,2,200,0|0|4,0:0|0:0|0:0,0:0:0:0:
212,316,156873,5,4,0:0:0:0:
276,256,157327,1,0,0:0:0:0:
344,196,157782,2,0,P|442:117|456:44,2,200,0|0|4,0:0|0:0|0:0,0:0:0:0:
168,232,160509,5,4,0:0:0:0:
96,180,160964,1,0,0:0:0:0:
176,140,161418,2,0,L|388:100,2,200,0|0|4,0:0|0:0|0:0,0:0:0:0:
324,244,164145,5,4,0:0:0:0:
256,304,164600,1,0,0:0:0:0:
188,244,165054,2,0,L|20:100,2,200,0|0|4,0:0|0:0|0:0,0:0:0:0:
336,348,167782,5,2,0:0:0:0:
268,288,168236,2,0,L|188:208,1,100,0|2,0:0|0:0,0:0:0:0:
132,156,169145,1,4,0:0:0:0:
256,192,169373,12,4,170736,0:0:0:0:
