osu file format v14

[General]
AudioFilename: audio.mp3
AudioLeadIn: 0
PreviewTime: 59638
Countdown: 0
SampleSet: Soft
StackLeniency: 0.7
Mode: 3
LetterboxInBreaks: 0
SpecialStyle: 0
WidescreenStoryboard: 0

[Editor]
DistanceSpacing: 0.8
BeatDivisor: 4
GridSize: 4
TimelineZoom: 2.1

[Metadata]
Title:TOKIMEKI Runners
TitleUnicode:TOKIMEKI Runners
Artist:Nijigasaki High School Idol Club
ArtistUnicode:虹ヶ咲学園スクールアイドル同好会
Creator:HolySteven
Version:with You
Source:ラブライブ!スクールアイドルフェスティバル ALL STARS
Tags:Love Live! LoveLive! all stars school idol festival perfect dream project PDP high gakuen doukoukai dokokai dōkōkai NijiGaku ニジガク japanese pop jpop j-pop anime 上原歩夢 Uehara Ayumu 大西亜玖璃 Onishi Aguri 中須かすみ Nakasu Kasumi 相良茉優 Sagara Mayu 桜坂しずく Osaka Shizuku 前田佳織里 Maeda Kaori 朝香果林 Asaka Karin 久保田未夢 Kubota Miyu 宮下愛 Miyashita Ai 村上奈津実 Murakami Natsumi 近江彼方 Konoe Kanata 鬼頭明里 Kito Akari 優木せつ菜 Yuki Setsuna 楠木ともり Kusunoki Tomori エマ・ヴェルデ Emma Verde 指出毬亜 Sashide Maria 天王寺璃奈 Tennoji Rina 田中ちえ美 Tanaka Chiemi Ōnishi Oonishi Ohnishi Ousaka Kitō Kitou Yuuki Tennouji Academy gakuen doukoukai dōkōkai 畑 亜貴 Hata Aki 矢鴇つかさ Arte Refact Yatoki Tsukasa
BeatmapID:3874475
BeatmapSetID:1881884

[Difficulty]
HPDrainRate:8
CircleSize:4
OverallDifficulty:8
ApproachRate:5
SliderMultiplier:1.4
SliderTickRate:1

[Events]
//Background and Video events
0,0,"Chapter_1_Still_5.jpg",0,0
//Break Periods
//Storyboard Layer 0 (Background)
//Storyboard Layer 1 (Fail)
//Storyboard Layer 2 (Pass)
//Storyboard Layer 3 (Foreground)
//Storyboard Layer 4 (Overlay)
//Storyboard Sound Samples

[TimingPoints]
-28,333.333333333333,4,2,1,50,1,0
59805,-100,4,2,1,50,0,1
93138,-100,4,2,1,50,0,0

[HitObjects]
320,192,2388,128,0,2471:0:0:0:0:
448,192,2471,128,0,3638:0:0:0:0:
64,192,2471,1,0,0:0:0:0:
192,192,2471,1,0,0:0:0:0:
192,192,2805,1,0,0:0:0:0:
64,192,2971,1,0,0:0:0:0:
320,192,2971,1,0,0:0:0:0:
192,192,3305,1,0,0:0:0:0:
320,192,3471,128,0,3638:0:0:0:0:
192,192,3638,128,0,3805:0:0:0:0:
64,192,3638,1,0,0:0:0:0:
448,192,3805,128,0,3971:0:0:0:0:
320,192,3805,1,0,0:0:0:0:
192,192,3971,1,0,0:0:0:0:
64,192,3971,128,0,4638:0:0:0:0:
320,192,4305,1,0,0:0:0:0:
448,192,4305,1,0,0:0:0:0:
192,192,4471,128,0,4638:0:0:0:0:
448,192,4638,128,0,4805:0:0:0:0:
320,192,4805,1,0,0:0:0:0:
64,192,4805,128,0,4971:0:0:0:0:
192,192,4971,128,0,5138:0:0:0:0:
64,192,5138,1,0,0:0:0:0:
320,192,5138,128,0,5971:0:0:0:0:
448,192,5138,1,0,0:0:0:0:
192,192,5471,1,0,0:0:0:0:
448,192,5638,1,0,0:0:0:0:
64,192,5971,1,0,0:0:0:0:
192,192,5971,128,0,6638:0:0:0:0:
320,192,6305,128,0,6638:0:0:0:0:
64,192,6638,128,0,7138:0:0:0:0:
448,192,6638,128,0,6971:0:0:0:0:
192,192,6971,128,0,7138:0:0:0:0:
320,192,7138,1,0,0:0:0:0:
448,192,7138,128,0,8305:0:0:0:0:
64,192,7805,1,0,0:0:0:0:
192,192,7860,1,0,0:0:0:0:
320,192,7916,1,0,0:0:0:0:
64,192,7971,1,0,0:0:0:0:
64,192,8305,1,0,0:0:0:0:
192,192,8305,1,0,0:0:0:0:
320,192,8388,1,0,0:0:0:0:
448,192,8388,1,0,0:0:0:0:
64,192,8471,1,0,0:0:0:0:
192,192,8471,1,0,0:0:0:0:
448,192,8638,128,0,8721:0:0:0:0:
64,192,8638,128,0,8721:0:0:0:0:
320,192,8638,128,0,8721:0:0:0:0:
64,192,8805,128,0,8888:0:0:0:0:
448,192,8805,128,0,8888:0:0:0:0:
320,192,8805,128,0,8888:0:0:0:0:
192,192,9138,1,0,0:0:0:0:
448,192,9138,128,0,9388:0:0:0:0:
64,192,9138,128,0,9471:0:0:0:0:
448,192,9471,128,0,9555:0:0:0:0:
64,192,9638,1,0,0:0:0:0:
192,192,9638,128,0,9721:0:0:0:0:
320,192,9638,1,0,0:0:0:0:
192,192,9805,128,0,9888:0:0:0:0:
64,192,9971,1,0,0:0:0:0:
448,192,9971,128,0,10055:0:0:0:0:
448,192,10138,128,0,10221:0:0:0:0:
192,192,10305,1,0,0:0:0:0:
320,192,10305,1,0,0:0:0:0:
64,192,10305,128,0,10388:0:0:0:0:
64,192,10471,128,0,10805:0:0:0:0:
192,192,10471,1,0,0:0:0:0:
448,192,10638,128,0,10805:0:0:0:0:
192,192,10805,128,0,10971:0:0:0:0:
448,192,10971,1,0,0:0:0:0:
64,192,10971,1,0,0:0:0:0:
320,192,10971,128,0,11138:0:0:0:0:
64,192,11138,128,0,11471:0:0:0:0:
320,192,11305,128,0,11471:0:0:0:0:
192,192,11471,1,0,0:0:0:0:
448,192,11471,128,0,11638:0:0:0:0:
320,192,11638,1,0,0:0:0:0:
64,192,11638,1,0,0:0:0:0:
192,192,11638,1,0,0:0:0:0:
192,192,11805,1,0,0:0:0:0:
320,192,11805,128,0,12138:0:0:0:0:
448,192,11971,128,0,12138:0:0:0:0:
192,192,12138,128,0,12305:0:0:0:0:
64,192,12138,1,0,0:0:0:0:
320,192,12305,1,0,0:0:0:0:
64,192,12305,128,0,12471:0:0:0:0:
448,192,12305,128,0,12471:0:0:0:0:
192,192,12471,128,0,12638:0:0:0:0:
320,192,12638,128,0,12805:0:0:0:0:
448,192,12638,128,0,12805:0:0:0:0:
192,192,12805,128,0,12971:0:0:0:0:
64,192,12971,128,0,13138:0:0:0:0:
448,192,12971,128,0,13305:0:0:0:0:
320,192,12971,1,0,0:0:0:0:
192,192,13138,128,0,13471:0:0:0:0:
320,192,13305,1,0,0:0:0:0:
448,192,13471,128,0,13555:0:0:0:0:
448,192,13638,128,0,13721:0:0:0:0:
64,192,13638,1,0,0:0:0:0:
192,192,13638,1,0,0:0:0:0:
320,192,13721,128,0,13805:0:0:0:0:
192,192,13805,128,0,13971:0:0:0:0:
64,192,13971,128,0,14083:0:0:0:0:
448,192,13971,1,0,0:0:0:0:
192,192,14083,128,0,14194:0:0:0:0:
320,192,14194,128,0,14305:0:0:0:0:
448,192,14305,128,0,14416:0:0:0:0:
192,192,14305,1,0,0:0:0:0:
64,192,14305,1,0,0:0:0:0:
320,192,14416,128,0,14527:0:0:0:0:
64,192,14471,1,0,0:0:0:0:
192,192,14527,128,0,14638:0:0:0:0:
448,192,14638,1,0,0:0:0:0:
64,192,14638,128,0,14805:0:0:0:0:
192,192,14805,1,0,0:0:0:0:
448,192,14805,128,0,14971:0:0:0:0:
320,192,14971,128,0,15138:0:0:0:0:
64,192,14971,1,0,0:0:0:0:
448,192,15138,1,0,0:0:0:0:
64,192,15138,128,0,15305:0:0:0:0:
320,192,15305,1,0,0:0:0:0:
192,192,15305,128,0,15471:0:0:0:0:
320,192,15471,128,0,15638:0:0:0:0:
448,192,15471,1,0,0:0:0:0:
192,192,15638,1,0,0:0:0:0:
64,192,15638,128,0,15805:0:0:0:0:
448,192,15805,1,0,0:0:0:0:
192,192,15805,1,0,0:0:0:0:
320,192,15805,128,0,16138:0:0:0:0:
192,192,16138,1,0,0:0:0:0:
64,192,16138,128,0,16221:0:0:0:0:
448,192,16138,128,0,16221:0:0:0:0:
192,192,16305,1,0,0:0:0:0:
64,192,16305,128,0,16388:0:0:0:0:
448,192,16305,128,0,16388:0:0:0:0:
448,192,16471,128,0,17138:0:0:0:0:
64,192,16471,128,0,16971:0:0:0:0:
320,192,16471,1,0,0:0:0:0:
192,192,16805,128,0,16971:0:0:0:0:
320,192,16971,128,0,17138:0:0:0:0:
192,192,17138,128,0,17305:0:0:0:0:
448,192,17305,1,0,0:0:0:0:
64,192,17305,128,0,17638:0:0:0:0:
320,192,17471,1,0,0:0:0:0:
448,192,17638,128,0,17971:0:0:0:0:
192,192,17638,1,0,0:0:0:0:
64,192,17805,1,0,0:0:0:0:
320,192,17971,128,0,18305:0:0:0:0:
192,192,17971,1,0,0:0:0:0:
448,192,18138,1,0,0:0:0:0:
192,192,18305,128,0,18638:0:0:0:0:
64,192,18305,1,0,0:0:0:0:
320,192,18471,1,0,0:0:0:0:
64,192,18638,1,0,0:0:0:0:
448,192,18638,128,0,18971:0:0:0:0:
192,192,18805,1,0,0:0:0:0:
64,192,18971,1,0,0:0:0:0:
320,192,18971,128,0,19055:0:0:0:0:
320,192,19138,128,0,19221:0:0:0:0:
64,192,19305,1,0,0:0:0:0:
448,192,19305,1,0,0:0:0:0:
192,192,19471,128,0,19638:0:0:0:0:
320,192,19638,1,0,0:0:0:0:
448,192,19638,1,0,0:0:0:0:
64,192,19638,128,0,19805:0:0:0:0:
320,192,19805,128,0,19971:0:0:0:0:
448,192,19971,128,0,20305:0:0:0:0:
64,192,19971,1,0,0:0:0:0:
320,192,20138,1,0,0:0:0:0:
192,192,20305,128,0,20638:0:0:0:0:
64,192,20305,1,0,0:0:0:0:
448,192,20471,1,0,0:0:0:0:
320,192,20638,128,0,20971:0:0:0:0:
64,192,20638,1,0,0:0:0:0:
192,192,20805,1,0,0:0:0:0:
64,192,20971,128,0,21305:0:0:0:0:
448,192,20971,1,0,0:0:0:0:
320,192,21138,1,0,0:0:0:0:
192,192,21305,128,0,21638:0:0:0:0:
448,192,21305,128,0,21346:0:0:0:0:
320,192,21471,1,0,0:0:0:0:
448,192,21638,1,0,0:0:0:0:
64,192,21638,128,0,21805:0:0:0:0:
320,192,21805,128,0,21971:0:0:0:0:
192,192,21805,128,0,21846:0:0:0:0:
64,192,21971,1,0,0:0:0:0:
448,192,21971,1,0,0:0:0:0:
320,192,22138,128,0,22471:0:0:0:0:
64,192,22305,1,0,0:0:0:0:
192,192,22305,1,0,0:0:0:0:
448,192,22305,1,0,0:0:0:0:
192,192,22471,128,0,22638:0:0:0:0:
448,192,22638,128,0,22971:0:0:0:0:
64,192,22638,1,0,0:0:0:0:
320,192,22805,1,0,0:0:0:0:
64,192,22971,1,0,0:0:0:0:
192,192,22971,128,0,23055:0:0:0:0:
192,192,23138,128,0,23305:0:0:0:0:
320,192,23305,1,0,0:0:0:0:
448,192,23305,1,0,0:0:0:0:
64,192,23471,1,0,0:0:0:0:
448,192,23638,1,0,0:0:0:0:
192,192,23638,128,0,23971:0:0:0:0:
320,192,23805,1,0,0:0:0:0:
64,192,23971,1,0,0:0:0:0:
448,192,23971,128,0,24471:0:0:0:0:
192,192,24138,1,0,0:0:0:0:
320,192,24305,1,0,0:0:0:0:
64,192,24305,1,0,0:0:0:0:
192,192,24471,128,0,24638:0:0:0:0:
64,192,24638,128,0,24805:0:0:0:0:
448,192,24638,1,0,0:0:0:0:
192,192,24805,1,0,0:0:0:0:
448,192,24888,128,0,25138:0:0:0:0:
320,192,24971,1,0,0:0:0:0:
192,192,24971,1,0,0:0:0:0:
64,192,24971,1,0,0:0:0:0:
64,192,25138,128,0,25305:0:0:0:0:
448,192,25305,1,0,0:0:0:0:
320,192,25305,128,0,25638:0:0:0:0:
192,192,25471,1,0,0:0:0:0:
64,192,25638,128,0,25805:0:0:0:0:
448,192,25638,1,0,0:0:0:0:
192,192,25638,1,0,0:0:0:0:
320,192,25805,1,0,0:0:0:0:
448,192,25805,128,0,26305:0:0:0:0:
64,192,25971,1,0,0:0:0:0:
320,192,26138,1,0,0:0:0:0:
192,192,26305,1,0,0:0:0:0:
64,192,26305,1,0,0:0:0:0:
448,192,26388,1,0,0:0:0:0:
320,192,26388,1,0,0:0:0:0:
64,192,26471,1,0,0:0:0:0:
192,192,26471,128,0,26555:0:0:0:0:
320,192,26555,128,0,26638:0:0:0:0:
448,192,26638,128,0,26971:0:0:0:0:
64,192,26638,128,0,26971:0:0:0:0:
192,192,26805,128,0,26971:0:0:0:0:
320,192,26971,128,0,27055:0:0:0:0:
192,192,27055,128,0,27138:0:0:0:0:
64,192,27138,128,0,27305:0:0:0:0:
448,192,27138,128,0,27305:0:0:0:0:
64,192,27471,128,0,27805:0:0:0:0:
448,192,27471,128,0,27805:0:0:0:0:
192,192,27805,1,0,0:0:0:0:
320,192,27888,1,0,0:0:0:0:
64,192,27971,1,0,0:0:0:0:
448,192,27971,1,0,0:0:0:0:
192,192,27971,128,0,28305:0:0:0:0:
320,192,28138,1,0,0:0:0:0:
64,192,28305,1,0,0:0:0:0:
320,192,28305,1,0,0:0:0:0:
448,192,28305,128,0,28638:0:0:0:0:
192,192,28471,1,0,0:0:0:0:
320,192,28638,1,0,0:0:0:0:
64,192,28638,128,0,28971:0:0:0:0:
192,192,28805,1,0,0:0:0:0:
192,192,28971,1,0,0:0:0:0:
448,192,28971,1,0,0:0:0:0:
320,192,28971,128,0,29305:0:0:0:0:
64,192,29138,1,0,0:0:0:0:
448,192,29305,1,0,0:0:0:0:
192,192,29305,128,0,29638:0:0:0:0:
320,192,29471,1,0,0:0:0:0:
448,192,29638,1,0,0:0:0:0:
320,192,29638,1,0,0:0:0:0:
64,192,29638,128,0,29721:0:0:0:0:
192,192,29805,1,0,0:0:0:0:
448,192,29805,128,0,29888:0:0:0:0:
320,192,29971,1,0,0:0:0:0:
192,192,30138,128,0,30305:0:0:0:0:
320,192,30305,1,0,0:0:0:0:
448,192,30305,1,0,0:0:0:0:
64,192,30305,128,0,30471:0:0:0:0:
320,192,30471,128,0,30638:0:0:0:0:
64,192,30638,128,0,30971:0:0:0:0:
448,192,30638,1,0,0:0:0:0:
192,192,30638,1,0,0:0:0:0:
320,192,30805,1,0,0:0:0:0:
192,192,30888,1,0,0:0:0:0:
448,192,30971,1,0,0:0:0:0:
320,192,30971,128,0,31055:0:0:0:0:
448,192,31138,128,0,31471:0:0:0:0:
64,192,31138,1,0,0:0:0:0:
192,192,31138,1,0,0:0:0:0:
192,192,31305,1,0,0:0:0:0:
320,192,31388,1,0,0:0:0:0:
64,192,31471,1,0,0:0:0:0:
192,192,31471,128,0,31555:0:0:0:0:
320,192,31638,1,0,0:0:0:0:
64,192,31638,128,0,32138:0:0:0:0:
448,192,31638,128,0,31971:0:0:0:0:
192,192,31971,128,0,32138:0:0:0:0:
320,192,32138,128,0,32305:0:0:0:0:
64,192,32305,1,0,0:0:0:0:
192,192,32305,1,0,0:0:0:0:
448,192,32305,1,0,0:0:0:0:
192,192,32471,128,0,32638:0:0:0:0:
64,192,32638,128,0,32805:0:0:0:0:
320,192,32638,1,0,0:0:0:0:
448,192,32805,128,0,32971:0:0:0:0:
64,192,32971,1,0,0:0:0:0:
320,192,32971,1,0,0:0:0:0:
192,192,32971,128,0,33138:0:0:0:0:
320,192,33138,128,0,33305:0:0:0:0:
64,192,33305,1,0,0:0:0:0:
448,192,33305,128,0,33638:0:0:0:0:
192,192,33471,1,0,0:0:0:0:
192,192,33638,1,0,0:0:0:0:
320,192,33638,1,0,0:0:0:0:
64,192,33638,128,0,33721:0:0:0:0:
64,192,33805,128,0,33971:0:0:0:0:
448,192,33805,1,0,0:0:0:0:
320,192,33971,1,0,0:0:0:0:
192,192,34138,128,0,34305:0:0:0:0:
448,192,34138,1,0,0:0:0:0:
64,192,34305,128,0,34471:0:0:0:0:
320,192,34305,1,0,0:0:0:0:
448,192,34305,1,0,0:0:0:0:
192,192,34471,128,0,34555:0:0:0:0:
320,192,34555,128,0,34638:0:0:0:0:
64,192,34638,1,0,0:0:0:0:
448,192,34638,128,0,34971:0:0:0:0:
192,192,34638,1,0,0:0:0:0:
192,192,34805,1,0,0:0:0:0:
192,192,34971,1,0,0:0:0:0:
320,192,34971,1,0,0:0:0:0:
64,192,34971,1,0,0:0:0:0:
64,192,35138,128,0,35305:0:0:0:0:
320,192,35305,1,0,0:0:0:0:
448,192,35305,128,0,35555:0:0:0:0:
192,192,35471,1,0,0:0:0:0:
320,192,35555,128,0,35805:0:0:0:0:
64,192,35638,1,0,0:0:0:0:
192,192,35638,1,0,0:0:0:0:
192,192,35805,128,0,35971:0:0:0:0:
448,192,35971,1,0,0:0:0:0:
64,192,35971,128,0,36305:0:0:0:0:
320,192,35971,1,0,0:0:0:0:
192,192,36138,1,0,0:0:0:0:
192,192,36305,1,0,0:0:0:0:
448,192,36305,1,0,0:0:0:0:
320,192,36305,128,0,36471:0:0:0:0:
448,192,36471,128,0,36805:0:0:0:0:
64,192,36471,1,0,0:0:0:0:
192,192,36638,1,0,0:0:0:0:
320,192,36805,1,0,0:0:0:0:
64,192,36971,1,0,0:0:0:0:
448,192,36971,1,0,0:0:0:0:
192,192,36971,1,0,0:0:0:0:
320,192,37055,1,0,0:0:0:0:
448,192,37138,1,0,0:0:0:0:
64,192,37138,128,0,37471:0:0:0:0:
320,192,37305,128,0,37638:0:0:0:0:
192,192,37471,1,0,0:0:0:0:
448,192,37638,128,0,37971:0:0:0:0:
64,192,37638,1,0,0:0:0:0:
192,192,37805,1,0,0:0:0:0:
320,192,37888,1,0,0:0:0:0:
192,192,37971,128,0,38305:0:0:0:0:
64,192,37971,1,0,0:0:0:0:
448,192,38138,1,0,0:0:0:0:
320,192,38305,128,0,38638:0:0:0:0:
64,192,38305,1,0,0:0:0:0:
192,192,38471,128,0,38638:0:0:0:0:
448,192,38638,128,0,39471:0:0:0:0:
64,192,38638,128,0,38971:0:0:0:0:
64,192,39138,128,0,39471:0:0:0:0:
192,192,39305,1,0,0:0:0:0:
320,192,39305,128,0,39471:0:0:0:0:
192,192,39471,128,0,39638:0:0:0:0:
64,192,39638,128,0,39721:0:0:0:0:
448,192,39638,1,0,0:0:0:0:
64,192,39805,128,0,40471:0:0:0:0:
192,192,39971,128,0,40138:0:0:0:0:
320,192,39971,1,0,0:0:0:0:
448,192,40138,128,0,40305:0:0:0:0:
320,192,40305,1,0,0:0:0:0:
192,192,40471,1,0,0:0:0:0:
320,192,40638,1,0,0:0:0:0:
448,192,40638,1,0,0:0:0:0:
64,192,40638,1,0,0:0:0:0:
192,192,40805,1,0,0:0:0:0:
448,192,40971,128,0,41305:0:0:0:0:
64,192,40971,1,0,0:0:0:0:
320,192,41138,1,0,0:0:0:0:
64,192,41305,1,0,0:0:0:0:
192,192,41305,128,0,41638:0:0:0:0:
448,192,41471,1,0,0:0:0:0:
320,192,41638,1,0,0:0:0:0:
64,192,41805,128,0,41971:0:0:0:0:
192,192,41971,1,0,0:0:0:0:
320,192,41971,1,0,0:0:0:0:
448,192,41971,128,0,42138:0:0:0:0:
64,192,42138,1,0,0:0:0:0:
320,192,42138,128,0,42305:0:0:0:0:
192,192,42305,128,0,42471:0:0:0:0:
448,192,42471,128,0,42638:0:0:0:0:
192,192,42638,1,0,0:0:0:0:
320,192,42638,1,0,0:0:0:0:
64,192,42638,128,0,42971:0:0:0:0:
192,192,42805,128,0,42971:0:0:0:0:
320,192,42971,128,0,43055:0:0:0:0:
320,192,43138,128,0,43305:0:0:0:0:
64,192,43305,1,0,0:0:0:0:
192,192,43305,1,0,0:0:0:0:
448,192,43305,1,0,0:0:0:0:
64,192,43471,1,0,0:0:0:0:
448,192,43471,1,0,0:0:0:0:
320,192,43638,1,0,0:0:0:0:
192,192,43638,128,0,43805:0:0:0:0:
448,192,43805,128,0,43971:0:0:0:0:
320,192,43971,128,0,44305:0:0:0:0:
64,192,43971,128,0,44471:0:0:0:0:
192,192,43971,1,0,0:0:0:0:
320,192,44471,128,0,44638:0:0:0:0:
448,192,44638,128,0,45305:0:0:0:0:
192,192,44638,1,0,0:0:0:0:
64,192,44638,128,0,44805:0:0:0:0:
192,192,44805,128,0,44971:0:0:0:0:
320,192,44971,128,0,45138:0:0:0:0:
64,192,45138,128,0,45305:0:0:0:0:
192,192,45305,128,0,45805:0:0:0:0:
320,192,45305,1,0,0:0:0:0:
448,192,45471,128,0,45638:0:0:0:0:
64,192,45638,1,0,0:0:0:0:
448,192,45805,128,0,46305:0:0:0:0:
320,192,45971,1,0,0:0:0:0:
64,192,45971,1,0,0:0:0:0:
192,192,45971,1,0,0:0:0:0:
192,192,46138,1,0,0:0:0:0:
320,192,46305,128,0,46638:0:0:0:0:
64,192,46305,128,0,46471:0:0:0:0:
192,192,46471,128,0,46638:0:0:0:0:
448,192,46638,1,0,0:0:0:0:
64,192,46638,128,0,46805:0:0:0:0:
320,192,46805,1,0,0:0:0:0:
192,192,46971,128,0,47055:0:0:0:0:
448,192,46971,1,0,0:0:0:0:
192,192,47138,128,0,47638:0:0:0:0:
448,192,47305,1,0,0:0:0:0:
320,192,47305,1,0,0:0:0:0:
64,192,47305,1,0,0:0:0:0:
320,192,47471,128,0,47638:0:0:0:0:
448,192,47638,128,0,47805:0:0:0:0:
64,192,47805,128,0,47971:0:0:0:0:
192,192,47805,128,0,47971:0:0:0:0:
448,192,47971,1,0,0:0:0:0:
320,192,47971,128,0,48305:0:0:0:0:
64,192,48305,128,0,48638:0:0:0:0:
192,192,48305,1,0,0:0:0:0:
320,192,48471,1,0,0:0:0:0:
192,192,48555,1,0,0:0:0:0:
320,192,48638,1,0,0:0:0:0:
448,192,48638,128,0,48971:0:0:0:0:
192,192,48805,1,0,0:0:0:0:
64,192,48805,1,0,0:0:0:0:
320,192,48971,1,0,0:0:0:0:
192,192,48971,128,0,49305:0:0:0:0:
320,192,49138,1,0,0:0:0:0:
448,192,49138,1,0,0:0:0:0:
320,192,49305,1,0,0:0:0:0:
64,192,49305,128,0,50138:0:0:0:0:
448,192,49305,128,0,49471:0:0:0:0:
192,192,49638,1,0,0:0:0:0:
320,192,49638,1,0,0:0:0:0:
448,192,49638,1,0,0:0:0:0:
192,192,49805,1,0,0:0:0:0:
320,192,49971,1,0,0:0:0:0:
448,192,49971,1,0,0:0:0:0:
192,192,50138,128,0,50305:0:0:0:0:
448,192,50305,1,0,0:0:0:0:
320,192,50305,128,0,50471:0:0:0:0:
64,192,50305,1,0,0:0:0:0:
448,192,50471,128,0,51305:0:0:0:0:
192,192,50471,1,0,0:0:0:0:
192,192,50805,1,0,0:0:0:0:
64,192,50971,1,0,0:0:0:0:
192,192,50971,1,0,0:0:0:0:
320,192,50971,1,0,0:0:0:0:
64,192,51138,1,0,0:0:0:0:
192,192,51305,1,0,0:0:0:0:
320,192,51305,1,0,0:0:0:0:
448,192,51471,1,0,0:0:0:0:
448,192,51638,1,0,0:0:0:0:
320,192,51638,128,0,51971:0:0:0:0:
64,192,51638,128,0,51805:0:0:0:0:
64,192,51971,1,0,0:0:0:0:
192,192,51971,128,0,52305:0:0:0:0:
448,192,52305,1,0,0:0:0:0:
64,192,52305,1,0,0:0:0:0:
320,192,52305,128,0,52471:0:0:0:0:
192,192,52471,128,0,52638:0:0:0:0:
320,192,52555,1,0,0:0:0:0:
64,192,52638,1,0,0:0:0:0:
448,192,52638,128,0,52971:0:0:0:0:
320,192,52805,1,0,0:0:0:0:
192,192,52805,128,0,52971:0:0:0:0:
320,192,52971,1,0,0:0:0:0:
64,192,52971,128,0,53138:0:0:0:0:
192,192,53138,128,0,53805:0:0:0:0:
320,192,53138,128,0,53471:0:0:0:0:
448,192,53138,1,0,0:0:0:0:
448,192,53471,1,0,0:0:0:0:
448,192,53638,1,0,0:0:0:0:
64,192,53638,1,0,0:0:0:0:
320,192,53638,1,0,0:0:0:0:
448,192,53805,1,0,0:0:0:0:
320,192,53888,1,0,0:0:0:0:
192,192,53971,1,0,0:0:0:0:
64,192,53971,128,0,54138:0:0:0:0:
320,192,54138,128,0,54305:0:0:0:0:
64,192,54305,1,0,0:0:0:0:
448,192,54305,128,0,54638:0:0:0:0:
192,192,54471,1,0,0:0:0:0:
320,192,54555,1,0,0:0:0:0:
192,192,54638,1,0,0:0:0:0:
64,192,54638,128,0,54971:0:0:0:0:
320,192,54805,1,0,0:0:0:0:
192,192,54971,1,0,0:0:0:0:
448,192,54971,128,0,55305:0:0:0:0:
320,192,54971,1,0,0:0:0:0:
192,192,55138,1,0,0:0:0:0:
192,192,55305,1,0,0:0:0:0:
320,192,55305,1,0,0:0:0:0:
64,192,55305,128,0,55638:0:0:0:0:
448,192,55471,1,0,0:0:0:0:
192,192,55638,1,0,0:0:0:0:
448,192,55638,1,0,0:0:0:0:
320,192,55638,128,0,55971:0:0:0:0:
64,192,55805,1,0,0:0:0:0:
192,192,55971,1,0,0:0:0:0:
448,192,55971,1,0,0:0:0:0:
64,192,55971,128,0,56305:0:0:0:0:
320,192,56138,1,0,0:0:0:0:
192,192,56305,1,0,0:0:0:0:
320,192,56305,1,0,0:0:0:0:
448,192,56305,128,0,56638:0:0:0:0:
192,192,56471,1,0,0:0:0:0:
192,192,56638,1,0,0:0:0:0:
64,192,56638,128,0,56805:0:0:0:0:
320,192,56638,1,0,0:0:0:0:
448,192,56805,1,0,0:0:0:0:
192,192,56805,1,0,0:0:0:0:
320,192,56805,128,0,57138:0:0:0:0:
64,192,57138,1,0,0:0:0:0:
448,192,57138,1,0,0:0:0:0:
192,192,57138,128,0,57471:0:0:0:0:
64,192,57471,1,0,0:0:0:0:
320,192,57471,128,0,57638:0:0:0:0:
448,192,57638,128,0,57805:0:0:0:0:
192,192,57638,1,0,0:0:0:0:
320,192,57805,1,0,0:0:0:0:
64,192,57805,128,0,57971:0:0:0:0:
192,192,57971,128,0,58138:0:0:0:0:
448,192,57971,128,0,58305:0:0:0:0:
320,192,58138,1,0,0:0:0:0:
64,192,58138,128,0,58471:0:0:0:0:
192,192,58305,1,0,0:0:0:0:
320,192,58305,128,0,58471:0:0:0:0:
192,192,58471,128,0,58638:0:0:0:0:
448,192,58471,1,0,0:0:0:0:
64,192,58638,128,0,58721:0:0:0:0:
448,192,58638,128,0,58721:0:0:0:0:
320,192,58638,1,0,0:0:0:0:
448,192,58805,128,0,58888:0:0:0:0:
64,192,58805,128,0,58888:0:0:0:0:
320,192,58805,1,0,0:0:0:0:
448,192,59138,128,0,59471:0:0:0:0:
64,192,59138,128,0,59221:0:0:0:0:
192,192,59138,128,0,59221:0:0:0:0:
64,192,59471,128,0,59555:0:0:0:0:
192,192,59471,1,0,0:0:0:0:
320,192,59555,128,0,59638:0:0:0:0:
448,192,59638,128,0,59721:0:0:0:0:
64,192,59638,1,0,0:0:0:0:
192,192,59721,128,0,59805:0:0:0:0:
320,192,59805,1,0,0:0:0:0:
64,192,59805,128,0,60138:0:0:0:0:
448,192,59805,128,0,60138:0:0:0:0:
320,192,60138,128,0,60221:0:0:0:0:
192,192,60305,1,0,0:0:0:0:
448,192,60305,128,0,60388:0:0:0:0:
64,192,60305,1,0,0:0:0:0:
448,192,60471,128,0,60555:0:0:0:0:
192,192,60638,128,0,60721:0:0:0:0:
320,192,60638,1,0,0:0:0:0:
192,192,60805,128,0,60888:0:0:0:0:
320,192,60971,1,0,0:0:0:0:
64,192,60971,1,0,0:0:0:0:
448,192,60971,128,0,61138:0:0:0:0:
192,192,61138,128,0,61305:0:0:0:0:
64,192,61305,128,0,61638:0:0:0:0:
320,192,61305,128,0,61471:0:0:0:0:
448,192,61471,128,0,61638:0:0:0:0:
320,192,61638,1,0,0:0:0:0:
192,192,61638,128,0,61805:0:0:0:0:
320,192,61805,128,0,62305:0:0:0:0:
64,192,61805,128,0,61971:0:0:0:0:
448,192,61971,128,0,62138:0:0:0:0:
192,192,62138,1,0,0:0:0:0:
64,192,62305,1,0,0:0:0:0:
448,192,62305,1,0,0:0:0:0:
192,192,62305,1,0,0:0:0:0:
448,192,62471,128,0,62805:0:0:0:0:
64,192,62471,128,0,62638:0:0:0:0:
320,192,62638,128,0,62805:0:0:0:0:
192,192,62805,128,0,62971:0:0:0:0:
320,192,62971,1,0,0:0:0:0:
64,192,62971,128,0,63055:0:0:0:0:
448,192,62971,1,0,0:0:0:0:
64,192,63138,128,0,63221:0:0:0:0:
320,192,63305,128,0,63388:0:0:0:0:
192,192,63305,1,0,0:0:0:0:
320,192,63471,128,0,63555:0:0:0:0:
448,192,63638,1,0,0:0:0:0:
192,192,63638,128,0,63971:0:0:0:0:
64,192,63638,1,0,0:0:0:0:
320,192,63805,128,0,63971:0:0:0:0:
448,192,63971,128,0,64305:0:0:0:0:
64,192,63971,128,0,64138:0:0:0:0:
192,192,64138,128,0,64305:0:0:0:0:
320,192,64305,128,0,64471:0:0:0:0:
64,192,64305,1,0,0:0:0:0:
192,192,64471,128,0,64805:0:0:0:0:
448,192,64471,128,0,64638:0:0:0:0:
320,192,64638,128,0,64805:0:0:0:0:
448,192,64805,1,0,0:0:0:0:
64,192,64805,1,0,0:0:0:0:
192,192,64971,1,0,0:0:0:0:
320,192,64971,1,0,0:0:0:0:
448,192,64971,1,0,0:0:0:0:
192,192,65138,128,0,65471:0:0:0:0:
448,192,65138,128,0,65305:0:0:0:0:
64,192,65305,1,0,0:0:0:0:
320,192,65471,128,0,65638:0:0:0:0:
64,192,65638,1,0,0:0:0:0:
192,192,65638,1,0,0:0:0:0:
448,192,65638,128,0,65971:0:0:0:0:
320,192,65805,128,0,65971:0:0:0:0:
192,192,65971,128,0,66138:0:0:0:0:
64,192,65971,1,0,0:0:0:0:
448,192,66138,1,0,0:0:0:0:
320,192,66305,1,0,0:0:0:0:
448,192,66305,1,0,0:0:0:0:
64,192,66305,128,0,66638:0:0:0:0:
192,192,66471,128,0,66638:0:0:0:0:
320,192,66638,128,0,66805:0:0:0:0:
448,192,66638,128,0,66971:0:0:0:0:
64,192,66805,128,0,66971:0:0:0:0:
192,192,66971,128,0,67138:0:0:0:0:
448,192,67138,128,0,67471:0:0:0:0:
320,192,67138,1,0,0:0:0:0:
64,192,67221,1,0,0:0:0:0:
192,192,67305,1,0,0:0:0:0:
320,192,67388,1,0,0:0:0:0:
192,192,67471,1,0,0:0:0:0:
64,192,67471,1,0,0:0:0:0:
320,192,67555,1,0,0:0:0:0:
64,192,67638,128,0,67971:0:0:0:0:
448,192,67638,128,0,67805:0:0:0:0:
192,192,67805,128,0,67971:0:0:0:0:
320,192,67971,128,0,68305:0:0:0:0:
64,192,68305,1,0,0:0:0:0:
448,192,68305,1,0,0:0:0:0:
192,192,68305,1,0,0:0:0:0:
192,192,68471,128,0,68555:0:0:0:0:
192,192,68638,128,0,68971:0:0:0:0:
320,192,68971,128,0,69138:0:0:0:0:
64,192,68971,1,0,0:0:0:0:
448,192,68971,1,0,0:0:0:0:
192,192,69138,1,0,0:0:0:0:
64,192,69138,128,0,69471:0:0:0:0:
448,192,69138,128,0,69221:0:0:0:0:
192,192,69471,128,0,69555:0:0:0:0:
320,192,69471,128,0,69805:0:0:0:0:
448,192,69471,1,0,0:0:0:0:
64,192,69805,1,0,0:0:0:0:
192,192,69805,128,0,69971:0:0:0:0:
448,192,69805,128,0,69888:0:0:0:0:
448,192,69971,128,0,70305:0:0:0:0:
64,192,69971,1,0,0:0:0:0:
320,192,69971,1,0,0:0:0:0:
192,192,70138,1,0,0:0:0:0:
320,192,70221,1,0,0:0:0:0:
64,192,70305,1,0,0:0:0:0:
192,192,70388,1,0,0:0:0:0:
448,192,70471,128,0,70805:0:0:0:0:
320,192,70471,128,0,70805:0:0:0:0:
64,192,70471,1,0,0:0:0:0:
192,192,70805,128,0,70888:0:0:0:0:
320,192,70971,1,0,0:0:0:0:
64,192,70971,128,0,71055:0:0:0:0:
448,192,70971,1,0,0:0:0:0:
64,192,71138,128,0,71221:0:0:0:0:
320,192,71305,128,0,71388:0:0:0:0:
192,192,71305,1,0,0:0:0:0:
320,192,71471,128,0,71555:0:0:0:0:
192,192,71638,1,0,0:0:0:0:
448,192,71638,1,0,0:0:0:0:
64,192,71638,128,0,71805:0:0:0:0:
320,192,71805,128,0,71971:0:0:0:0:
192,192,71971,128,0,72305:0:0:0:0:
448,192,71971,128,0,72138:0:0:0:0:
320,192,72138,128,0,72305:0:0:0:0:
448,192,72305,1,0,0:0:0:0:
64,192,72305,128,0,72471:0:0:0:0:
448,192,72471,128,0,72971:0:0:0:0:
192,192,72471,128,0,72638:0:0:0:0:
320,192,72638,128,0,72805:0:0:0:0:
192,192,72805,1,0,0:0:0:0:
192,192,72971,1,0,0:0:0:0:
64,192,72971,1,0,0:0:0:0:
320,192,72971,1,0,0:0:0:0:
64,192,73138,128,0,73471:0:0:0:0:
320,192,73138,128,0,73471:0:0:0:0:
448,192,73305,128,0,73471:0:0:0:0:
192,192,73471,128,0,73638:0:0:0:0:
64,192,73638,1,0,0:0:0:0:
448,192,73638,128,0,73721:0:0:0:0:
320,192,73638,1,0,0:0:0:0:
448,192,73805,128,0,73888:0:0:0:0:
64,192,73971,128,0,74055:0:0:0:0:
320,192,73971,1,0,0:0:0:0:
64,192,74138,128,0,74221:0:0:0:0:
192,192,74305,1,0,0:0:0:0:
320,192,74305,128,0,74638:0:0:0:0:
448,192,74305,1,0,0:0:0:0:
64,192,74471,128,0,74638:0:0:0:0:
192,192,74638,128,0,74805:0:0:0:0:
448,192,74638,128,0,74805:0:0:0:0:
320,192,74805,128,0,74971:0:0:0:0:
64,192,74971,128,0,75138:0:0:0:0:
192,192,74971,1,0,0:0:0:0:
448,192,74971,1,0,0:0:0:0:
192,192,75138,128,0,75471:0:0:0:0:
448,192,75138,128,0,75305:0:0:0:0:
320,192,75305,128,0,75471:0:0:0:0:
64,192,75471,1,0,0:0:0:0:
448,192,75638,1,0,0:0:0:0:
64,192,75638,1,0,0:0:0:0:
192,192,75638,1,0,0:0:0:0:
320,192,75805,128,0,76138:0:0:0:0:
448,192,75805,128,0,76138:0:0:0:0:
64,192,76138,128,0,76305:0:0:0:0:
448,192,76305,128,0,76638:0:0:0:0:
320,192,76471,128,0,76555:0:0:0:0:
64,192,76555,128,0,76638:0:0:0:0:
192,192,76638,128,0,76971:0:0:0:0:
448,192,76805,1,0,0:0:0:0:
64,192,76805,1,0,0:0:0:0:
448,192,76971,128,0,77305:0:0:0:0:
320,192,76971,1,0,0:0:0:0:
64,192,77055,1,0,0:0:0:0:
192,192,77138,1,0,0:0:0:0:
320,192,77221,1,0,0:0:0:0:
64,192,77305,1,0,0:0:0:0:
192,192,77305,128,0,77471:0:0:0:0:
448,192,77471,128,0,77638:0:0:0:0:
320,192,77638,128,0,77805:0:0:0:0:
64,192,77638,1,0,0:0:0:0:
192,192,77805,1,0,0:0:0:0:
64,192,77805,128,0,78138:0:0:0:0:
448,192,77805,128,0,78138:0:0:0:0:
192,192,78138,1,0,0:0:0:0:
320,192,78138,1,0,0:0:0:0:
448,192,78305,1,0,0:0:0:0:
192,192,78305,128,0,78638:0:0:0:0:
64,192,78471,1,0,0:0:0:0:
320,192,78555,1,0,0:0:0:0:
64,192,78638,1,0,0:0:0:0:
448,192,78638,128,0,79138:0:0:0:0:
192,192,78805,1,0,0:0:0:0:
64,192,78971,1,0,0:0:0:0:
320,192,78971,1,0,0:0:0:0:
192,192,79138,128,0,79305:0:0:0:0:
64,192,79305,128,0,79471:0:0:0:0:
448,192,79305,1,0,0:0:0:0:
320,192,79471,1,0,0:0:0:0:
448,192,79638,1,0,0:0:0:0:
192,192,79638,128,0,79805:0:0:0:0:
320,192,79805,1,0,0:0:0:0:
448,192,79805,128,0,80138:0:0:0:0:
64,192,79805,1,0,0:0:0:0:
320,192,80138,1,0,0:0:0:0:
64,192,80138,128,0,80305:0:0:0:0:
448,192,80305,1,0,0:0:0:0:
192,192,80305,128,0,80638:0:0:0:0:
320,192,80471,128,0,80638:0:0:0:0:
448,192,80638,128,0,80971:0:0:0:0:
64,192,80638,128,0,80805:0:0:0:0:
320,192,80805,128,0,80971:0:0:0:0:
192,192,80971,128,0,81138:0:0:0:0:
64,192,80971,1,0,0:0:0:0:
448,192,81138,128,0,81305:0:0:0:0:
64,192,81305,1,0,0:0:0:0:
320,192,81305,128,0,81638:0:0:0:0:
192,192,81305,1,0,0:0:0:0:
64,192,81638,128,0,81805:0:0:0:0:
192,192,81638,128,0,81805:0:0:0:0:
448,192,81805,128,0,82638:0:0:0:0:
320,192,81805,1,0,0:0:0:0:
64,192,81971,128,0,82138:0:0:0:0:
192,192,81971,128,0,82138:0:0:0:0:
320,192,82138,1,0,0:0:0:0:
192,192,82305,128,0,82471:0:0:0:0:
64,192,82305,1,0,0:0:0:0:
320,192,82471,1,0,0:0:0:0:
64,192,82471,128,0,82805:0:0:0:0:
192,192,82638,128,0,82805:0:0:0:0:
448,192,82805,1,0,0:0:0:0:
320,192,82805,128,0,82971:0:0:0:0:
64,192,82971,1,0,0:0:0:0:
192,192,82971,128,0,83138:0:0:0:0:
448,192,83138,128,0,83638:0:0:0:0:
64,192,83305,128,0,83388:0:0:0:0:
320,192,83305,1,0,0:0:0:0:
192,192,83471,128,0,83555:0:0:0:0:
320,192,83638,1,0,0:0:0:0:
192,192,83638,1,0,0:0:0:0:
64,192,83638,128,0,83805:0:0:0:0:
448,192,83805,128,0,83971:0:0:0:0:
320,192,83971,1,0,0:0:0:0:
64,192,83971,128,0,84305:0:0:0:0:
192,192,84138,128,0,84305:0:0:0:0:
320,192,84305,128,0,84471:0:0:0:0:
448,192,84305,128,0,84471:0:0:0:0:
192,192,84471,1,0,0:0:0:0:
448,192,84638,128,0,84805:0:0:0:0:
320,192,84638,128,0,84805:0:0:0:0:
64,192,84805,1,0,0:0:0:0:
192,192,84971,128,0,85138:0:0:0:0:
448,192,84971,128,0,85138:0:0:0:0:
320,192,85138,1,0,0:0:0:0:
64,192,85138,128,0,85471:0:0:0:0:
448,192,85471,128,0,85805:0:0:0:0:
192,192,85471,1,0,0:0:0:0:
64,192,85638,1,0,0:0:0:0:
192,192,85638,1,0,0:0:0:0:
320,192,85805,128,0,86471:0:0:0:0:
64,192,85971,1,0,0:0:0:0:
448,192,85971,1,0,0:0:0:0:
192,192,86138,128,0,86305:0:0:0:0:
448,192,86305,128,0,86471:0:0:0:0:
64,192,86471,128,0,86638:0:0:0:0:
192,192,86638,1,0,0:0:0:0:
448,192,86638,128,0,86971:0:0:0:0:
320,192,86805,1,0,0:0:0:0:
64,192,86971,1,0,0:0:0:0:
192,192,86971,1,0,0:0:0:0:
320,192,86971,128,0,87138:0:0:0:0:
192,192,87138,1,0,0:0:0:0:
320,192,87305,1,0,0:0:0:0:
448,192,87305,1,0,0:0:0:0:
64,192,87305,128,0,87471:0:0:0:0:
320,192,87471,1,0,0:0:0:0:
64,192,87638,1,0,0:0:0:0:
192,192,87638,1,0,0:0:0:0:
448,192,87638,128,0,87805:0:0:0:0:
64,192,87805,128,0,88138:0:0:0:0:
192,192,87971,1,0,0:0:0:0:
320,192,87971,1,0,0:0:0:0:
448,192,87971,1,0,0:0:0:0:
448,192,88138,128,0,88305:0:0:0:0:
64,192,88305,1,0,0:0:0:0:
192,192,88305,1,0,0:0:0:0:
320,192,88305,128,0,88471:0:0:0:0:
192,192,88471,128,0,88971:0:0:0:0:
64,192,88638,1,0,0:0:0:0:
320,192,88638,1,0,0:0:0:0:
448,192,88638,1,0,0:0:0:0:
320,192,88805,1,0,0:0:0:0:
64,192,88971,1,0,0:0:0:0:
448,192,88971,1,0,0:0:0:0:
320,192,89055,1,0,0:0:0:0:
192,192,89138,1,0,0:0:0:0:
64,192,89221,1,0,0:0:0:0:
448,192,89305,128,0,89471:0:0:0:0:
320,192,89305,128,0,89638:0:0:0:0:
64,192,89471,128,0,89638:0:0:0:0:
192,192,89638,128,0,89805:0:0:0:0:
64,192,89805,1,0,0:0:0:0:
448,192,89805,128,0,90138:0:0:0:0:
320,192,89805,1,0,0:0:0:0:
64,192,90055,1,0,0:0:0:0:
320,192,90138,1,0,0:0:0:0:
192,192,90138,128,0,90305:0:0:0:0:
448,192,90305,128,0,90471:0:0:0:0:
320,192,90471,1,0,0:0:0:0:
64,192,90471,128,0,90805:0:0:0:0:
192,192,90471,1,0,0:0:0:0:
448,192,90805,1,0,0:0:0:0:
192,192,90805,128,0,90971:0:0:0:0:
64,192,90971,1,0,0:0:0:0:
320,192,90971,128,0,91138:0:0:0:0:
64,192,91138,1,0,0:0:0:0:
192,192,91138,1,0,0:0:0:0:
448,192,91138,128,0,91471:0:0:0:0:
320,192,91305,1,0,0:0:0:0:
64,192,91388,1,0,0:0:0:0:
192,192,91388,1,0,0:0:0:0:
320,192,91471,128,0,91638:0:0:0:0:
64,192,91555,1,0,0:0:0:0:
192,192,91638,128,0,91971:0:0:0:0:
448,192,91721,1,0,0:0:0:0:
320,192,91805,1,0,0:0:0:0:
64,192,91888,1,0,0:0:0:0:
320,192,91971,1,0,0:0:0:0:
448,192,91971,1,0,0:0:0:0:
320,192,92138,1,0,0:0:0:0:
64,192,92138,1,0,0:0:0:0:
448,192,92305,1,0,0:0:0:0:
192,192,92305,1,0,0:0:0:0:
320,192,92471,1,0,0:0:0:0:
192,192,92471,1,0,0:0:0:0:
320,192,92638,1,0,0:0:0:0:
448,192,92638,1,0,0:0:0:0:
64,192,92638,1,0,0:0:0:0:
64,192,92805,1,0,0:0:0:0:
448,192,92805,1,0,0:0:0:0:
192,192,92805,1,0,0:0:0:0:
192,192,92971,1,0,0:0:0:0:
64,192,92971,1,0,0:0:0:0:
320,192,92971,1,0,0:0:0:0:
448,192,92971,1,0,0:0:0:0:
64,192,93138,128,0,93638:0:0:0:0:
192,192,93138,128,0,93638:0:0:0:0:
320,192,93138,128,0,93638:0:0:0:0:
448,192,93138,128,0,93638:0:0:0:0:
