osu file format v14

[General]
AudioFilename: audio.mp3
AudioLeadIn: 0
PreviewTime: 58205
Countdown: 0
SampleSet: Soft
StackLeniency: 0.7
Mode: 0
LetterboxInBreaks: 0
WidescreenStoryboard: 1

[Editor]
Bookmarks: 53830
DistanceSpacing: 1.4
BeatDivisor: 4
GridSize: 16
TimelineZoom: 1.2

[Metadata]
Title:NEO SKY, NEO MAP! (TV Size)
TitleUnicode:NEO SKY, NEO MAP! (TV Size)
Artist:Nijigasaki High School Idol Club
ArtistUnicode:虹ヶ咲学園スクールアイドル同好会
Creator:HeTo
Version:HARD!
Source:ラブライブ!虹ヶ咲学園スクールアイドル同好会
Tags:Love Live! LoveLive! NijiGaku ニジガク ending theme ed pop jpop j-pop anime japanese 上原歩夢 Uehara Ayumu 大西亜玖璃 Onishi Aguri 中須かすみ Nakasu Kasumi 相良茉優 Sagara Mayu 桜坂しずく Osaka Shizuku 前田佳織里 Maeda Kaori 朝香果林 Asaka Karin 久保田未夢 Kubota Miyu 宮下愛 Miyashita Ai 村上奈津実 Murakami Natsumi 近江彼方 Konoe Kanata 鬼頭明里 Kito Akari 優木せつ菜 Yuki Setsuna 楠木ともり Kusunoki Tomori エマ・ヴェルデ Emma Verde 指出毬亜 Sashide Maria 天王寺璃奈 Tennoji Rina 田中ちえ美 Tanaka Chiemi Ōnishi Oonishi Ohnishi Ousaka Kitō Kitou Yuuki Tennouji Academy gakuen doukoukai dōkōkai 畑 亜貴 Hata Aki 小高光太郎 Odaka Kotaro Kōtarō Koutarou UiNA 谷 ナオキ Tani Naoki
BeatmapID:2643703
BeatmapSetID:1271802

[Difficulty]
HPDrainRate:5
CircleSize:3.8
OverallDifficulty:6.2
ApproachRate:7.5
SliderMultiplier:1.47
SliderTickRate:1

[Events]
//Background and Video events
0,0,"bg.jpg",0,0
Video,261,"ed.avi"
//Break Periods
//Storyboard Layer 0 (Background)
//Storyboard Layer 1 (Fail)
//Storyboard Layer 2 (Pass)
//Storyboard Layer 3 (Foreground)
//Storyboard Layer 4 (Overlay)
//Storyboard Sound Samples

[TimingPoints]
1798,422.535211267606,4,2,6,40,1,0
1798,-117.647058823529,4,2,6,40,0,0
7607,-117.647058823529,4,2,6,5,0,0
7713,-117.647058823529,4,2,6,40,0,0
8452,-95.2380952380952,4,2,6,5,0,0
8558,-105.263157894737,4,2,6,60,0,0
13417,-133.333333333333,4,2,6,60,0,0
14157,-133.333333333333,4,2,6,5,0,0
14262,-133.333333333333,4,2,6,45,0,0
14790,-133.333333333333,4,2,6,5,0,0
14896,-133.333333333333,4,2,6,45,0,0
15213,-133.333333333333,4,2,6,5,0,0
15319,-117.647058823529,4,2,6,50,0,0
21551,-117.647058823529,4,2,6,5,0,0
21657,-117.647058823529,4,2,6,50,0,0
28840,-105.263157894737,4,2,6,55,0,0
52924,422.535211267606,3,2,6,60,1,0
52924,-100,3,2,6,60,0,0
53452,-100,3,2,6,5,0,0
53558,-100,3,2,6,60,0,0
54086,-100,3,2,6,5,0,0
54192,-100,3,2,6,60,0,0
55459,-100,3,2,6,60,0,0
56727,422.535211267606,4,2,6,50,1,0
56727,-100,4,2,6,60,0,0
58417,-98.0392156862745,4,2,6,70,0,0
66445,-98.0392156862745,4,2,6,70,0,0
66867,-98.0392156862745,4,2,6,70,0,0
68135,-98.0392156862745,4,2,6,70,0,0
68557,-98.0392156862745,4,2,6,70,0,0
78698,-98.0392156862745,4,2,6,70,0,0
82290,-98.0392156862745,4,2,6,50,0,0
82501,-98.0392156862745,4,2,6,60,0,0
82924,-98.0392156862745,4,2,6,70,0,0
83769,-98.0392156862745,4,2,6,70,0,0
87149,-98.0392156862745,4,2,6,5,0,0

[Colours]
Combo1 : 255,165,121
Combo2 : 167,67,65
Combo3 : 79,158,255
Combo4 : 94,251,232
Combo5 : 131,247,36

[HitObjects]
511,261,1798,6,0,B|422:254|481:302|369:303,1,124.950002383232,4|2,0:0|0:0,0:0:0:0:
338,149,2643,2,0,P|285:168|252:244,1,124.950002383232,2|2,0:0|0:0,0:0:0:0:
206,323,3347,1,2,0:0:0:0:
201,332,3488,2,0,P|139:329|108:253,1,124.950002383232,2|2,0:0|0:0,0:0:0:0:
161,127,4333,6,0,P|166:151|172:181,2,41.6500007944107,2|2|2,0:0|0:0|0:0,0:0:0:0:
194,84,4755,2,0,P|198:63|202:43,2,41.6500007944107,2|2|2,0:0|0:0|0:0,0:0:0:0:
229,125,5178,6,0,B|289:155|347:94|327:78|376:12|472:47,1,249.900004766464,6|2,0:0|0:0,0:0:0:0:
507,189,6445,2,0,P|494:266|490:303,1,93.7125017874241,2|0,0:0|0:0,0:0:0:0:
487,322,6868,2,0,P|423:329|385:261,1,124.950002383232,2|0,0:0|0:0,0:0:0:0:
281,162,7713,2,0,P|217:155|150:289,1,218.662504170656,2|0,0:0|0:0,0:0:0:0:
135,316,8558,6,0,P|96:306|56:298,1,69.8249981354714,6|0,1:2|0:0,0:0:0:0:
24,214,8981,1,10,0:0:0:0:
24,214,9192,1,2,0:0:0:0:
28,116,9403,2,0,P|24:65|21:37,1,69.8249981354714,2|2,1:2|0:0,0:0:0:0:
108,0,9826,1,10,0:0:0:0:
178,67,10037,1,2,0:0:0:0:
178,67,10143,1,2,0:0:0:0:
178,67,10248,6,0,B|215:81|215:81|264:51,1,69.8249981354714,4|2,1:2|0:0,0:0:0:0:
317,4,10671,1,10,0:0:0:0:
393,64,10882,1,2,0:0:0:0:
363,157,11093,2,0,P|352:212|348:249,1,69.8249981354714,10|8,0:0|0:0,0:0:0:0:
347,274,11410,1,8,0:0:0:0:
347,274,11516,1,8,0:0:0:0:
415,343,11727,1,8,0:0:0:0:
496,289,11938,6,0,P|488:221|485:203,1,69.8249981354714,10|0,0:0|0:0,0:0:0:0:
511,124,12361,1,10,0:0:0:0:
511,124,12572,1,2,0:0:0:0:
480,31,12783,2,0,P|440:17|406:32,1,69.8249981354714,10|2,0:0|0:0,0:0:0:0:
357,104,13206,1,0,1:2:0:0:
357,104,13312,1,0,1:2:0:0:
357,104,13417,6,0,B|203:93|299:181|138:167,1,220.500008411408,6|2,1:2|0:0,0:0:0:0:
0,339,14896,2,0,P|33:315|93:318,1,82.6875031542779,2|0,0:0|0:0,0:0:0:0:
112,324,15319,6,0,B|169:331|169:331|176:343|176:343|244:347,1,124.950002383232,6|2,1:2|1:2,0:0:0:0:
310,312,15952,1,2,0:0:0:0:
310,312,16058,1,2,0:0:0:0:
310,312,16164,2,0,P|314:262|318:240,1,62.4750011916161,0|2,1:2|0:0,0:0:0:0:
274,173,16586,1,2,1:2:0:0:
274,173,16798,1,2,0:0:0:0:
335,111,17009,6,0,P|380:100|409:96,1,62.4750011916161,2|2,1:2|0:0,0:0:0:0:
473,58,17431,1,2,1:2:0:0:
402,5,17643,2,0,P|371:10|269:32,1,124.950002383232,2|0,0:0|0:0,0:0:0:0:
196,55,18276,1,6,1:2:0:0:
196,55,18488,1,2,0:0:0:0:
153,131,18699,6,0,P|163:184|166:211,1,62.4750011916161,0|0,1:2|0:0,0:0:0:0:
216,262,19121,1,2,1:2:0:0:
216,262,19333,1,2,0:0:0:0:
160,329,19544,2,0,P|109:320|96:317,1,62.4750011916161,0|2,1:2|0:0,0:0:0:0:
12,310,19967,1,2,1:2:0:0:
3,198,20178,6,0,P|9:142|17:65,1,124.950002383232,2|2,0:0|0:0,0:0:0:0:
82,16,20812,2,0,P|139:21|161:25,1,62.4750011916161,2|2,1:2|0:0,0:0:0:0:
218,67,21234,2,0,P|274:58|326:49,1,93.7125017874241,2|0,1:2|0:0,0:0:0:0:
352,40,21657,2,0,P|344:97|342:119,1,62.4750011916161,6|0,1:2|0:0,0:0:0:0:
396,171,22079,6,0,P|404:228|406:250,1,62.4750011916161,0|2,1:2|0:0,0:0:0:0:
369,313,22502,1,2,1:2:0:0:
298,261,22713,1,2,0:0:0:0:
298,261,22819,1,2,0:0:0:0:
298,261,22924,2,0,P|252:269|230:274,1,62.4750011916161,2|2,1:2|0:0,0:0:0:0:
155,306,23347,1,2,1:2:0:0:
225,357,23558,6,0,P|255:350|359:333,1,124.950002383232,2|2,0:0|0:0,0:0:0:0:
433,356,24192,1,2,1:2:0:0:
498,298,24403,2,0,P|505:228|511:160,1,124.950002383232,2|0,0:0|0:0,0:0:0:0:
510,85,25037,2,0,P|480:72|444:77,1,62.4750011916161,0|2,1:2|0:0,0:0:0:0:
373,153,25459,6,0,B|323:147|323:147|315:142|315:142|276:139,1,93.7125017874241,2|0,1:2|0:0,0:0:0:0:
237,156,25882,1,2,1:2:0:0:
178,79,26093,2,0,P|128:87|94:167,1,124.950002383232,2|2,1:2|0:0,0:0:0:0:
40,322,26938,6,0,B|101:311|101:311|105:303|105:303|179:293,1,124.950002383232,14|8,0:0|0:0,0:0:0:0:
228,232,27572,1,8,0:0:0:0:
173,155,27783,1,8,0:0:0:0:
230,80,27995,2,0,L|275:71,3,31.237500595808,8|8|0|8,0:0|0:0|1:2|0:0,0:0:0:0:
306,84,28417,1,8,0:0:0:0:
377,23,28628,1,8,0:0:0:0:
377,23,28734,1,8,0:0:0:0:
377,23,28840,6,0,P|415:32|451:39,1,69.8249981354714,6|2,1:2|0:0,0:0:0:0:
506,114,29262,1,10,0:0:0:0:
446,192,29474,1,2,0:0:0:0:
446,192,29579,1,2,0:0:0:0:
446,192,29685,2,0,P|411:198|377:206,1,69.8249981354714,10|2,0:0|0:0,0:0:0:0:
296,150,30107,1,10,0:0:0:0:
296,150,30319,1,2,0:0:0:0:
228,220,30530,6,0,P|235:271|241:303,1,69.8249981354714,10|2,0:0|0:0,0:0:0:0:
287,373,30952,1,10,0:0:0:0:
165,326,31164,2,0,P|159:291|141:177,1,139.649996270943,2|0,0:0|0:0,0:0:0:0:
184,99,31798,1,10,0:0:0:0:
184,99,32009,1,2,0:0:0:0:
120,25,32220,6,0,P|79:32|43:40,1,69.8249981354714,10|0,0:0|0:0,0:0:0:0:
0,119,32643,1,10,0:0:0:0:
0,119,32854,1,2,0:0:0:0:
62,193,33065,2,0,P|103:186|139:178,1,69.8249981354714,10|2,0:0|0:0,0:0:0:0:
184,99,33488,1,8,0:0:0:0:
282,166,33699,6,0,P|276:223|268:319,1,139.649996270943,2|2,0:0|0:0,0:0:0:0:
346,365,34333,2,0,P|406:352|431:349,1,69.8249981354714,10|2,0:0|0:0,0:0:0:0:
498,301,34755,1,10,0:0:0:0:
455,212,34967,1,0,1:2:0:0:
455,212,35072,1,0,1:2:0:0:
455,212,35178,2,0,P|459:161|462:135,1,69.8249981354714,10|0,0:0|0:0,0:0:0:0:
505,55,35600,6,0,P|474:37|427:43,1,69.8249981354714,8|2,0:0|0:0,0:0:0:0:
342,31,36023,1,10,0:0:0:0:
285,110,36234,1,2,0:0:0:0:
285,110,36340,1,2,0:0:0:0:
285,110,36445,2,0,P|288:144|291:179,1,69.8249981354714,8|2,0:0|0:0,0:0:0:0:
371,235,36868,2,0,P|368:269|365:304,1,69.8249981354714,8|2,0:0|0:0,0:0:0:0:
265,375,37290,5,14,0:0:0:0:
159,375,37502,1,10,0:0:0:0:
100,287,37713,1,8,0:0:0:0:
165,205,37924,2,0,P|203:197|305:181,1,139.649996270943,8|0,0:3|1:2,0:0:0:0:
393,128,38558,1,8,1:2:0:0:
329,44,38769,1,2,0:0:0:0:
329,44,38875,1,0,0:0:0:0:
329,44,38981,6,0,B|296:36|296:36|239:58,1,69.8249981354714,14|10,0:0|0:0,0:0:0:0:
185,122,39403,1,10,0:0:0:0:
256,198,39614,2,0,P|251:262|248:341,1,139.649996270943,8|2,0:3|1:2,0:0:0:0:
158,376,40248,1,0,0:0:0:0:
30,299,40459,6,0,P|27:229|22:159,1,139.649996270943,6|0,1:2|1:2,0:0:0:0:
54,66,41093,2,0,P|91:50|123:58,1,69.8249981354714,10|0,0:0|1:2,0:0:0:0:
195,117,41516,1,10,0:0:0:0:
271,56,41727,1,10,0:0:0:0:
341,123,41938,2,0,L|333:179,3,34.9124990677357,8|8|8|8,1:2|0:0|0:0|0:0,0:0:0:0:
353,206,42361,6,0,P|412:191|438:185,1,69.8249981354714,6|8,1:2|0:0,0:0:0:0:
468,198,42678,1,8,0:0:0:0:
468,198,42783,1,8,0:0:0:0:
507,108,42995,2,0,P|494:53|416:40,1,139.649996270943,6|0,1:2|1:2,0:0:0:0:
323,48,43628,1,8,0:0:0:0:
248,144,43840,6,0,B|254:206|254:206|263:215|263:215|271:303,1,139.649996270943,14|2,0:0|1:2,0:0:0:0:
195,353,44474,2,0,P|148:345|122:319,1,69.8249981354714,8|2,0:0|0:0,0:0:0:0:
112,236,44896,2,0,P|141:215|177:212,1,69.8249981354714,2|0,1:2|1:2,0:0:0:0:
222,218,45213,1,8,0:0:0:0:
222,218,45319,1,10,0:0:0:0:
286,290,45530,1,0,1:2:0:0:
401,232,45741,6,0,P|392:183|387:152,1,69.8249981354714,14|8,0:0|0:0,0:0:0:0:
386,65,46164,1,8,1:2:0:0:
308,6,46375,2,0,B|210:3|276:50|150:47,1,139.649996270943,6|2,1:2|1:2,0:0:0:0:
93,7,47009,1,10,0:0:0:0:
3,94,47220,6,0,P|10:177|18:256,1,139.649996270943,14|0,0:0|1:2,0:0:0:0:
61,319,47854,2,0,P|105:310|140:303,1,69.8249981354714,8|0,0:0|1:2,0:0:0:0:
174,285,48171,1,8,0:0:0:0:
174,285,48276,1,0,1:2:0:0:
240,212,48488,2,0,L|292:227,2,34.9124990677357,0|8|8,1:2|0:0|0:0,0:0:0:0:
158,158,48910,1,0,1:2:0:0:
158,158,49016,1,0,1:2:0:0:
158,158,49121,5,14,0:0:0:0:
117,68,49333,1,8,0:0:0:0:
194,8,49544,1,8,0:0:0:0:
327,151,49967,2,0,L|321:209,3,34.9124990677357,8|8|0|0,0:3|0:3|1:2|1:2,0:0:0:0:
316,234,50389,1,8,0:0:0:0:
363,327,50600,6,0,P|396:345|469:287,1,139.649996270943,14|8,0:0|0:0,0:0:0:0:
507,201,51234,1,0,1:2:0:0:
507,201,51340,1,0,1:2:0:0:
507,201,51445,2,0,P|499:139|486:50,1,139.649996270943,8|0,0:3|1:2,0:0:0:0:
411,1,52079,2,0,P|368:4|345:27,1,69.8249981354714,14|0,0:0|0:0,0:0:0:0:
310,111,52502,5,0,1:2:0:0:
219,295,52924,2,0,P|152:301|101:224,1,147,14|0,0:0|0:0,0:0:0:0:
137,147,53558,2,0,P|204:141|255:218,1,147,14|0,0:0|0:0,0:0:0:0:
343,246,54192,6,0,B|401:247|401:247|430:223|430:223|493:224,1,147,10|0,0:0|1:2,0:0:0:0:
508,323,54826,2,0,B|450:322|450:322|421:346|421:346|358:345,1,147,2|8,1:2|0:0,0:0:0:0:
252,309,55459,6,0,P|259:235|267:162,1,147,14|0,0:0|0:0,0:0:0:0:
239,63,56093,1,8,0:3:0:0:
146,108,56305,2,0,B|102:96|58:84,1,73.5,8|0,0:3|0:0,0:0:0:0:
0,177,56727,6,0,P|10:234|13:272,1,73.5,6|0,1:2|0:0,0:0:0:0:
104,294,57149,2,0,P|148:256|179:235,1,73.5,0|0,0:0|0:0,0:0:0:0:
235,176,57572,1,8,0:0:0:0:
169,96,57783,1,0,1:2:0:0:
244,26,57994,1,10,0:0:0:0:
319,96,58205,1,8,0:0:0:0:
319,96,58311,1,8,0:0:0:0:
319,96,58417,6,0,P|371:88|444:78,1,112.455000686371,6|2,1:2|0:0,0:0:0:0:
478,101,58839,1,10,0:0:0:0:
508,201,59050,1,0,1:2:0:0:
457,293,59262,2,0,P|398:281|370:277,1,74.9700004575806,10|2,0:0|1:2,0:0:0:0:
296,219,59684,2,0,P|237:231|209:235,1,74.9700004575806,10|2,0:0|0:2,0:0:0:0:
169,324,60107,6,0,P|112:321|90:261,1,112.455000686371,10|2,0:0|0:0,0:0:0:0:
58,232,60529,1,8,0:0:0:0:
120,146,60741,1,2,1:2:0:0:
74,51,60952,2,0,P|32:67|11:98,1,74.9700004575806,10|0,0:0|1:2,0:0:0:0:
3,141,61269,1,0,1:2:0:0:
3,141,61374,1,8,0:0:0:0:
58,232,61586,1,2,1:2:0:0:
58,232,61691,1,2,1:2:0:0:
58,232,61797,6,0,P|106:223|180:213,1,112.455000686371,10|2,0:0|0:0,0:0:0:0:
220,226,62219,1,10,0:0:0:0:
293,151,62431,1,2,1:2:0:0:
243,58,62642,2,0,P|197:50|161:43,1,74.9700004575806,10|2,0:0|1:2,0:0:0:0:
293,151,63065,2,0,P|329:143|366:137,1,74.9700004575806,10|2,0:0|1:2,0:0:0:0:
484,71,63487,6,0,P|480:117|471:210,1,112.455000686371,8|2,0:0|0:0,0:0:0:0:
478,235,63910,1,8,0:0:0:0:
503,336,64121,1,0,1:2:0:0:
406,377,64332,2,0,P|360:368|301:358,1,74.9700004575806,10|0,0:0|1:2,0:0:0:0:
279,360,64649,1,0,1:2:0:0:
279,360,64755,1,10,0:0:0:0:
207,282,64966,1,2,1:2:0:0:
269,198,65177,6,0,B|323:191|323:191|331:183|331:183|396:176,1,112.455000686371,14|2,0:0|1:2,0:0:0:0:
429,189,65600,2,0,P|432:137|439:91,1,74.9700004575806,10|0,0:0|1:2,0:0:0:0:
394,17,66022,1,10,0:0:0:0:
292,45,66234,1,0,1:2:0:0:
292,45,66339,1,0,1:2:0:0:
292,45,66445,2,0,P|231:34|207:30,1,74.9700004575806,10|0,0:0|1:2,0:0:0:0:
121,72,66867,6,0,P|128:132|135:205,1,112.455000686371,10|2,0:0|0:0,0:0:0:0:
136,236,67290,2,0,P|84:245|47:222,1,74.9700004575806,8|2,0:0|1:2,0:0:0:0:
2,152,67712,1,10,0:0:0:0:
2,152,67924,1,0,1:2:0:0:
50,59,68135,2,0,P|85:49|121:60,1,74.9700004575806,10|2,0:0|1:2,0:0:0:0:
234,129,68557,6,0,B|283:122|283:122|289:114|289:114|376:99,2,112.455000686371,6|0|0,1:2|1:2|1:2,0:0:0:0:
153,198,69403,2,0,P|159:250|166:305,1,74.9700004575806,0|8,1:2|0:0,0:0:0:0:
86,345,69825,2,0,P|81:307|79:285,3,37.4850002287903,8|8|8|8,0:0|0:0|1:2|0:0,0:0:0:0:
71,255,70248,6,0,P|24:273|-2:348,2,112.455000686371,2|10|10,1:2|0:0|0:0,0:0:0:0:
176,304,71093,2,0,B|215:298|215:298|219:292|219:292|271:283,1,74.9700004575806,10|0,0:0|0:0,0:0:0:0:
335,342,71515,2,0,L|339:295,3,37.4850002287903,8|8|4|4,0:0|0:0|0:3|0:3,0:0:0:0:
328,252,71938,6,0,P|366:218|434:228,1,112.455000686371,6|2,1:2|0:0,0:0:0:0:
464,255,72360,1,8,0:0:0:0:
506,158,72572,1,2,1:2:0:0:
461,63,72783,2,0,P|424:44|379:46,1,74.9700004575806,10|2,0:0|1:2,0:0:0:0:
310,109,73205,2,0,P|273:128|228:126,1,74.9700004575806,10|2,0:0|1:2,0:0:0:0:
166,53,73628,6,0,P|131:73|120:156,1,112.455000686371,10|2,0:0|0:0,0:0:0:0:
134,187,74050,1,8,0:0:0:0:
188,276,74262,1,0,1:2:0:0:
139,369,74473,2,0,P|83:356|36:353,1,74.9700004575806,10|0,0:0|1:2,0:0:0:0:
13,353,74790,1,0,1:2:0:0:
13,353,74896,1,10,0:0:0:0:
1,248,75107,1,2,1:2:0:0:
1,248,75212,1,2,1:2:0:0:
1,248,75318,6,0,P|38:242|133:221,1,112.455000686371,10|2,0:0|1:2,0:0:0:0:
163,237,75741,1,10,0:0:0:0:
237,163,75952,1,2,1:2:0:0:
173,79,76163,2,0,P|182:20|186:-6,1,74.9700004575806,10|0,0:0|1:2,0:0:0:0:
237,163,76586,2,0,P|242:200|248:237,1,74.9700004575806,10|2,0:0|1:2,0:0:0:0:
314,92,77008,6,0,P|373:80|421:129,1,112.455000686371,10|2,0:0|1:2,0:0:0:0:
450,146,77431,2,0,P|443:194|439:237,1,74.9700004575806,10|2,0:0|1:2,0:0:0:0:
488,313,77853,1,10,0:0:0:0:
405,378,78065,1,0,1:2:0:0:
405,378,78170,1,0,1:2:0:0:
405,378,78276,2,0,P|346:367|319:364,1,74.9700004575806,8|2,0:0|1:2,0:0:0:0:
228,304,78698,6,0,P|230:235|322:199,1,149.940000915161,6|0,1:2|0:0,0:0:0:0:
389,238,79332,1,8,0:0:0:0:
389,238,79438,1,8,0:0:0:0:
389,238,79543,2,0,P|447:224|516:210,2,112.455000686371,12|4|0,0:0|0:3|1:2,0:0:0:0:
295,197,80388,6,0,B|194:205|257:153|132:168,1,149.940000915161,6|0,1:2|0:0,0:0:0:0:
67,227,81022,1,2,0:0:0:0:
67,227,81128,1,2,0:0:0:0:
67,227,81234,2,0,P|42:175|84:77,1,149.940000915161,6|0,1:2|0:0,0:0:0:0:
141,15,81867,1,2,0:0:0:0:
227,74,82079,6,0,P|220:126|215:171,1,74.9700004575806,6|8,1:2|0:0,0:0:0:0:
259,244,82501,1,8,0:0:0:0:
259,244,82712,1,8,0:0:0:0:
194,327,82924,2,0,P|153:315|115:311,1,74.9700004575806,8|8,0:0|0:0,0:0:0:0:
50,233,83346,1,8,0:0:0:0:
121,155,83557,1,8,0:0:0:0:
44,82,83769,6,0,B|93:70|93:70|98:62|98:62|170:47,1,112.455000686371,6|8,1:2|0:0,0:0:0:0:
200,62,84191,2,0,L|211:116,3,37.4850002287903,8|8|8|8,0:0|0:0|0:0|0:0,0:0:0:0:
227,147,84614,2,0,P|265:175|348:157,1,112.455000686371,2|2,1:2|0:0,0:0:0:0:
449,69,85248,1,0,0:0:0:0:
504,158,85459,1,6,1:2:0:0:
256,192,85565,12,0,87149,0:0:0:0:
