osu file format v14

[General]
AudioFilename: audio.mp3
AudioLeadIn: 0
PreviewTime: 58100
Countdown: 0
SampleSet: Soft
StackLeniency: 0.5
Mode: 0
LetterboxInBreaks: 0
WidescreenStoryboard: 0

[Editor]
DistanceSpacing: 0.6
BeatDivisor: 4
GridSize: 32
TimelineZoom: 1.792

[Metadata]
Title:NEO SKY, NEO MAP! (TV Size)
TitleUnicode:NEO SKY, NEO MAP! (TV Size)
Artist:Nijigasaki High School Idol Club
ArtistUnicode:虹ヶ咲学園スクールアイドル同好会
Creator:Cris-
Version:WOLF'S EXPERT!
Source:ラブライブ!虹ヶ咲学園スクールアイドル同好会
Tags:Saggin Kagayaki Andrea osuplayer111 Sekai Sekaii Sekai-nyan TheShadowOfDark walaowey wolf3211 ktgster Love Live! LoveLive! NijiGaku ニジガク Ending Pop J-Pop JPop Japanese Alternator 上原歩夢 Uehara Ayumu 大西亜玖璃 Onishi Aguri 中須かすみ Nakasu Kasumi 相良茉優 Sagara Mayu 桜坂しずく Osaka Shizuku 前田佳織里 Maeda Kaori 朝香果林 Asaka Karin 久保田未夢 Kubota Miyu 宮下愛 Miyashita Ai 村上奈津実 Murakami Natsumi 近江彼方 Konoe Kanata 鬼頭明里 Kito Akari 優木せつ菜 Yuki Setsuna 楠木ともり Kusunoki Tomori エマ・ヴェルデ Emma Verde 指出毬亜 Sashide Maria 天王寺璃奈 Tennoji Rina 田中ちえ美 Tanaka Chiemi Ōnishi Oonishi Ousaka Kitō Kitou Yuuki Tennouji Academy Gakuen Doukoukai Dōkōkai 畑 亜貴 Aki Hata 小高光太郎 Odaka Kotaro Kōtarō Koutarou UiNA 谷 ナオキ Tani Naoki
BeatmapID:2676385
BeatmapSetID:1279753

[Difficulty]
HPDrainRate:5
CircleSize:4.5
OverallDifficulty:8.5
ApproachRate:9.4
SliderMultiplier:1.9
SliderTickRate:1

[Events]
//Background and Video events
Video,965,"Ending.mp4"
0,0,"Shizuku.jpg",0,0
//Break Periods
//Storyboard Layer 0 (Background)
//Storyboard Layer 1 (Fail)
//Storyboard Layer 2 (Pass)
//Storyboard Layer 3 (Foreground)
//Storyboard Layer 4 (Overlay)
//Storyboard Sound Samples

[TimingPoints]
1798,422.535211267606,4,2,1,40,1,0
2079,-100,4,2,1,5,0,0
2220,-117.647058823529,4,2,1,40,0,0
2290,-117.647058823529,4,2,1,5,0,0
2361,-117.647058823529,4,2,1,40,0,0
2431,-117.647058823529,4,2,1,5,0,0
2502,-117.647058823529,4,2,1,40,0,0
2572,-117.647058823529,4,2,1,5,0,0
2643,-100,4,2,1,40,0,0
2924,-100,4,2,1,5,0,0
3065,-117.647058823529,4,2,1,40,0,0
3136,-117.647058823529,4,2,1,5,0,0
3206,-117.647058823529,4,2,1,40,0,0
3276,-117.647058823529,4,2,1,5,0,0
3347,-117.647058823529,4,2,1,40,0,0
3417,-117.647058823529,4,2,1,5,0,0
3488,-117.647058823529,4,2,1,40,0,0
4755,-100,4,2,1,40,0,0
4826,-100,4,2,1,5,0,0
4896,-100,4,2,1,40,0,0
4967,-100,4,2,1,5,0,0
5037,-100,4,2,1,40,0,0
5107,-100,4,2,1,5,0,0
5178,-117.647058823529,4,2,1,40,0,0
6023,-133.333333333333,4,2,1,40,0,0
6234,-133.333333333333,4,2,1,5,0,0
6375,-133.333333333333,4,2,1,40,0,0
6445,-117.647058823529,4,2,1,40,0,0
6586,-117.647058823529,4,2,1,5,0,0
6727,-117.647058823529,4,2,1,40,0,0
6798,-117.647058823529,4,2,1,5,0,0
6868,-95.238095238095,4,2,1,40,0,0
7572,-166.666666666667,4,2,1,5,0,0
7713,-125,4,2,1,40,0,0
8488,-166.666666666667,4,2,1,5,0,0
8558,-90.9090909090909,4,2,1,70,0,1
8981,-71.4285714285714,4,2,1,70,0,1
10248,-66.6666666666667,4,2,1,70,0,1
10671,-71.4285714285714,4,2,1,70,0,1
11093,-50,4,2,1,70,0,1
11516,-58.8235294117647,4,2,1,70,0,1
11938,-62.5,4,2,1,70,0,1
12361,-71.4285714285714,4,2,1,70,0,1
12783,-55.5555555555556,4,2,1,70,0,1
13206,-83.3333333333333,4,2,1,70,0,1
13417,-133.333333333333,4,2,1,60,0,0
14157,-133.333333333333,4,2,1,5,0,0
14262,-153.846153846153,4,2,1,60,0,0
14685,-100,4,2,1,5,0,0
14896,-166.666666666667,4,2,1,60,0,0
15213,-166.666666666667,4,2,1,5,0,0
15319,-125,4,2,1,50,0,0
21234,-111.111111111111,4,2,1,50,0,0
21551,-111.111111111111,4,2,1,5,0,0
21657,-100,4,2,1,50,0,0
21974,-100,4,2,1,5,0,0
22079,-125,4,2,1,50,0,0
26938,-76.9230769230769,4,2,1,60,0,0
27254,-90.9090909090909,4,2,1,5,0,0
27361,-100,4,2,1,60,0,0
28840,-100,4,2,1,55,0,0
38241,-100,4,2,1,5,0,0
38347,-133.333333333333,4,2,1,55,0,0
39614,-117.647058823529,4,2,1,55,0,0
39931,-83.3333333333333,4,2,1,5,0,0
40036,-125,4,2,1,55,0,0
40354,-125,4,2,1,5,0,0
40459,-83.3333333333333,4,2,1,55,0,0
40776,-83.3333333333333,4,2,1,5,0,0
40882,-100,4,2,1,55,0,0
42361,-100,4,2,1,60,0,0
43312,-100,4,2,1,5,0,0
43417,-100,4,2,1,60,0,0
43840,-71.4285714285714,4,2,1,60,0,0
44157,-71.4285714285714,4,2,1,5,0,0
44262,-100,4,2,1,60,0,0
49121,-100,4,2,1,65,0,0
49333,-100,4,2,1,65,0,0
49597,-100,4,2,1,5,0,0
49967,-100,4,2,1,65,0,0
50072,-100,4,2,1,65,0,0
50178,-100,4,2,1,65,0,0
50283,-100,4,2,1,65,0,0
50389,-100,4,2,1,65,0,0
50600,-76.9230769230769,4,2,1,65,0,0
50917,-76.9230769230769,4,2,1,65,0,0
51023,-100,4,2,1,65,0,0
51339,-100,4,2,1,65,0,0
51445,-76.9230769230769,4,2,1,65,0,0
51761,-100,4,2,1,5,0,0
51868,-100,4,2,1,65,0,0
52079,-153.846153846153,4,2,1,65,0,0
52502,-100,4,2,1,55,0,0
52924,422.535211267606,3,2,1,65,1,0
52924,-125,3,2,1,65,0,0
53557,-99.9999999999999,3,2,1,65,0,0
54191,-83.3333333333333,3,2,1,65,0,0
54508,-83.3333333333333,3,2,1,5,0,0
54614,-83.3333333333333,3,2,1,65,0,0
54825,-76.9230769230769,3,2,1,65,0,0
55142,-76.9230769230769,3,2,1,5,0,0
55247,-76.9230769230769,3,2,1,65,0,0
55459,-133.333333333333,3,2,1,65,0,0
56727,422.535211267606,4,2,1,40,1,0
57149,-100,4,2,1,50,0,0
57572,-100,4,2,1,60,0,0
57994,-100,4,2,1,70,0,0
58417,-62.5,4,2,1,80,0,1
59262,-50,4,2,1,80,0,1
59473,-66.6666666666667,4,2,1,80,0,1
59684,-50,4,2,1,80,0,1
59896,-58.8235294117647,4,2,1,80,0,1
60107,-66.6666666666667,4,2,1,80,0,1
60952,-45.4545454545455,4,2,1,80,0,1
61163,-66.6666666666667,4,2,1,80,0,1
62642,-50,4,2,1,80,0,1
62853,-66.6666666666667,4,2,1,80,0,1
63065,-50,4,2,1,80,0,1
63276,-58.8235294117647,4,2,1,80,0,1
63804,-66.6666666666667,4,2,1,80,0,1
64332,-45.4545454545455,4,2,1,80,0,1
64755,-66.6666666666667,4,2,1,80,0,1
65177,-50,4,2,1,80,0,1
65494,-66.6666666666667,4,2,1,80,0,1
66445,-50,4,2,1,80,0,1
67184,-66.6666666666667,4,2,1,80,0,1
68135,-50,4,2,1,80,0,1
68346,-66.6666666666667,4,2,1,80,0,1
68557,-100,4,2,1,80,0,0
68769,-100,4,2,1,5,0,0
68874,-76.9230769230769,4,2,1,80,0,1
69191,-66.6666666666667,4,2,1,80,0,0
69403,-100,4,2,1,80,0,1
69719,-100,4,2,1,60,0,1
69825,-66.6666666666667,4,2,1,60,0,1
70036,-66.6666666666667,4,2,1,70,0,1
70248,-100,4,2,1,80,0,1
70565,-66.6666666666667,4,2,1,80,0,1
70881,-100,4,2,1,80,0,1
71093,-50,4,2,1,80,0,1
71304,-66.6666666666667,4,2,1,60,0,1
71515,-66.6666666666667,4,2,1,65,0,0
71727,-66.6666666666667,4,2,1,70,0,0
71938,-66.6666666666667,4,2,1,80,0,1
72783,-50,4,2,1,80,0,1
72994,-66.6666666666667,4,2,1,80,0,1
73205,-50,4,2,1,80,0,1
73417,-58.8235294117647,4,2,1,80,0,1
73628,-66.6666666666667,4,2,1,80,0,1
74473,-45.4545454545455,4,2,1,80,0,1
74896,-66.6666666666667,4,2,1,80,0,1
75107,-66.6666666666667,4,2,1,80,0,1
75318,-66.6666666666667,4,2,1,80,0,1
75529,-66.6666666666667,4,2,1,80,0,1
76163,-50,4,2,1,80,0,1
76374,-66.6666666666667,4,2,1,80,0,1
76586,-50,4,2,1,80,0,1
76797,-58.8235294117647,4,2,1,80,0,1
77008,-52.6315789473684,4,2,1,80,0,1
77325,-66.6666666666667,4,2,1,80,0,1
77853,-50,4,2,1,80,0,1
78276,-66.6666666666667,4,2,1,80,0,1
78487,-66.6666666666667,4,2,1,80,0,1
78698,-117.647058823529,4,2,1,70,0,0
79121,-117.647058823529,4,2,1,5,0,0
79332,-100,4,2,1,70,0,0
79438,-100,4,2,1,70,0,0
79543,-100,4,2,1,70,0,0
79860,-100,4,2,1,70,0,0
80388,-100,4,2,1,70,0,0
80811,-100,4,2,1,70,0,0
81022,-100,4,2,1,70,0,0
82079,-76.9230769230769,4,2,1,80,0,1
82924,-68.9655172413793,4,2,1,80,0,1
83769,-62.5,4,2,1,80,0,1
84403,-50,4,2,1,80,0,1
84614,-66.6666666666667,4,2,1,80,0,1
84825,-66.6666666666667,4,2,1,5,0,1
84931,-83.3333333333333,4,2,1,80,0,1
85142,-83.3333333333333,4,2,1,5,0,1
85248,-100,4,2,1,80,0,1
85353,-100,4,2,1,5,0,1
85459,-153.846153846153,4,2,1,60,0,0
86937,-86.9565217391304,4,2,1,30,0,0
87149,-86.9565217391304,4,2,1,5,0,0

[Colours]
Combo1 : 255,159,217
Combo2 : 231,109,109
Combo3 : 240,156,100
Combo4 : 233,230,107
Combo5 : 121,219,126
Combo6 : 109,176,231
Combo7 : 121,138,219
Combo8 : 164,113,249

[HitObjects]
55,47,1798,6,0,B|74:88|74:88|71:90|71:90|74:88|74:88|103:156,1,126.666666666667,6|0,0:0|0:0,0:0:0:0:
25,310,2220,2,0,L|13:287,1,26.9166671800613,2|0,0:0|0:0,0:0:0:0:
77,330,2361,2,0,L|65:307,1,26.9166671800613,2|0,0:0|0:0,0:0:0:0:
129,350,2502,2,0,L|117:327,1,26.9166671800613,2|0,0:0|0:0,0:0:0:0:
262,213,2643,6,0,P|208:207|164:262,1,126.666666666667,2|0,0:0|0:0,0:0:0:0:
335,307,3065,2,0,P|327:318|300:320,1,26.9166671800613,2|0,0:0|0:0,0:0:0:0:
388,258,3206,2,0,P|375:263|367:273,1,26.9166671800613,2|0,0:0|0:0,0:0:0:0:
458,254,3347,2,0,P|450:265|423:267,1,26.9166671800613,2|0,0:0|0:0,0:0:0:0:
468,92,3488,6,0,L|462:119,5,26.9166671800613,2|0|2|0|2|0,0:0|0:0|0:0|0:0|0:0|0:0,0:0:0:0:
428,123,3910,6,0,L|443:52,1,53.8333343601227,2|2,0:0|0:0,0:0:0:0:
369,0,4192,1,2,0:0:0:0:
331,150,4333,5,2,0:0:0:0:
275,93,4474,1,2,0:0:0:0:
350,75,4614,1,2,0:0:0:0:
158,110,4755,6,0,L|168:143,1,31.6666666666667,2|0,0:0|0:0,0:0:0:0:
166,228,4896,2,0,L|156:197,1,31.6666666666667,2|0,0:0|0:0,0:0:0:0:
59,150,5037,2,0,L|68:180,1,31.6666666666667,2|0,0:0|0:0,0:0:0:0:
348,229,5178,6,0,B|276:212|220:273|266:273|214:330|137:316,1,242.250004620552,6|0,0:0|0:0,0:0:0:0:
0,118,6023,6,0,B|9:152|9:152|13:151|13:151|9:152|9:152|32:232,1,118.750004529953,2|0,0:0|0:0,0:0:0:0:
44,336,6445,2,0,L|20:253,1,80.750001540184,2|0,0:0|0:0,0:0:0:0:
74,359,6727,2,0,L|85:397,1,26.9166671800613,2|0,0:0|0:0,0:0:0:0:
259,253,6868,6,0,B|267:279|252:305|252:305|302:296|333:213|298:163|239:143|184:150|163:193|144:218|163:263,1,365.749988838196,2|0,1:2|0:0,0:0:0:0:
163,258,7713,6,0,B|138:189|192:129|196:174|245:117|230:64|230:64|217:91|186:100,1,278.666666666667,2|0,0:0|0:0,0:0:0:0:
178,85,8558,6,0,P|220:118|280:111,1,104.500003189087,14|0,0:0|1:0,0:0:0:0:
510,16,8875,1,0,1:0:0:0:
487,41,8981,2,0,B|484:25|490:9|490:9|478:24|454:33,1,66.4999979705811,10|0,0:0|0:0,0:0:0:0:
488,244,9192,2,0,B|502:249|514:264|514:264|508:248|511:232,1,66.4999979705811,2|0,1:2|0:0,0:0:0:0:
283,44,9403,6,0,P|302:109|321:176,1,132.999995941162,10|2,0:0|1:2,0:0:0:0:
209,383,9720,1,0,1:0:0:0:
226,349,9826,2,0,B|217:322|217:322|214:323|214:323|217:322|217:322|204:284,1,66.4999979705811,10|0,0:0|0:0,0:0:0:0:
462,380,10037,1,2,1:2:0:0:
451,349,10143,1,0,0:0:0:0:
440,318,10248,6,0,P|390:269|321:281,1,142.500005435944,14|2,0:0|1:2,0:0:0:0:
88,188,10565,1,0,1:0:0:0:
72,165,10671,2,0,B|57:158|54:144|54:144|67:157|101:162,1,66.4999979705811,10|0,0:0|0:0,0:0:0:0:
24,374,10882,2,0,B|39:367|42:353|42:353|29:366|-5:371,1,66.4999979705811,2|0,1:2|0:0,0:0:0:0:
226,349,11093,6,0,B|200:272|200:272|198:274|198:274|200:272|200:272|166:172,1,190,10|10,0:0|0:0,0:0:0:0:
332,7,11410,1,8,0:0:0:0:
316,32,11516,2,0,B|307:-6|307:-6|270:20,1,80.750001540184,10|0,0:0|0:0,0:0:0:0:
424,205,11727,1,8,0:0:0:0:
409,172,11833,1,8,0:0:0:0:
395,138,11938,6,0,P|473:148|489:226,1,152,14|2,0:0|1:2,0:0:0:0:
341,361,12255,1,0,1:0:0:0:
330,333,12361,2,0,P|357:347|365:388,1,66.4999979705811,8|0,0:0|0:0,0:0:0:0:
204,221,12572,2,0,P|176:206|168:165,1,66.4999979705811,2|0,1:2|0:0,0:0:0:0:
332,7,12783,6,0,P|289:15|247:24,1,85.4999973907472,14|2,0:0|1:2,0:0:0:0:
11,83,12995,2,0,P|53:91|95:100,1,85.4999973907472,2|0,1:2|1:0,0:0:0:0:
204,221,13206,1,8,0:0:0:0:
137,260,13312,1,8,0:0:0:0:
111,335,13417,6,0,B|171:230|60:155|2:235|37:296,1,249.375009512902,14|2,0:0|0:0,0:0:0:0:
40,299,14262,70,0,B|109:316|142:254|142:254|148:257|148:257|179:195|249:205|272:234,1,277.874987279893,2|0,0:0|0:0,0:0:0:0:
276,267,15319,6,0,P|260:222|243:180,1,76,6|2,1:2|0:0,0:0:0:0:
429,327,15741,2,0,L|413:376,1,38,2|0,1:2|0:0,0:0:0:0:
342,214,15952,2,0,L|330:177,1,38,2|2,0:0|0:0,0:0:0:0:
418,34,16164,2,0,P|441:65|440:106,1,76,2|2,1:2|0:0,0:0:0:0:
279,25,16586,1,2,1:2:0:0:
330,178,16798,1,2,0:0:0:0:
178,80,17009,6,0,L|201:139,1,38,2|0,1:2|0:0,0:0:0:0:
52,217,17220,2,0,L|65:181,1,38,2|0,0:0|0:0,0:0:0:0:
72,32,17431,2,0,P|86:68|102:110,1,76,2|2,3:0|0:0,0:0:0:0:
172,253,17854,1,0,1:2:0:0:
13,122,18065,1,2,0:0:0:0:
180,19,18276,2,0,P|194:55|210:97,1,76,2|2,3:0|0:0,0:0:0:0:
357,248,18699,6,0,P|343:212|326:169,1,76,0|0,1:2|0:0,0:0:0:0:
417,41,19121,2,0,L|398:80,1,38,2|0,3:0|0:0,0:0:0:0:
452,254,19333,2,0,L|436:214,1,38,2|0,0:0|0:0,0:0:0:0:
307,77,19544,2,0,P|320:112|334:147,1,76,0|2,1:0|0:0,0:0:0:0:
203,302,19967,1,2,3:0:0:0:
221,131,20178,6,0,P|251:210|282:289,1,152,2|2,0:0|0:0,0:0:0:0:
53,196,20812,1,2,3:0:0:0:
207,103,21023,1,2,0:0:0:0:
108,328,21234,2,0,B|129:308|115:275|115:275|112:274|112:274|115:275|115:275|89:213,1,128.249996086121,2|0,1:2|1:0,0:0:0:0:
53,196,21657,2,0,L|109:331,1,142.5,2|0,3:0|0:0,0:0:0:0:
180,378,22079,6,0,P|205:345|243:337,1,76,0|2,1:0|0:0,0:0:0:0:
351,254,22502,2,0,P|330:267|307:272,1,38,2|2,1:2|0:0,0:0:0:0:
184,208,22713,2,0,P|206:217|224:233,1,38,2|2,0:0|0:0,0:0:0:0:
364,335,22924,1,2,1:2:0:0:
389,143,23136,1,2,0:0:0:0:
317,270,23347,2,0,P|335:264|351:254,1,38,2|2,3:0|0:0,0:0:0:0:
217,225,23558,2,0,P|201:214|184:208,1,38,2|0,0:0|0:0,0:0:0:0:
92,122,23769,5,0,1:0:0:0:
147,317,23981,2,0,P|156:295|174:272,1,38,2|0,0:0|0:0,0:0:0:0:
54,196,24192,2,0,P|64:212|70:229,1,38,2|2,3:0|0:0,0:0:0:0:
147,317,24403,1,2,0:0:0:0:
280,190,24614,2,0,P|253:217|210:224,1,76,2|2,1:2|0:0,0:0:0:0:
310,90,25037,1,2,3:0:0:0:
450,227,25248,2,0,L|459:190,1,38,2|2,0:0|0:0,0:0:0:0:
385,138,25459,6,0,P|376:172|365:216,1,76,2|0,1:2|0:0,0:0:0:0:
349,284,25776,1,0,0:0:0:0:
360,299,25882,1,2,3:0:0:0:
184,208,26093,6,0,P|202:284|223:370,1,152,2|2,1:2|1:2,0:0:0:0:
230,363,26621,1,0,0:0:0:0:
240,370,26727,1,2,3:0:0:0:
22,234,26938,6,0,B|-14:109|-14:109|8:145|35:148,1,185.249991519928,14|0,1:2|0:0,0:0:0:0:
39,154,27361,1,10,0:0:0:0:
184,208,27572,1,10,0:0:0:0:
73,55,27783,1,8,0:0:0:0:
245,153,27995,6,0,L|200:168,1,47.5,10|8,0:0|0:0,0:0:0:0:
22,234,28206,2,0,L|70:251,1,47.5,2|8,1:2|0:0,0:0:0:0:
247,312,28417,1,10,0:0:0:0:
93,89,28628,1,8,0:0:0:0:
93,89,28734,1,8,0:0:0:0:
93,89,28840,6,0,P|139:76|187:63,1,95,14|2,1:2|0:0,0:0:0:0:
392,173,29262,1,10,0:0:0:0:
300,67,29474,1,2,0:0:0:0:
286,36,29579,1,2,0:0:0:0:
272,5,29685,2,0,P|288:52|303:96,1,95,8|2,0:0|0:0,0:0:0:0:
253,317,30107,2,0,L|237:272,1,47.5,10|0,0:0|0:0,0:0:0:0:
132,178,30319,2,0,L|147:222,1,47.5,2|0,0:0|0:0,0:0:0:0:
149,247,30530,5,10,0:0:0:0:
337,277,30741,1,2,0:0:0:0:
177,364,30952,1,10,0:0:0:0:
223,154,31164,2,0,P|239:201|254:245,1,95,2|8,0:0|0:0,0:0:0:0:
443,326,31586,1,2,0:0:0:0:
409,172,31798,2,0,L|430:235,1,47.5,10|0,0:0|0:0,0:0:0:0:
322,322,32009,2,0,L|343:258,1,47.5,2|0,0:0|0:0,0:0:0:0:
512,186,32220,6,0,B|454:169|405:216|443:218|398:262|336:247,1,190,10|10,0:0|0:0,0:0:0:0:
192,64,32854,2,0,P|208:111|223:155,1,95,2|10,0:0|0:0,0:0:0:0:
115,19,33276,1,2,0:0:0:0:
316,111,33488,1,10,0:0:0:0:
149,247,33699,1,2,0:0:0:0:
276,42,33910,6,0,P|292:89|307:133,1,95,10|2,0:0|0:0,0:0:0:0:
397,336,34333,1,10,0:0:0:0:
512,187,34544,1,2,0:0:0:0:
326,227,34755,2,0,P|371:234|430:243,1,95,10|0,0:0|1:0,0:0:0:0:
307,132,35072,1,0,1:0:0:0:
335,146,35178,2,0,L|288:153,1,47.5,10|0,0:0|0:0,0:0:0:0:
184,203,35389,2,0,L|230:210,1,47.5,2|0,0:0|0:0,0:0:0:0:
244,227,35600,5,10,0:0:0:0:
84,284,35812,1,2,0:0:0:0:
262,347,36023,1,10,0:0:0:0:
86,154,36234,1,2,0:0:0:0:
64,163,36340,1,2,0:0:0:0:
42,158,36445,2,0,P|55:201|73:257,1,95,8|2,0:0|0:0,0:0:0:0:
119,380,36868,1,10,0:0:0:0:
244,227,37079,1,2,0:0:0:0:
388,382,37290,6,0,B|341:372|341:372|341:370|341:370|341:372|341:372|294:362,1,95,14|2,0:0|1:2,0:0:0:0:
70,248,37713,1,10,3:0:0:0:
273,112,37924,2,0,P|248:179|218:258,1,142.5,10|0,3:0|0:0,0:0:0:0:
204,261,38347,1,2,1:2:0:0:
357,175,38558,1,8,0:0:0:0:
315,272,38769,1,2,0:0:0:0:
180,109,38981,6,0,P|167:142|152:182,1,71.2500027179719,14|2,0:0|1:2,0:0:0:0:
83,331,39403,1,2,1:2:0:0:
17,202,39614,6,0,B|66:190|105:231|73:231|108:270|161:260,1,161.500003080368,10|2,0:0|1:2,0:0:0:0:
236,216,40248,1,0,0:0:0:0:
118,48,40459,6,0,B|153:170|153:170|160:117,1,170.999994781494,14|0,0:0|0:0,0:0:0:0:
177,104,40882,1,2,1:2:0:0:
402,245,41093,1,10,0:0:0:0:
204,301,41305,1,2,1:2:0:0:
412,105,41516,1,10,0:0:0:0:
447,355,41727,2,0,L|383:338,1,47.5,2|0,1:2|1:0,0:0:0:0:
220,156,41938,1,10,0:0:0:0:
183,176,42044,1,8,0:0:0:0:
166,212,42149,1,8,0:0:0:0:
166,253,42255,1,8,0:0:0:0:
204,301,42361,6,0,P|268:288|328:276,1,95,14|8,0:0|3:0,0:0:0:0:
361,231,42678,2,0,L|311:241,1,47.5,8|2,3:0|0:0,0:0:0:0:
32,154,42995,2,0,B|39:188|39:188|38:194|38:194|40:189|40:189|69:306,1,142.5,14|0,0:0|0:0,0:0:0:0:
57,307,43417,1,10,0:0:0:0:
124,193,43628,1,2,1:2:0:0:
336,348,43840,6,0,P|264:363|315:287,1,199.499993911743,14|0,0:0|0:0,0:0:0:0:
306,286,44262,2,0,L|293:240,1,47.5,2|0,1:2|0:0,0:0:0:0:
428,57,44474,6,0,B|401:42|401:42|431:150,1,142.5,10|0,0:0|0:0,0:0:0:0:
451,157,44896,1,10,0:0:0:0:
266,88,45107,1,2,1:2:0:0:
305,97,45213,1,0,1:0:0:0:
293,55,45319,1,10,0:0:0:0:
385,254,45530,1,0,1:0:0:0:
170,304,45741,6,0,P|214:321|271:353,1,95,14|10,0:0|3:0,0:0:0:0:
306,286,46058,2,0,P|286:271|264:261,1,47.5,8|2,3:0|1:2,0:0:0:0:
87,364,46375,2,0,P|57:331|65:262,1,95,14|0,0:0|1:0,0:0:0:0:
78,262,46692,1,0,1:0:0:0:
82,266,46798,1,10,3:0:0:0:
256,343,47009,1,10,0:0:0:0:
69,122,47220,6,0,P|110:141|155:161,1,95,14|0,0:0|0:0,0:0:0:0:
211,107,47537,2,0,P|189:97|167:87,1,47.5,0|8,1:0|3:0,0:0:0:0:
363,165,47854,1,10,0:0:0:0:
262,22,48065,2,0,P|283:31|305:41,1,47.5,10|8,3:0|3:0,0:0:0:0:
316,63,48276,1,10,0:0:0:0:
218,308,48488,1,2,1:2:0:0:
200,258,48593,1,8,0:0:0:0:
168,299,48699,2,0,L|190:356,1,47.5,10|2,0:0|1:2,0:0:0:0:
393,373,48910,2,0,L|371:316,1,47.5,2|0,1:2|1:0,0:0:0:0:
266,169,49121,5,14,0:0:0:0:
185,343,49333,1,10,0:0:0:0:
94,113,49544,2,0,L|106:142,1,23.75,10|0,0:0|0:0,0:0:0:0:
112,157,49967,6,0,L|92:109,1,47.5,10|2,3:0|0:0,0:0:0:0:
105,44,50178,2,0,L|123:87,1,47.5,2|2,1:2|0:0,0:0:0:0:
75,18,50389,1,2,1:2:0:0:
9,248,50600,6,0,B|63:231|110:276|74:278|117:320|175:305,1,185.249991519928,14|0,0:0|0:0,0:0:0:0:
184,284,51023,2,0,P|138:286|102:256,1,95,10|2,0:0|1:2,0:0:0:0:
365,105,51445,6,0,B|351:164|351:164|355:161|355:161|351:164|351:164|334:238|334:238|323:192,1,185.249991519928,10|0,3:0|0:0,0:0:0:0:
317,177,51868,1,2,1:2:0:0:
432,352,52079,2,0,P|439:323|450:275,1,61.7499971733095,10|2,0:0|0:0,0:0:0:0:
488,232,52502,1,0,1:0:0:0:
488,232,52924,6,0,B|372:264|372:264|396:240,1,152,14|0,0:0|0:0,0:0:0:0:
467,20,53557,2,0,P|513:78|433:63,1,190,14|0,0:0|0:0,0:0:0:0:
181,89,54191,6,0,P|262:107|352:125,1,170.999994781494,14|0,0:0|0:0,0:0:0:0:
367,115,54614,1,8,3:0:0:0:
233,281,54825,6,0,B|261:321|261:321|198:308|198:308|193:311|193:311|198:308|198:308|120:291,1,185.249991519928,14|0,0:0|0:0,0:0:0:0:
118,275,55247,1,8,0:0:0:0:
22,56,55459,6,0,B|76:48|111:87|111:87|110:92|110:92|114:91|114:91|145:138|208:129,1,213.750008153916,14|10,0:0|3:0,0:0:0:0:
231,114,56198,1,8,3:0:0:0:
241,90,56304,2,0,L|233:67,5,23.7500009059906,10|8|10|0|2|0,3:0|3:0|3:0|1:0|1:2|1:0,0:0:0:0:
388,115,56727,6,0,L|374:54,1,47.5,6|2,1:2|0:0,0:0:0:0:
438,25,56938,2,0,L|424:86,1,47.5,2|2,0:0|0:0,0:0:0:0:
471,208,57150,6,0,L|485:147,1,47.5,2|2,0:0|0:0,0:0:0:0:
388,115,57361,2,0,L|402:176,1,47.5,2|2,0:0|0:0,0:0:0:0:
442,384,57572,5,10,0:0:0:0:
419,331,57678,1,2,3:2:0:0:
369,309,57783,1,2,3:2:0:0:
316,330,57889,1,2,3:2:0:0:
244,371,57995,5,10,0:0:0:0:
161,372,58100,1,2,0:0:0:0:
95,322,58206,1,10,0:0:0:0:
79,242,58312,1,10,0:0:0:0:
116,171,58417,6,0,P|193:187|265:203,1,152,14|2,0:0|1:2,0:0:0:0:
512,50,58734,1,2,0:0:0:0:
504,84,58840,2,0,P|467:92|428:102,1,76,8|0,0:0|0:0,0:0:0:0:
193,61,59051,2,0,P|230:69|269:79,1,76,2|0,1:2|0:0,0:0:0:0:
87,32,59262,6,0,P|59:68|62:120,1,95,10|0,0:0|0:0,0:0:0:0:
170,254,59474,2,0,P|159:216|133:195,1,71.2500027179719,2|0,1:2|0:0,0:0:0:0:
16,361,59685,6,0,B|55:352|55:352|54:348|54:348|55:352|55:352|102:342,1,95,10|0,0:0|0:0,0:0:0:0:
328,169,59896,2,0,B|291:176|291:176|292:179|292:179|291:176|291:176|248:185,1,80.750001540184,2|0,1:2|0:0,0:0:0:0:
472,338,60107,6,0,P|481:276|415:223,1,142.500005435944,10|0,0:0|1:0,0:0:0:0:
250,376,60424,1,2,0:0:0:0:
258,351,60530,2,0,P|293:343|343:332,1,71.2500027179719,8|0,0:0|0:0,0:0:0:0:
482,159,60741,2,0,P|439:138|403:144,1,71.2500027179719,2|0,1:2|0:0,0:0:0:0:
143,105,60952,6,0,B|204:87|256:136|216:138|263:185|329:169,1,209.000006378174,10|0,0:0|1:2,0:0:0:0:
489,42,61269,1,0,1:0:0:0:
512,64,61375,2,0,P|469:43|433:49,1,71.2500027179719,8|0,0:0|0:0,0:0:0:0:
317,275,61586,1,2,1:2:0:0:
294,308,61692,1,2,0:0:0:0:
273,342,61798,6,0,B|378:315|378:315|333:296,1,142.500005435944,10|2,0:0|1:2,0:0:0:0:
33,246,62114,1,2,1:2:0:0:
58,267,62220,2,0,P|67:299|79:341,1,71.2500027179719,8|0,0:0|0:0,0:0:0:0:
264,160,62431,2,0,P|249:180|195:185,1,71.2500027179719,2|0,1:2|0:0,0:0:0:0:
26,59,62643,6,0,B|5:35|10:13|10:13|19:30|60:37,1,95,10|0,0:0|0:0,0:0:0:0:
301,66,62854,2,0,B|318:86|314:104|314:104|301:93|272:84,1,71.2500027179719,2|0,1:2|0:0,0:0:0:0:
44,141,63065,6,0,B|83:132|83:132|82:128|82:128|83:132|83:132|130:122,1,95,10|0,0:0|0:0,0:0:0:0:
375,11,63276,2,0,B|339:18|339:18|340:21|340:21|339:18|339:18|298:26,1,80.750001540184,2|0,1:2|0:0,0:0:0:0:
508,198,63488,6,0,B|468:78|468:78|454:128,1,161.500003080368,10|0,0:0|1:0,0:0:0:0:
391,353,63805,1,2,0:0:0:0:
378,325,63910,2,0,P|404:303|449:305,1,71.2500027179719,8|0,0:0|0:0,0:0:0:0:
290,168,64121,2,0,P|255:166|228:144,1,71.2500027179719,2|0,1:2|0:0,0:0:0:0:
123,253,64333,6,0,P|209:239|332:219,1,209.000006378174,10|0,0:0|1:0,0:0:0:0:
234,362,64650,1,0,1:0:0:0:
256,368,64755,2,0,B|224:387|224:387|196:363,1,71.2500027179719,10|0,0:0|0:0,0:0:0:0:
67,194,64967,2,0,B|83:164|83:164|119:170,1,71.2500027179719,2|0,1:2|0:0,0:0:0:0:
62,379,65178,6,0,B|7:245|7:245|27:270|64:276,1,190,14|0,0:0|1:0,0:0:0:0:
139,35,65495,1,2,1:2:0:0:
154,55,65600,2,0,P|122:18|35:29,1,142.500005435944,8|2,0:0|1:2,0:0:0:0:
265,119,65917,1,0,0:0:0:0:
266,143,66023,2,0,B|304:237|304:237|290:219|264:215,1,142.500005435944,10|0,0:0|1:0,0:0:0:0:
432,43,66340,1,0,1:0:0:0:
446,69,66445,6,0,B|434:41|440:23|440:23|432:42|401:57,1,95,14|0,0:0|0:0,0:0:0:0:
459,285,66657,2,0,B|485:298|493:316|493:316|488:298|499:271,1,95,2|0,1:2|0:0,0:0:0:0:
265,119,66868,6,0,B|238:114|219:91|219:91|270:216,1,190,10|0,0:0|1:0,0:0:0:0:
86,345,67185,1,2,0:0:0:0:
63,316,67290,2,0,P|122:254|182:276,1,142.500005435944,8|2,0:0|1:2,0:0:0:0:
324,383,67607,1,0,0:0:0:0:
368,372,67713,2,0,P|300:377|261:321,1,142.500005435944,10|0,0:0|1:0,0:0:0:0:
417,86,68030,1,0,0:0:0:0:
392,101,68136,6,0,B|379:143|379:143|383:145|383:145|379:143|379:143|360:200,1,95,14|0,0:0|0:0,0:0:0:0:
122,11,68347,1,2,1:2:0:0:
136,37,68452,1,2,0:0:0:0:
164,44,68558,6,0,P|182:92|208:158,1,95,6|0,1:2|0:0,0:0:0:0:
230,152,68875,2,0,P|206:91|183:31,1,123.499994346619,8|0,0:0|1:0,0:0:0:0:
138,190,69192,2,0,L|167:261,1,71.2500027179719,10|8,0:0|0:0,0:0:0:0:
6,346,69403,6,0,P|43:312|105:323,1,95,10|2,0:0|0:0,0:0:0:0:
346,383,69720,1,8,0:0:0:0:
316,360,69826,1,8,0:0:0:0:
303,319,69931,1,8,0:0:0:0:
321,280,70037,1,10,0:0:0:0:
361,264,70143,1,8,0:0:0:0:
385,272,70248,6,0,P|412:233|399:177,1,95,10|0,0:0|0:0,0:0:0:0:
432,178,70565,2,0,P|434:250|387:305,1,142.500005435944,10|0,0:0|0:0,0:0:0:0:
274,135,70882,2,0,L|328:145,1,47.5,10|0,0:0|0:0,0:0:0:0:
92,312,71093,6,0,B|45:302|45:302|49:298|49:298|45:302|45:302|-2:292,1,95,14|0,0:0|0:0,0:0:0:0:
215,335,71305,1,2,1:2:0:0:
231,285,71410,1,2,1:2:0:0:
216,234,71516,1,2,1:2:0:0:
173,207,71621,1,2,1:2:0:0:
131,179,71727,1,2,1:2:0:0:
116,128,71833,1,2,1:2:0:0:
125,59,71938,6,0,P|193:48|286:32,1,142.500005435944,14|2,0:0|1:2,0:0:0:0:
492,192,72255,1,2,0:0:0:0:
509,213,72361,2,0,P|472:204|438:196,1,71.2500027179719,8|0,0:0|0:0,0:0:0:0:
345,19,72572,2,0,P|355:51|370:96,1,71.2500027179719,2|0,1:2|0:0,0:0:0:0:
391,297,72783,6,0,B|419:305|440:332|440:332|429:309|436:285,1,95,10|0,0:0|0:0,0:0:0:0:
504,84,72995,2,0,B|482:77|467:57|467:57|475:74|470:93,1,71.2500027179719,2|0,1:2|0:0,0:0:0:0:
215,194,73206,6,0,B|261:183|261:183|263:184|263:184|320:171,1,95,10|0,0:0|0:0,0:0:0:0:
512,317,73417,2,0,B|473:308|473:308|471:309|471:309|431:299,1,80.750001540184,2|0,1:2|0:0,0:0:0:0:
148,148,73628,6,0,P|136:223|206:275,1,142.500005435944,10|0,0:0|1:0,0:0:0:0:
393,179,73945,1,2,0:0:0:0:
372,156,74051,2,0,P|338:155|299:185,1,71.2500027179719,8|0,0:0|0:0,0:0:0:0:
220,357,74262,2,0,P|250:343|273:300,1,71.2500027179719,2|0,1:2|0:0,0:0:0:0:
6,220,74474,6,0,B|23:279|23:279|19:276|19:276|24:280|24:280|52:371|52:371|63:305,1,209.000006378174,10|0,0:0|1:0,0:0:0:0:
148,148,74790,1,0,1:0:0:0:
161,118,74896,2,0,P|130:136|89:128,1,71.2500027179719,8|0,0:0|0:0,0:0:0:0:
317,3,75107,1,2,1:2:0:0:
356,13,75213,1,2,0:0:0:0:
369,44,75319,6,0,B|356:90|356:90|353:85|353:85|356:90|356:90|329:190,1,142.500005435944,10|2,0:0|1:2,0:0:0:0:
443,361,75636,1,2,1:2:0:0:
466,334,75741,2,0,P|449:302|412:283,1,71.2500027179719,8|0,0:0|0:0,0:0:0:0:
213,363,75952,2,0,P|249:357|292:349,1,71.2500027179719,2|0,1:2|0:0,0:0:0:0:
512,211,76164,6,0,B|473:202|473:202|474:198|474:198|473:202|473:202|426:192,1,95,10|0,0:0|0:0,0:0:0:0:
293,29,76375,2,0,B|327:21|327:21|328:24|328:24|327:21|327:21|356:14,1,71.2500027179719,2|0,1:2|0:0,0:0:0:0:
207,208,76586,6,0,B|210:231|210:231|215:235|215:235|219:251|219:251|229:238|229:238|235:237|235:237|254:209,1,95,10|0,0:0|0:0,0:0:0:0:
464,93,76798,2,0,B|460:72|460:72|456:69|456:69|453:55|453:55|444:66|444:66|439:67|439:67|423:91,1,80.750001540184,2|0,1:2|0:0,0:0:0:0:
512,308,77009,6,0,B|426:288|324:266,1,180.49999518013,10|0,0:0|1:0,0:0:0:0:
97,144,77326,1,2,0:0:0:0:
84,112,77431,2,0,P|117:122|162:135,1,71.2500027179719,8|0,0:0|0:0,0:0:0:0:
307,25,77643,2,0,P|290:55|268:96,1,71.2500027179719,2|0,1:2|0:0,0:0:0:0:
225,314,77854,6,0,B|290:189|290:189|274:212|236:218,1,190,10|0,0:0|1:0,0:0:0:0:
61,362,78171,1,0,1:0:0:0:
78,334,78276,2,0,P|113:304|140:310,1,71.2500027179719,10|0,0:0|0:0,0:0:0:0:
393,295,78488,2,0,P|358:294|336:268,1,71.2500027179719,2|0,1:2|0:0,0:0:0:0:
277,84,78699,6,0,B|219:65|168:114|207:116|160:162|97:145,1,201.87500385046,14|0,0:0|0:0,0:0:0:0:
5,54,79333,1,2,1:2:0:0:
12,70,79438,1,0,1:0:0:0:
19,86,79544,2,0,P|43:161|66:232,1,142.5,14|2,0:0|1:2,0:0:0:0:
314,344,80178,2,0,L|294:289,1,47.5,2|0,1:2|0:0,0:0:0:0:
151,374,80389,6,0,P|104:318|193:338,1,190,14|2,0:0|0:0,0:0:0:0:
448,357,81023,1,2,0:0:0:0:
440,331,81128,1,2,0:0:0:0:
432,305,81234,6,0,P|418:261|399:202,1,95,14|2,0:0|0:0,0:0:0:0:
408,100,81551,2,0,P|433:179|459:259,1,142.5,2|2,0:0|0:0,0:0:0:0:
150,18,82079,6,0,L|171:83,1,61.7499971733095,14|0,0:0|0:0,0:0:0:0:
132,213,82290,2,0,L|181:164,1,61.7499971733095,10|0,0:0|0:0,0:0:0:0:
313,135,82502,2,0,L|247:113,1,61.7499971733095,10|0,0:0|0:0,0:0:0:0:
127,9,82713,2,0,L|148:74,1,61.7499971733095,10|0,0:0|0:0,0:0:0:0:
287,238,82924,6,0,P|256:258|219:259,1,68.8750021018983,10|0,0:0|0:0,0:0:0:0:
75,178,83136,2,0,P|109:189|134:217,1,68.8750021018983,10|0,0:0|0:0,0:0:0:0:
152,378,83347,2,0,P|140:355|148:294,1,68.8750021018983,10|0,0:0|0:0,0:0:0:0:
302,215,83558,2,0,P|271:235|234:236,1,68.8750021018983,10|2,0:0|0:0,0:0:0:0:
435,140,83769,6,0,L|425:65,1,76,14|2,0:0|0:0,0:0:0:0:
435,140,83981,2,0,L|509:155,1,76,2|2,0:0|0:0,0:0:0:0:
435,140,84192,2,0,L|362:160,1,76,2|2,0:0|0:0,0:0:0:0:
292,30,84403,1,10,0:0:0:0:
313,33,84509,1,8,0:0:0:0:
326,45,84614,6,0,P|280:36|205:100,1,142.500005435944,10|0,0:0|0:0,0:0:0:0:
54,204,84931,2,0,P|91:197|152:249,1,113.999996520996,2|0,0:0|0:0,0:0:0:0:
319,340,85248,2,0,P|290:338|269:358,1,47.5,2|0,0:0|0:0,0:0:0:0:
500,178,85459,6,0,B|376:112|251:215|256:330|346:378|411:346|440:291|412:204,1,493.999977386476,6|0,1:2|0:0,0:0:0:0:
