osu file format v14

[General]
AudioFilename: audio.mp3
AudioLeadIn: 0
PreviewTime: 58100
Countdown: 0
SampleSet: Soft
StackLeniency: 0.5
Mode: 0
LetterboxInBreaks: 0
WidescreenStoryboard: 1

[Editor]
Bookmarks: 1755,8515,15276,22036,28797,35557,42318,49078,56261,58374,71895,87106
DistanceSpacing: 1.6
BeatDivisor: 4
GridSize: 4
TimelineZoom: 1.792

[Metadata]
Title:NEO SKY, NEO MAP! (TV Size)
TitleUnicode:NEO SKY, NEO MAP! (TV Size)
Artist:Nijigasaki High School Idol Club
ArtistUnicode:虹ヶ咲学園スクールアイドル同好会
Creator:Cris-
Version:SEKAIDREA'S INSANE!
Source:ラブライブ!虹ヶ咲学園スクールアイドル同好会
Tags:Saggin Kagayaki Andrea osuplayer111 Sekai Sekaii Sekai-nyan TheShadowOfDark walaowey wolf3211 ktgster Love Live! LoveLive! NijiGaku ニジガク Ending Pop J-Pop JPop Japanese Alternator 上原歩夢 Uehara Ayumu 大西亜玖璃 Onishi Aguri 中須かすみ Nakasu Kasumi 相良茉優 Sagara Mayu 桜坂しずく Osaka Shizuku 前田佳織里 Maeda Kaori 朝香果林 Asaka Karin 久保田未夢 Kubota Miyu 宮下愛 Miyashita Ai 村上奈津実 Murakami Natsumi 近江彼方 Konoe Kanata 鬼頭明里 Kito Akari 優木せつ菜 Yuki Setsuna 楠木ともり Kusunoki Tomori エマ・ヴェルデ Emma Verde 指出毬亜 Sashide Maria 天王寺璃奈 Tennoji Rina 田中ちえ美 Tanaka Chiemi Ōnishi Oonishi Ousaka Kitō Kitou Yuuki Tennouji Academy Gakuen Doukoukai Dōkōkai 畑 亜貴 Aki Hata 小高光太郎 Odaka Kotaro Kōtarō Koutarou UiNA 谷 ナオキ Tani Naoki
BeatmapID:2664071
BeatmapSetID:1279753

[Difficulty]
HPDrainRate:5
CircleSize:5
OverallDifficulty:7
ApproachRate:8.5
SliderMultiplier:1.6
SliderTickRate:1

[Events]
//Background and Video events
Video,965,"Ending.mp4"
0,0,"Kanata.jpg",0,0
//Break Periods
//Storyboard Layer 0 (Background)
//Storyboard Layer 1 (Fail)
//Storyboard Layer 2 (Pass)
//Storyboard Layer 3 (Foreground)
//Storyboard Layer 4 (Overlay)
//Storyboard Sound Samples

[TimingPoints]
1798,422.535211267606,4,2,1,40,1,0
1798,-111.111111111111,4,2,1,40,0,0
2079,-111.111111111111,4,2,1,5,0,0
2220,-111.111111111111,4,2,1,40,0,0
2924,-111.111111111111,4,2,1,5,0,0
3065,-111.111111111111,4,2,1,40,0,0
5178,-125,4,2,1,40,0,0
6023,-125,4,2,1,40,0,0
6375,-125,4,2,1,5,0,0
6445,-125,4,2,1,40,0,0
6586,-125,4,2,1,5,0,0
6727,-125,4,2,1,40,0,0
6868,-125,4,2,1,40,0,0
7572,-125,4,2,1,5,0,0
7713,-125,4,2,1,40,0,0
8417,-125,4,2,1,5,0,0
8558,-99.9999999999999,4,2,1,70,0,1
8981,-99.9999999999999,4,2,1,70,0,1
9403,-99.9999999999999,4,2,1,70,0,1
9826,-99.9999999999999,4,2,1,70,0,1
11093,-99.9999999999999,4,2,1,70,0,1
11516,-99.9999999999999,4,2,1,70,0,1
11938,-99.9999999999999,4,2,1,70,0,1
12361,-99.9999999999999,4,2,1,70,0,1
12783,-99.9999999999999,4,2,1,70,0,1
13206,-99.9999999999999,4,2,1,70,0,1
13417,-125,4,2,1,60,0,0
13840,-125,4,2,1,5,0,0
14051,-125,4,2,1,60,0,0
14685,-125,4,2,1,5,0,0
14896,-125,4,2,1,60,0,0
15107,-125,4,2,1,5,0,0
15319,-111.111111111111,4,2,1,50,0,0
21657,-111.111111111111,4,2,1,50,0,0
22079,-111.111111111111,4,2,1,50,0,0
26938,-100,4,2,1,60,0,0
27254,-100,4,2,1,5,0,0
27361,-100,4,2,1,60,0,0
28840,-100,4,2,1,55,0,0
38241,-100,4,2,1,5,0,0
38347,-100,4,2,1,55,0,0
39614,-100,4,2,1,55,0,0
39931,-100,4,2,1,5,0,0
40036,-100,4,2,1,55,0,0
40354,-100,4,2,1,5,0,0
40459,-100,4,2,1,55,0,0
40776,-100,4,2,1,5,0,0
40882,-100,4,2,1,55,0,0
42361,-100,4,2,1,60,0,0
43312,-100,4,2,1,5,0,0
43417,-100,4,2,1,60,0,0
44157,-100,4,2,1,5,0,0
44262,-100,4,2,1,60,0,0
49121,-100,4,2,1,65,0,0
49333,-100,4,2,1,65,0,0
49967,-100,4,2,1,65,0,0
50072,-100,4,2,1,65,0,0
50178,-100,4,2,1,65,0,0
50283,-100,4,2,1,65,0,0
50389,-100,4,2,1,65,0,0
50600,-100,4,2,1,65,0,0
50917,-100,4,2,1,5,0,0
51023,-100,4,2,1,65,0,0
51339,-100,4,2,1,65,0,0
51445,-100,4,2,1,65,0,0
51761,-100,4,2,1,5,0,0
51868,-100,4,2,1,65,0,0
52079,-100,4,2,1,65,0,0
52502,-100,4,2,1,55,0,0
52924,422.535211267606,3,2,1,65,1,0
52924,-100,3,2,1,65,0,0
53557,-100,3,2,1,65,0,0
54191,-100,3,2,1,65,0,0
54508,-100,3,2,1,5,0,0
54614,-100,3,2,1,65,0,0
54825,-100,3,2,1,65,0,0
55142,-100,3,2,1,5,0,0
55247,-100,3,2,1,65,0,0
55459,-100,3,2,1,65,0,0
56727,422.535211267606,4,2,1,40,1,0
57149,-100,4,2,1,50,0,0
57572,-100,4,2,1,60,0,0
57994,-100,4,2,1,70,0,0
58417,-90.9090909090909,4,2,1,80,0,1
59262,-90.9090909090909,4,2,1,80,0,1
59473,-90.9090909090909,4,2,1,80,0,1
59684,-90.9090909090909,4,2,1,80,0,1
59896,-90.9090909090909,4,2,1,80,0,1
60107,-90.9090909090909,4,2,1,80,0,1
62642,-90.9090909090909,4,2,1,80,0,1
62853,-90.9090909090909,4,2,1,80,0,1
63065,-90.9090909090909,4,2,1,80,0,1
63276,-90.9090909090909,4,2,1,80,0,1
63804,-90.9090909090909,4,2,1,80,0,1
64332,-90.9090909090909,4,2,1,80,0,1
64755,-90.9090909090909,4,2,1,80,0,1
65177,-90.9090909090909,4,2,1,80,0,1
65494,-90.9090909090909,4,2,1,80,0,1
66445,-90.9090909090909,4,2,1,80,0,1
67184,-90.9090909090909,4,2,1,80,0,1
68135,-90.9090909090909,4,2,1,80,0,1
68346,-90.9090909090909,4,2,1,80,0,1
68557,-90.9090909090909,4,2,1,80,0,0
68874,-90.9090909090909,4,2,1,80,0,1
69191,-90.9090909090909,4,2,1,80,0,0
69403,-90.9090909090909,4,2,1,80,0,1
69719,-90.9090909090909,4,2,1,60,0,1
69825,-90.9090909090909,4,2,1,60,0,1
70036,-90.9090909090909,4,2,1,70,0,1
70248,-90.9090909090909,4,2,1,80,0,1
70565,-90.9090909090909,4,2,1,80,0,1
70881,-90.9090909090909,4,2,1,80,0,1
71093,-90.9090909090909,4,2,1,80,0,1
71304,-90.9090909090909,4,2,1,60,0,1
71515,-90.9090909090909,4,2,1,65,0,0
71727,-90.9090909090909,4,2,1,70,0,0
71938,-90.9090909090909,4,2,1,80,0,1
72783,-90.9090909090909,4,2,1,80,0,1
72994,-90.9090909090909,4,2,1,80,0,1
73205,-90.9090909090909,4,2,1,80,0,1
73417,-90.9090909090909,4,2,1,80,0,1
73628,-90.9090909090909,4,2,1,80,0,1
74473,-90.9090909090909,4,2,1,80,0,1
75107,-90.9090909090909,4,2,1,80,0,1
75318,-90.9090909090909,4,2,1,80,0,1
75529,-90.9090909090909,4,2,1,80,0,1
76163,-90.9090909090909,4,2,1,80,0,1
76374,-90.9090909090909,4,2,1,80,0,1
76586,-90.9090909090909,4,2,1,80,0,1
76797,-90.9090909090909,4,2,1,80,0,1
77008,-90.9090909090909,4,2,1,80,0,1
77325,-90.9090909090909,4,2,1,80,0,1
77853,-90.9090909090909,4,2,1,80,0,1
78276,-90.9090909090909,4,2,1,80,0,1
78487,-90.9090909090909,4,2,1,80,0,1
78698,-90.9090909090909,4,2,1,70,0,0
79121,-90.9090909090909,4,2,1,5,0,0
79332,-90.9090909090909,4,2,1,70,0,0
79438,-90.9090909090909,4,2,1,70,0,0
79543,-90.9090909090909,4,2,1,70,0,0
79860,-90.9090909090909,4,2,1,70,0,0
80388,-90.9090909090909,4,2,1,70,0,0
80811,-90.9090909090909,4,2,1,70,0,0
81022,-90.9090909090909,4,2,1,70,0,0
82079,-90.9090909090909,4,2,1,80,0,1
82924,-90.9090909090909,4,2,1,80,0,1
83769,-90.9090909090909,4,2,1,80,0,1
84403,-90.9090909090909,4,2,1,80,0,1
84614,-90.9090909090909,4,2,1,80,0,1
84825,-90.9090909090909,4,2,1,5,0,1
84931,-90.9090909090909,4,2,1,80,0,1
85142,-90.9090909090909,4,2,1,5,0,1
85248,-90.9090909090909,4,2,1,80,0,1
85353,-90.9090909090909,4,2,1,60,0,1
85459,-90.9090909090909,4,2,1,60,0,0
86937,-90.9090909090909,4,2,1,30,0,0
87149,-90.9090909090909,4,2,1,5,0,0

[Colours]
Combo1 : 255,159,217
Combo2 : 231,109,109
Combo3 : 240,156,100
Combo4 : 233,230,107
Combo5 : 121,219,126
Combo6 : 109,176,231
Combo7 : 121,138,219
Combo8 : 164,113,249

[HitObjects]
196,60,1798,6,0,P|256:26|316:60,1,143.999995605469,6|2,0:0|0:0,0:0:0:0:
340,88,2361,1,2,0:0:0:0:
364,112,2502,1,2,0:0:0:0:
388,136,2643,2,0,B|417:178|417:178|454:196|454:196|484:239,1,143.999995605469,2|2,0:0|0:0,0:0:0:0:
472,272,3206,1,2,0:0:0:0:
460,304,3347,1,2,0:0:0:0:
448,336,3488,6,0,P|376:336|324:292,1,143.999995605469,2|2,0:0|0:0,0:0:0:0:
300,264,4051,1,2,0:0:0:0:
276,240,4192,1,2,0:0:0:0:
252,216,4333,2,0,L|220:180,2,47.9999985351563,2|2|2,0:0|0:0|0:0,0:0:0:0:
308,164,4755,2,0,L|276:128,2,47.9999985351563,2|2|2,0:0|0:0|0:0,0:0:0:0:
360,220,5178,6,0,P|420:112|360:4,1,256,6|2,0:0|0:0,0:0:0:0:
184,44,6445,2,0,P|140:44|100:80,1,96,2|0,0:0|0:0,0:0:0:0:
168,116,6868,2,0,B|274:197|208:243|312:322,1,256,2|2,1:2|0:0,0:0:0:0:
311,321,8558,6,0,P|360:324|388:296,1,80,14|0,0:0|1:0,0:0:0:0:
424,228,8875,1,0,1:0:0:0:
424,228,8981,2,0,P|375:225|347:253,1,80,10|2,0:0|1:2,0:0:0:0:
176,204,9403,2,0,L|244:152,1,80,10|2,0:0|1:2,0:0:0:0:
160,108,9720,1,0,1:0:0:0:
160,108,9826,2,0,L|96:156,1,80,10|2,0:0|1:2,0:0:0:0:
160,316,10248,6,0,L|287:218,1,160,14|10,0:0|0:0,0:0:0:0:
384,160,10882,1,2,1:2:0:0:
400,284,11093,2,0,P|412:308|400:364,1,80,10|10,0:0|0:0,0:0:0:0:
324,296,11410,1,8,0:0:0:0:
324,296,11516,2,0,P|313:257|327:221,1,80,10|8,0:0|0:0,0:0:0:0:
384,160,11833,1,8,0:0:0:0:
384,160,11938,6,0,L|304:120,1,80,14|2,0:0|1:2,0:0:0:0:
128,160,12361,2,0,L|208:120,1,80,8|2,0:0|1:2,0:0:0:0:
256,180,12678,1,0,0:0:0:0:
256,180,12783,2,0,L|256:264,1,80,14|2,0:0|1:2,0:0:0:0:
356,84,13206,1,8,0:0:0:0:
356,84,13312,1,8,0:0:0:0:
356,84,13417,6,0,P|256:16|156:84,1,256,14|2,0:0|0:0,0:0:0:0:
256,192,14368,12,0,15213,0:0:0:0:
256,192,15319,5,6,1:2:0:0:
220,96,15530,1,2,0:0:0:0:
220,96,15741,2,0,P|208:64|220:28,1,71.9999978027344,2|2,1:2|0:0,0:0:0:0:
292,29,16058,1,2,0:0:0:0:
292,29,16164,2,0,P|303:62|291:95,1,71.9999978027344,2|2,1:2|0:0,0:0:0:0:
256,192,16586,1,2,1:2:0:0:
214,319,16798,1,2,0:0:0:0:
322,240,17009,1,2,1:2:0:0:
189,240,17220,1,2,0:0:0:0:
297,319,17431,2,0,L|348:372,1,71.9999978027344,2|2,3:0|0:0,0:0:0:0:
322,240,17854,6,0,L|223:133,1,143.999995605469,0|2,1:2|3:0,0:0:0:0:
328,44,18488,1,2,0:0:0:0:
328,44,18699,2,0,L|426:150,1,143.999995605469,0|2,1:2|3:0,0:0:0:0:
492,228,19333,1,2,0:0:0:0:
356,296,19544,6,0,P|367:329|355:362,1,71.9999978027344,0|2,1:0|0:0,0:0:0:0:
222,250,19967,2,0,P|255:238|288:250,1,71.9999978027344,2|2,3:0|0:0,0:0:0:0:
156,362,20389,2,0,P|144:329|156:296,1,71.9999978027344,0|2,1:0|0:0,0:0:0:0:
256,332,20812,1,2,3:0:0:0:
256,332,21023,1,2,0:0:0:0:
256,192,21234,2,0,B|228:124|280:124|256:52,2,143.999995605469,2|2|0,1:2|3:0|1:0,0:0:0:0:
188,84,22290,5,2,0:0:0:0:
320,152,22502,2,0,P|353:140|386:152,1,71.9999978027344,2|2,1:2|0:0,0:0:0:0:
386,231,22819,1,2,0:0:0:0:
386,231,22924,2,0,P|353:243|320:232,1,71.9999978027344,2|2,1:2|0:0,0:0:0:0:
464,160,23347,2,0,P|476:193|464:226,1,71.9999978027344,2|2,3:0|0:0,0:0:0:0:
240,224,23769,2,0,P|227:190|239:157,1,71.9999978027344,0|2,1:0|0:0,0:0:0:0:
344,68,24192,2,0,B|276:96|276:44|204:68,2,143.999995605469,2|2|2,3:0|1:2|3:0,0:0:0:0:
99,156,25248,1,2,0:0:0:0:
99,156,25354,1,2,0:0:0:0:
99,156,25459,6,0,B|167:128|167:180|239:156,1,143.999995605469,2|2,1:2|3:0,0:0:0:0:
136,228,26093,2,0,L|216:352,1,143.999995605469,2|2,1:2|1:2,0:0:0:0:
80,332,26727,1,2,3:0:0:0:
296,336,26938,6,0,L|230:235,1,120,14|0,1:2|0:0,0:0:0:0:
192,176,27361,1,10,0:0:0:0:
192,176,27572,1,10,0:0:0:0:
256,16,27783,1,8,0:0:0:0:
320,176,27995,5,10,0:0:0:0:
356,186,28100,1,8,0:0:0:0:
379,156,28206,1,2,1:2:0:0:
361,123,28311,1,8,0:0:0:0:
324,128,28417,1,10,0:0:0:0:
188,52,28628,1,8,0:0:0:0:
188,52,28734,1,8,0:0:0:0:
188,52,28840,6,0,P|148:52|116:76,1,80,14|2,1:2|0:0,0:0:0:0:
68,192,29262,1,10,0:0:0:0:
116,309,29474,1,2,0:0:0:0:
116,309,29579,1,2,0:0:0:0:
116,309,29685,2,0,P|148:332|188:332,1,80,8|2,0:0|0:0,0:0:0:0:
256,224,30107,1,10,0:0:0:0:
256,224,30319,1,2,0:0:0:0:
324,332,30530,6,0,P|363:332|395:309,1,80,10|2,0:0|0:0,0:0:0:0:
444,192,30952,1,10,0:0:0:0:
444,192,31164,1,2,0:0:0:0:
395,75,31375,2,0,B|339:75|339:75|291:51|291:51|239:51,1,160,8|10,0:0|0:0,0:0:0:0:
128,52,32009,1,2,0:0:0:0:
32,156,32220,6,0,P|16:192|32:228,1,80,10|0,0:0|0:0,0:0:0:0:
160,352,32643,2,0,P|176:316|160:280,1,80,10|2,0:0|0:0,0:0:0:0:
256,192,33065,1,10,0:0:0:0:
256,192,33276,1,2,0:0:0:0:
351,280,33488,2,0,P|336:316|352:352,1,80,10|2,0:0|0:0,0:0:0:0:
416,316,33805,1,0,0:0:0:0:
416,316,33910,6,0,B|448:316|448:316|452:312|452:312|452:320|452:320|456:316|456:316|488:316,1,80,10|2,0:0|0:0,0:0:0:0:
484,164,34333,2,0,B|452:164|452:164|448:168|448:168|448:160|448:160|444:164|444:164|412:164,1,80,10|2,0:0|0:0,0:0:0:0:
336,56,34755,1,10,0:0:0:0:
256,152,34967,1,0,1:0:0:0:
256,152,35072,1,0,1:0:0:0:
256,152,35178,1,10,0:0:0:0:
176,56,35389,1,2,0:0:0:0:
336,56,35600,6,0,P|351:91|336:127,1,80,10|2,0:0|0:0,0:0:0:0:
175,127,36023,2,0,P|159:91|175:55,1,80,10|2,0:0|0:0,0:0:0:0:
256,12,36340,1,2,0:0:0:0:
256,12,36445,2,0,B|256:40|256:40|260:44|260:44|252:44|252:44|256:48|256:48|256:80,1,80,8|2,0:0|0:0,0:0:0:0:
256,232,36868,1,10,0:0:0:0:
175,127,37079,1,2,0:0:0:0:
337,127,37290,6,0,P|408:140|448:212,1,160,14|10,0:0|3:0,0:0:0:0:
288,308,37924,2,0,L|400:240,1,120,10|0,3:0|0:0,0:0:0:0:
448,212,38347,1,2,1:2:0:0:
372,344,38558,1,8,0:0:0:0:
372,344,38664,1,0,0:0:0:0:
372,344,38769,1,2,0:0:0:0:
232,256,38981,6,0,L|312:208,1,80,14|2,0:0|1:2,0:0:0:0:
473,280,39403,1,2,1:2:0:0:
473,280,39614,2,0,L|357:352,1,120,10|0,0:0|0:0,0:0:0:0:
288,308,40037,2,0,L|400:240,1,120,2|0,1:2|0:0,0:0:0:0:
448,212,40459,5,14,0:0:0:0:
280,48,40671,1,0,0:0:0:0:
444,48,40882,1,2,1:2:0:0:
361,190,41093,1,10,0:0:0:0:
208,108,41305,1,2,1:2:0:0:
208,108,41410,1,0,0:0:0:0:
208,108,41516,2,0,P|192:72|208:36,1,80,10|2,0:0|1:2,0:0:0:0:
280,116,41833,5,0,1:0:0:0:
266,154,41938,1,10,0:0:0:0:
251,191,42043,1,8,0:0:0:0:
236,228,42149,1,8,0:0:0:0:
221,265,42254,1,8,0:0:0:0:
207,302,42361,6,0,L|192:340,1,40,14|0,0:0|0:0,0:0:0:0:
120,312,42572,2,0,L|135:274,1,40,8|8,3:0|3:0,0:0:0:0:
160,204,42783,1,2,0:0:0:0:
188,84,42995,2,0,P|256:48|324:84,1,160,14|10,0:0|0:0,0:0:0:0:
323,83,43628,1,2,1:2:0:0:
472,232,43840,6,0,P|404:268|336:232,1,160,14|2,0:0|1:2,0:0:0:0:
256,128,44474,1,10,0:0:0:0:
176,232,44685,1,2,1:2:0:0:
176,232,44790,1,0,0:0:0:0:
176,232,44896,2,0,P|140:248|104:232,1,80,10|2,0:0|1:2,0:0:0:0:
48,196,45213,1,0,1:0:0:0:
48,196,45319,2,0,L|80:116,1,80,10|0,0:0|1:0,0:0:0:0:
184,28,45741,5,14,0:0:0:0:
216,52,45847,1,0,0:0:0:0:
256,64,45952,1,10,3:0:0:0:
296,52,46058,1,8,3:0:0:0:
328,28,46164,1,2,1:2:0:0:
435,121,46375,2,0,B|411:171|411:171|374:194|374:194|347:252,1,160,14|10,0:0|3:0,0:0:0:0:
348,249,47009,1,10,0:0:0:0:
352,376,47220,6,0,B|375:325|375:325|412:302|412:302|439:244,1,160,14|8,0:0|3:0,0:0:0:0:
356,120,47854,2,0,P|371:84|355:48,1,80,10|10,0:0|3:0,0:0:0:0:
292,24,48171,1,8,3:0:0:0:
292,24,48276,2,0,P|256:8|220:24,1,80,10|2,0:0|1:2,0:0:0:0:
156,48,48593,1,8,0:0:0:0:
156,48,48699,2,0,P|140:84|156:120,1,80,10|2,0:0|1:2,0:0:0:0:
256,256,49121,5,14,0:0:0:0:
155,119,49333,1,10,0:0:0:0:
357,119,49544,1,10,0:0:0:0:
357,119,49967,1,10,3:0:0:0:
388,139,50072,1,2,0:0:0:0:
384,177,50178,1,2,1:2:0:0:
348,190,50283,1,2,0:0:0:0:
321,163,50389,1,2,1:2:0:0:
256,20,50600,6,0,L|148:100,1,120,14|0,0:0|0:0,0:0:0:0:
104,132,51023,1,10,0:0:0:0:
244,136,51234,1,2,1:2:0:0:
244,136,51340,1,2,1:2:0:0:
244,136,51445,2,0,L|352:56,1,120,10|0,3:0|0:0,0:0:0:0:
396,24,51868,1,2,1:2:0:0:
448,152,52079,2,0,P|463:187|448:223,1,80,10|2,0:0|0:0,0:0:0:0:
332,284,52502,1,0,1:0:0:0:
332,284,52924,6,0,L|154:247,1,160,14|0,0:0|0:0,0:0:0:0:
72,324,53557,2,0,L|228:356,1,160,14|0,0:0|0:0,0:0:0:0:
392,212,54191,2,0,L|248:184,1,120,14|0,0:0|0:0,0:0:0:0:
204,176,54614,1,8,3:0:0:0:
104,48,54825,2,0,P|72:96|92:156,1,120,14|0,0:0|0:0,0:0:0:0:
140,200,55247,1,8,0:0:0:0:
196,60,55459,6,0,L|352:92,1,160,14|2,0:0|0:0,0:0:0:0:
436,172,56093,1,10,3:0:0:0:
436,172,56198,1,8,3:0:0:0:
436,172,56304,6,0,L|419:205,2,26.6666666666667,10|8|10,3:0|3:0|3:0,0:0:0:0:
484,248,56515,2,0,L|498:225,2,26.6666666666667,0|2|0,1:0|1:2|1:0,0:0:0:0:
416,272,56726,6,0,L|388:316,1,40,6|2,1:2|0:0,0:0:0:0:
291,345,56938,2,0,L|319:301,1,40,2|2,0:0|0:0,0:0:0:0:
204,296,57149,2,0,L|182:329,1,40,2|2,0:0|0:0,0:0:0:0:
72,336,57360,2,0,L|100:292,1,40,2|2,0:0|0:0,0:0:0:0:
80,192,57572,5,10,0:0:0:0:
56,160,57677,1,2,3:2:0:0:
56,121,57783,1,2,3:2:0:0:
79,89,57888,1,2,3:2:0:0:
117,78,57994,1,10,0:0:0:0:
154,92,58100,1,2,0:0:0:0:
175,125,58205,1,10,0:0:0:0:
172,164,58311,1,10,0:0:0:0:
147,194,58417,6,0,P|131:234|147:274,1,88.000002685547,14|2,0:0|1:2,0:0:0:0:
208,312,58734,1,2,0:0:0:0:
272,344,58839,2,0,P|312:360|352:344,1,88.000002685547,8|2,0:0|1:2,0:0:0:0:
408,224,59262,1,10,0:0:0:0:
465,47,59473,1,2,1:2:0:0:
315,156,59684,1,10,0:0:0:0:
500,156,59896,1,2,1:2:0:0:
350,47,60107,6,0,P|284:44|232:84,1,132.00000402832,10|2,0:0|0:0,0:0:0:0:
184,136,60529,2,0,L|116:80,1,88.000002685547,8|2,0:0|1:2,0:0:0:0:
28,172,60952,1,10,0:0:0:0:
124,248,61163,1,0,1:2:0:0:
124,248,61269,1,0,1:0:0:0:
124,248,61374,2,0,P|164:264|204:248,1,88.000002685547,8|2,0:0|1:2,0:0:0:0:
256,196,61691,1,2,0:0:0:0:
308,248,61797,6,0,P|348:263|388:248,1,88.000002685547,10|2,0:0|1:2,0:0:0:0:
440,196,62114,1,2,1:2:0:0:
492,144,62219,2,0,P|507:104|491:64,1,88.000002685547,8|2,0:0|1:2,0:0:0:0:
308,248,62642,1,10,0:0:0:0:
365,71,62853,1,2,1:2:0:0:
215,180,63064,1,10,0:0:0:0:
400,180,63276,1,2,1:2:0:0:
250,71,63487,6,0,P|184:68|132:108,1,132.00000402832,10|2,0:0|0:0,0:0:0:0:
84,160,63910,2,0,L|140:232,1,88.000002685547,8|2,0:0|1:2,0:0:0:0:
188,284,64227,1,0,0:0:0:0:
236,340,64332,2,0,P|280:340|312:312,1,88.000002685547,10|0,0:0|1:0,0:0:0:0:
360,256,64649,1,0,1:0:0:0:
412,204,64755,2,0,P|444:175|487:176,1,88.000002685547,10|2,0:0|1:2,0:0:0:0:
360,256,65177,6,0,B|326:222|326:222|317:185|317:185|283:151,1,132.00000402832,14|2,0:0|1:2,0:0:0:0:
232,100,65600,1,8,0:0:0:0:
148,8,65811,1,2,1:2:0:0:
148,8,65917,1,0,0:0:0:0:
148,8,66022,1,10,0:0:0:0:
48,84,66234,1,0,1:0:0:0:
132,176,66445,1,14,0:0:0:0:
232,100,66656,1,2,1:2:0:0:
284,52,66762,1,0,0:0:0:0:
336,4,66867,6,0,P|384:4|448:60,1,132.00000402832,10|2,0:0|0:0,0:0:0:0:
480,120,67290,2,0,L|424:192,1,88.000002685547,8|2,0:0|1:2,0:0:0:0:
376,244,67607,1,0,0:0:0:0:
328,296,67712,2,0,P|288:311|248:295,1,88.000002685547,10|0,0:0|1:0,0:0:0:0:
72,192,68135,2,0,P|111:176|151:192,1,88.000002685547,14|2,0:0|1:2,0:0:0:0:
200,244,68452,1,2,0:0:0:0:
248,295,68557,6,0,P|308:324|361:295,2,132.00000402832,6|8|10,1:2|0:0|0:0,0:0:0:0:
200,244,69297,1,8,0:0:0:0:
151,192,69403,2,0,P|122:132|151:79,1,132.00000402832,10|8,0:0|0:0,0:0:0:0:
220,56,69825,1,8,0:0:0:0:
288,76,69931,1,8,0:0:0:0:
356,100,70036,1,10,0:0:0:0:
424,124,70142,1,8,0:0:0:0:
492,148,70248,6,0,B|480:190|480:190|494:231|494:231|483:273,2,132.00000402832,10|10|10,0:0|0:0|0:0,0:0:0:0:
356,100,71093,1,14,0:0:0:0:
320,236,71304,2,0,L|308:280,1,44.0000013427735,2|2,1:2|1:2,0:0:0:0:
292,348,71515,1,2,1:2:0:0:
220,348,71621,1,2,1:2:0:0:
203,278,71727,2,0,L|191:235,1,44.0000013427735,2|2,1:2|1:2,0:0:0:0:
256,192,71938,6,0,B|256:156|256:156|252:152|252:152|260:152|260:152|256:148|256:148|256:112,1,88.000002685547,14|2,0:0|1:2,0:0:0:0:
256,44,72255,1,2,0:0:0:0:
184,44,72360,2,0,P|144:27|104:43,1,88.000002685547,8|2,0:0|1:2,0:0:0:0:
92,144,72783,1,10,0:0:0:0:
150,321,72994,1,2,1:2:0:0:
0,212,73205,1,10,0:0:0:0:
185,212,73417,1,2,1:2:0:0:
35,321,73628,6,0,L|104:384,1,88.000002685547,10|0,0:0|1:0,0:0:0:0:
150,321,73945,1,2,0:0:0:0:
128,248,74050,2,0,L|63:188,1,88.000002685547,8|2,0:0|1:2,0:0:0:0:
146,75,74473,2,0,P|185:59|225:75,1,88.000002685547,10|0,0:0|1:0,0:0:0:0:
185,135,74790,1,0,1:0:0:0:
185,135,74896,2,0,B|185:167|185:167|189:171|189:171|181:171|181:171|185:175|185:175|185:211,1,88.000002685547,8|2,0:0|1:2,0:0:0:0:
188,280,75212,1,2,0:0:0:0:
244,324,75318,6,0,P|283:340|323:324,1,88.000002685547,10|2,0:0|1:2,0:0:0:0:
368,268,75635,1,2,1:2:0:0:
332,208,75741,2,0,P|292:191|252:207,1,88.000002685547,8|2,0:0|1:2,0:0:0:0:
424,140,76163,1,10,0:0:0:0:
274,31,76374,1,2,1:2:0:0:
332,208,76586,1,10,0:0:0:0:
389,31,76797,1,2,1:2:0:0:
239,140,77008,6,0,L|144:120,1,88.000002685547,10|0,0:0|1:0,0:0:0:0:
84,108,77325,1,2,0:0:0:0:
80,180,77431,2,0,L|166:198,1,88.000002685547,8|2,0:0|1:2,0:0:0:0:
236,208,77748,1,0,0:0:0:0:
200,276,77854,2,0,L|113:257,1,88.000002685547,10|0,0:0|1:0,0:0:0:0:
239,213,78170,1,0,1:0:0:0:
239,213,78276,2,0,P|279:197|318:214,1,88.000002685547,10|2,0:0|1:2,0:0:0:0:
184,156,78698,6,0,P|280:116|388:184,1,220.000006713867,14|0,0:0|0:0,0:0:0:0:
392,236,79332,1,2,1:2:0:0:
396,308,79438,1,0,1:0:0:0:
392,236,79543,2,0,B|434:214|434:214|454:181|454:181|497:159,2,132.00000402832,14|2|2,0:0|1:2|1:2,0:0:0:0:
256,276,80388,6,0,B|195:290|195:290|161:325|161:325|90:346,1,176.000005371094,14|2,0:0|0:0,0:0:0:0:
76,192,81022,1,2,0:0:0:0:
76,192,81128,1,2,0:0:0:0:
76,192,81234,2,0,P|60:152|77:113,1,88.000002685547,14|2,0:0|0:0,0:0:0:0:
136,152,81550,2,0,L|272:124,1,132.00000402832,2|2,0:0|0:0,0:0:0:0:
313,249,82079,5,14,0:0:0:0:
265,125,82290,1,10,0:0:0:0:
388,78,82501,1,10,0:0:0:0:
436,201,82712,1,10,0:0:0:0:
264,320,82924,5,10,0:0:0:0:
216,196,83135,1,10,0:0:0:0:
339,149,83346,1,10,0:0:0:0:
387,272,83557,1,10,0:0:0:0:
387,272,83663,1,2,0:0:0:0:
387,272,83769,6,0,L|340:148,1,132.00000402832,14|2,0:0|0:0,0:0:0:0:
264,148,84191,2,0,L|300:244,1,88.000002685547,2|10,0:0|0:0,0:0:0:0:
320,296,84508,1,8,0:0:0:0:
248,300,84614,2,0,L|217:217,1,88.000002685547,10|0,0:0|0:0,0:0:0:0:
264,148,84931,2,0,L|300:244,1,88.000002685547,2|0,0:0|0:0,0:0:0:0:
320,296,85248,1,2,0:0:0:0:
224,68,85459,5,6,1:2:0:0:
256,192,85565,12,0,87149,0:0:0:0:
