osu file format v14

[General]
AudioFilename: audio.mp3
AudioLeadIn: 0
PreviewTime: 58100
Countdown: 0
SampleSet: Soft
StackLeniency: 0.5
Mode: 0
LetterboxInBreaks: 0
WidescreenStoryboard: 1

[Editor]
DistanceSpacing: 0.9
BeatDivisor: 4
GridSize: 4
TimelineZoom: 1.792

[Metadata]
Title:NEO SKY, NEO MAP! (TV Size)
TitleUnicode:NEO SKY, NEO MAP! (TV Size)
Artist:Nijigasaki High School Idol Club
ArtistUnicode:虹ヶ咲学園スクールアイドル同好会
Creator:Cris-
Version:EASY!
Source:ラブライブ!虹ヶ咲学園スクールアイドル同好会
Tags:Saggin Kagayaki Andrea osuplayer111 Sekai Sekaii Sekai-nyan TheShadowOfDark walaowey wolf3211 ktgster Love Live! LoveLive! NijiGaku ニジガク Ending Pop J-Pop JPop Japanese Alternator 上原歩夢 Uehara Ayumu 大西亜玖璃 Onishi Aguri 中須かすみ Nakasu Kasumi 相良茉優 Sagara Mayu 桜坂しずく Osaka Shizuku 前田佳織里 Maeda Kaori 朝香果林 Asaka Karin 久保田未夢 Kubota Miyu 宮下愛 Miyashita Ai 村上奈津実 Murakami Natsumi 近江彼方 Konoe Kanata 鬼頭明里 Kito Akari 優木せつ菜 Yuki Setsuna 楠木ともり Kusunoki Tomori エマ・ヴェルデ Emma Verde 指出毬亜 Sashide Maria 天王寺璃奈 Tennoji Rina 田中ちえ美 Tanaka Chiemi Ōnishi Oonishi Ousaka Kitō Kitou Yuuki Tennouji Academy Gakuen Doukoukai Dōkōkai 畑 亜貴 Aki Hata 小高光太郎 Odaka Kotaro Kōtarō Koutarou UiNA 谷 ナオキ Tani Naoki
BeatmapID:2660155
BeatmapSetID:1279753

[Difficulty]
HPDrainRate:2
CircleSize:3
OverallDifficulty:3
ApproachRate:4
SliderMultiplier:1.1
SliderTickRate:1

[Events]
//Background and Video events
Video,965,"Ending.mp4"
0,0,"Setsuna.jpg",0,0
//Break Periods
//Storyboard Layer 0 (Background)
//Storyboard Layer 1 (Fail)
//Storyboard Layer 2 (Pass)
//Storyboard Layer 3 (Foreground)
//Storyboard Layer 4 (Overlay)
//Storyboard Sound Samples

[TimingPoints]
1798,422.535211267606,4,2,1,40,1,0
2079,-100,4,2,1,5,0,0
2220,-100,4,2,1,40,0,0
2924,-100,4,2,1,5,0,0
3065,-100,4,2,1,40,0,0
5178,-100,4,2,1,40,0,0
6023,-100,4,2,1,40,0,0
6234,-100,4,2,1,5,0,0
6375,-100,4,2,1,40,0,0
6445,-100,4,2,1,40,0,0
6586,-100,4,2,1,5,0,0
6727,-100,4,2,1,40,0,0
6868,-100,4,2,1,40,0,0
7572,-100,4,2,1,5,0,0
7713,-100,4,2,1,40,0,0
8417,-100,4,2,1,5,0,0
8558,-100,4,2,1,70,0,1
8981,-100,4,2,1,70,0,1
9403,-100,4,2,1,70,0,1
9826,-100,4,2,1,70,0,1
11093,-100,4,2,1,70,0,1
11516,-100,4,2,1,70,0,1
11938,-100,4,2,1,70,0,1
12361,-100,4,2,1,70,0,1
12783,-100,4,2,1,70,0,1
13206,-100,4,2,1,70,0,1
13417,-100,4,2,1,60,0,0
13840,-100,4,2,1,5,0,0
14051,-100,4,2,1,60,0,0
14685,-100,4,2,1,5,0,0
14896,-100,4,2,1,60,0,0
15213,-100,4,2,1,5,0,0
15319,-100,4,2,1,50,0,0
21657,-100,4,2,1,50,0,0
22079,-100,4,2,1,50,0,0
26938,-100,4,2,1,60,0,0
27254,-100,4,2,1,5,0,0
27361,-100,4,2,1,60,0,0
28840,-100,4,2,1,55,0,0
38241,-100,4,2,1,5,0,0
38347,-100,4,2,1,55,0,0
39614,-100,4,2,1,55,0,0
39931,-100,4,2,1,5,0,0
40036,-100,4,2,1,55,0,0
40354,-100,4,2,1,5,0,0
40459,-100,4,2,1,55,0,0
40776,-100,4,2,1,5,0,0
40882,-100,4,2,1,55,0,0
42361,-100,4,2,1,60,0,0
43312,-100,4,2,1,5,0,0
43417,-100,4,2,1,60,0,0
44157,-100,4,2,1,5,0,0
44262,-100,4,2,1,60,0,0
49121,-100,4,2,1,65,0,0
49333,-100,4,2,1,65,0,0
49967,-100,4,2,1,65,0,0
50072,-100,4,2,1,65,0,0
50178,-100,4,2,1,65,0,0
50283,-100,4,2,1,65,0,0
50389,-100,4,2,1,65,0,0
50600,-100,4,2,1,65,0,0
50917,-100,4,2,1,65,0,0
51023,-100,4,2,1,65,0,0
51339,-100,4,2,1,65,0,0
51445,-100,4,2,1,65,0,0
51761,-100,4,2,1,5,0,0
51868,-100,4,2,1,65,0,0
52079,-100,4,2,1,65,0,0
52502,-100,4,2,1,55,0,0
52924,422.535211267606,3,2,1,65,1,0
52924,-100,3,2,1,65,0,0
53557,-100,3,2,1,65,0,0
54191,-100,3,2,1,65,0,0
54508,-100,3,2,1,5,0,0
54614,-100,3,2,1,65,0,0
54825,-100,3,2,1,65,0,0
55142,-100,3,2,1,5,0,0
55247,-100,3,2,1,65,0,0
55459,-100,3,2,1,65,0,0
56727,422.535211267606,4,2,1,40,1,0
57149,-100,4,2,1,50,0,0
57572,-100,4,2,1,60,0,0
57994,-100,4,2,1,70,0,0
58417,-100,4,2,1,80,0,1
59262,-100,4,2,1,80,0,1
59473,-100,4,2,1,80,0,1
59684,-100,4,2,1,80,0,1
59896,-100,4,2,1,80,0,1
60107,-100,4,2,1,80,0,1
62642,-100,4,2,1,80,0,1
62853,-100,4,2,1,80,0,1
63065,-100,4,2,1,80,0,1
63276,-100,4,2,1,80,0,1
63804,-100,4,2,1,80,0,1
64332,-100,4,2,1,80,0,1
64755,-100,4,2,1,80,0,1
65177,-100,4,2,1,80,0,1
65494,-100,4,2,1,80,0,1
66445,-100,4,2,1,80,0,1
67184,-100,4,2,1,80,0,1
68135,-100,4,2,1,80,0,1
68346,-100,4,2,1,80,0,1
68557,-100,4,2,1,80,0,0
68874,-100,4,2,1,80,0,1
69191,-100,4,2,1,80,0,0
69403,-100,4,2,1,80,0,1
69825,-100,4,2,1,60,0,1
70036,-100,4,2,1,70,0,1
70248,-100,4,2,1,80,0,1
70565,-100,4,2,1,80,0,1
70881,-100,4,2,1,80,0,1
71093,-100,4,2,1,80,0,1
71304,-100,4,2,1,60,0,1
71515,-100,4,2,1,65,0,0
71727,-100,4,2,1,70,0,0
71938,-100,4,2,1,80,0,1
72783,-100,4,2,1,80,0,1
72994,-100,4,2,1,80,0,1
73205,-100,4,2,1,80,0,1
73417,-100,4,2,1,80,0,1
73628,-100,4,2,1,80,0,1
74473,-100,4,2,1,80,0,1
75107,-100,4,2,1,80,0,1
75318,-100,4,2,1,80,0,1
75529,-100,4,2,1,80,0,1
76163,-100,4,2,1,80,0,1
76374,-100,4,2,1,80,0,1
76586,-100,4,2,1,80,0,1
76797,-100,4,2,1,80,0,1
77008,-100,4,2,1,80,0,1
77325,-100,4,2,1,80,0,1
77853,-100,4,2,1,80,0,1
78276,-100,4,2,1,80,0,1
78487,-100,4,2,1,80,0,1
78698,-100,4,2,1,70,0,0
79121,-100,4,2,1,5,0,0
79332,-100,4,2,1,70,0,0
79438,-100,4,2,1,70,0,0
79543,-100,4,2,1,70,0,0
79860,-100,4,2,1,70,0,0
80388,-100,4,2,1,70,0,0
80811,-100,4,2,1,70,0,0
81022,-100,4,2,1,70,0,0
82079,-100,4,2,1,80,0,1
82924,-100,4,2,1,80,0,1
83769,-100,4,2,1,80,0,1
84403,-100,4,2,1,80,0,1
84614,-100,4,2,1,80,0,1
85459,-100,4,2,1,60,0,0
86937,-100,4,2,1,30,0,0
87149,-100,4,2,1,5,0,0

[Colours]
Combo1 : 255,159,217
Combo2 : 231,109,109
Combo3 : 240,156,100
Combo4 : 233,230,107
Combo5 : 121,219,126
Combo6 : 109,176,231
Combo7 : 121,138,219
Combo8 : 164,113,249

[HitObjects]
11,357,1798,6,0,P|66:345|118:332,1,110,6|2,0:0|0:0,0:0:0:0:
180,255,2643,2,0,P|234:267|288:280,1,110,2|2,0:0|0:0,0:0:0:0:
362,343,3488,2,0,P|387:295|377:242,1,110,2|2,0:0|0:0,0:0:0:0:
305,175,4333,1,2,0:0:0:0:
385,117,4755,1,2,0:0:0:0:
312,50,5178,6,0,B|258:75|199:41|232:11|166:-27|116:4,1,220,6|2,0:0|0:0,0:0:0:0:
56,83,6445,1,2,0:0:0:0:
135,142,6868,1,2,1:2:0:0:
34,312,7713,2,0,P|87:323|141:336,1,110,2|0,0:0|0:0,0:0:0:0:
218,273,8558,6,0,P|265:247|318:257,1,110,14|10,0:0|0:0,0:0:0:0:
281,349,9402,1,10,0:0:0:0:
218,273,9826,1,10,0:0:0:0:
141,336,10248,2,0,P|115:288|125:235,1,110,14|10,0:0|0:0,0:0:0:0:
198,167,11093,1,10,0:0:0:0:
118,109,11516,1,10,0:0:0:0:
191,42,11938,6,0,P|244:53|298:66,1,110,14|8,0:0|0:0,0:0:0:0:
376,5,12783,2,0,P|429:-4|476:21,1,110,14|8,0:0|0:0,0:0:0:0:
506,59,13417,2,0,P|492:151|412:103,1,220,14|2,0:0|0:0,0:0:0:0:
233,18,15319,6,0,P|204:124|182:231,1,220,6|2,1:2|1:2,0:0:0:0:
157,328,16586,1,2,1:2:0:0:
238,384,17009,1,2,1:2:0:0:
298,305,17431,2,0,P|286:251|273:197,2,110,2|0|2,3:0|1:2|3:0,0:0:0:0:
379,361,18699,5,0,1:2:0:0:
460,305,19121,2,0,P|472:251|485:197,2,110,2|0|2,3:0|1:0|3:0,0:0:0:0:
379,361,20389,2,0,P|326:371|278:345,1,110,0|2,1:0|3:0,0:0:0:0:
229,259,21234,1,2,1:2:0:0:
157,328,21657,1,2,3:0:0:0:
108,242,22079,6,0,B|79:187|79:187|136:40,1,220,0|2,1:0|1:2,0:0:0:0:
228,2,23347,1,2,3:0:0:0:
282,84,23769,2,0,P|261:134|241:186,1,110,0|2,1:0|3:0,0:0:0:0:
286,275,24614,1,2,1:2:0:0:
369,222,25037,1,2,3:0:0:0:
429,300,25459,6,0,P|468:235|441:155,1,165,2|2,1:2|1:2,0:0:0:0:
369,222,26516,1,2,1:2:0:0:
305,146,26938,2,0,B|264:163|222:134|242:112|201:85|159:100,1,165,14|10,1:2|0:0,0:0:0:0:
70,145,27995,2,0,P|59:197|85:245,1,110,10|10,0:0|0:0,0:0:0:0:
176,284,28840,6,0,P|201:331|191:384,1,110,14|10,1:2|0:0,0:0:0:0:
99,348,29685,1,8,0:0:0:0:
176,284,30107,1,10,0:0:0:0:
85,245,30530,2,0,P|59:197|70:145,1,110,10|10,0:0|0:0,0:0:0:0:
127,64,31375,2,0,P|181:76|234:89,1,110,8|10,0:0|0:0,0:0:0:0:
319,39,32220,5,10,0:0:0:0:
368,124,32643,1,10,0:0:0:0:
284,175,33065,2,0,P|258:223|269:275,1,110,10|10,0:0|0:0,0:0:0:0:
346,337,33910,2,0,P|371:289|360:236,1,110,10|10,0:0|0:0,0:0:0:0:
284,175,34755,1,10,0:0:0:0:
368,124,35178,1,10,0:0:0:0:
319,39,35600,6,0,P|265:51|212:64,1,110,10|10,0:0|0:0,0:0:0:0:
135,0,36445,2,0,P|81:12|28:25,1,110,8|10,0:0|0:0,0:0:0:0:
0,120,37290,2,0,P|21:199|38:279,1,165,14|10,0:0|3:0,0:0:0:0:
173,217,38558,1,8,0:0:0:0:
198,312,38981,6,0,B|240:297|281:324|261:346|303:375|344:358,1,165,14|10,0:0|0:0,0:0:0:0:
424,299,40037,1,2,1:2:0:0:
364,220,40459,2,0,P|441:198|506:244,1,165,14|10,0:0|0:0,0:0:0:0:
424,299,41516,1,10,0:0:0:0:
364,220,41938,1,10,0:0:0:0:
281,274,42361,6,0,P|201:252|120:235,1,165,14|14,0:0|0:0,0:0:0:0:
69,150,43417,1,10,0:0:0:0:
153,97,43840,2,0,P|232:118|313:135,1,165,14|10,0:0|0:0,0:0:0:0:
364,220,44896,1,10,0:0:0:0:
281,274,45319,1,10,0:0:0:0:
341,353,45741,6,0,P|264:374|198:328,1,165,14|14,0:0|0:0,0:0:0:0:
281,274,46798,1,10,3:0:0:0:
222,195,47220,2,0,P|298:173|364:219,1,165,14|10,0:0|0:0,0:0:0:0:
457,185,48276,2,0,P|469:131|482:78,1,110,10|10,0:0|0:0,0:0:0:0:
425,0,49121,5,14,0:0:0:0:
425,0,49544,1,10,0:0:0:0:
344,52,49967,2,0,P|290:38|236:26,1,110,10|2,3:0|1:2,0:0:0:0:
188,16,50600,2,0,P|162:63|173:116,1,110,14|10,0:0|0:0,0:0:0:0:
254,172,51445,2,0,P|276:249|230:315,1,165,10|10,3:0|0:0,0:0:0:0:
175,232,52502,1,0,1:0:0:0:
254,172,52924,6,0,B|295:189|337:160|317:138|358:111|400:126,1,165,14|14,0:0|0:0,0:0:0:0:
421,274,54191,2,0,B|384:299|337:285|351:258|302:242|267:269,1,165,14|14,0:0|0:0,0:0:0:0:
130,327,55459,2,0,B|90:282|107:215|144:238|163:164|119:126,1,220,14|10,0:0|3:0,0:0:0:0:
56,48,56726,6,0,P|103:22|156:33,1,110,6|2,1:2|0:0,0:0:0:0:
236,91,57572,1,10,0:0:0:0:
296,12,57994,1,10,0:0:0:0:
379,66,58417,6,0,P|405:113|394:165,1,110,14|8,0:0|0:0,0:0:0:0:
333,244,59262,1,10,0:0:0:0:
250,190,59684,1,10,0:0:0:0:
193,271,60107,2,0,P|139:282|85:295,1,110,10|8,0:0|0:0,0:0:0:0:
13,226,60952,1,10,0:0:0:0:
63,140,61374,1,8,0:0:0:0:
1,62,61797,6,0,P|48:36|100:47,1,110,10|8,0:0|0:0,0:0:0:0:
63,140,62642,1,10,0:0:0:0:
153,177,63065,1,10,0:0:0:0:
190,87,63487,2,0,P|244:99|297:112,1,110,10|8,0:0|0:0,0:0:0:0:
382,62,64332,1,10,0:0:0:0:
431,147,64755,1,10,0:0:0:0:
347,198,65177,6,0,P|321:246|332:298,2,110,14|8|10,0:0|0:0|0:0,0:0:0:0:
431,147,66445,1,14,0:0:0:0:
499,219,66867,2,0,P|509:271|484:319,2,110,10|8|10,0:0|0:0|0:0,0:0:0:0:
431,147,68135,1,14,0:0:0:0:
510,88,68557,6,0,P|442:47|366:73,1,165,6|10,1:2|0:0,0:0:0:0:
327,105,69403,2,0,P|273:114|226:89,1,110,10|8,0:0|0:0,0:0:0:0:
164,11,70248,2,0,P|123:79|149:155,1,165,10|10,0:0|0:0,0:0:0:0:
180,194,71094,2,0,P|189:247|164:294,1,110,14|2,0:0|1:2,0:0:0:0:
72,329,71938,6,0,P|59:276|85:229,1,110,14|8,0:0|0:0,0:0:0:0:
180,193,72783,1,10,0:0:0:0:
132,107,73205,1,10,0:0:0:0:
217,56,73628,2,0,P|271:67|325:80,1,110,10|8,0:0|0:0,0:0:0:0:
419,107,74473,1,10,0:0:0:0:
369,193,74895,1,8,0:0:0:0:
431,271,75318,6,0,P|384:297|332:286,1,110,10|8,0:0|0:0,0:0:0:0:
369,193,76163,1,10,0:0:0:0:
279,156,76586,1,10,0:0:0:0:
242,246,77008,2,0,P|188:234|135:221,1,110,10|8,0:0|0:0,0:0:0:0:
39,195,77853,1,10,0:0:0:0:
109,125,78276,1,10,0:0:0:0:
47,47,78698,6,0,P|126:25|190:68,1,165,14|2,0:0|1:2,0:0:0:0:
220,108,79543,2,0,P|207:161|195:215,1,110,14|0,0:0|0:0,0:0:0:0:
290,240,80388,2,0,P|301:186|315:132,1,110,14|2,0:0|0:0,0:0:0:0:
410,156,81234,2,0,P|396:210|385:264,1,110,14|0,0:0|0:0,0:0:0:0:
303,321,82079,5,14,0:0:0:0:
245,241,82501,1,10,0:0:0:0:
165,298,82924,1,10,0:0:0:0:
222,378,83346,1,10,0:0:0:0:
303,321,83769,2,0,P|382:299|446:342,1,165,14|10,0:0|0:0,0:0:0:0:
476,382,84614,2,0,P|489:329|501:275,1,110,10|0,0:0|0:0,0:0:0:0:
459,184,85459,5,6,1:2:0:0:
256,192,85670,12,0,87149,0:0:0:0:
