osu file format v14

[General]
AudioFilename: audio.mp3
AudioLeadIn: 0
PreviewTime: 134330
Countdown: 0
SampleSet: Soft
StackLeniency: 0.4
Mode: 0
LetterboxInBreaks: 0
WidescreenStoryboard: 1

[Editor]
DistanceSpacing: 1.3
BeatDivisor: 4
GridSize: 16
TimelineZoom: 2.699999

[Metadata]
Title:Just Believe!!!
TitleUnicode:Just Believe!!!
Artist:Nijigasaki High School Idol Club
ArtistUnicode:虹ヶ咲学園スクールアイドル同好会
Creator:MiyohashiKoori
Version:Karcher's Extra
Source:ラブライブ!虹ヶ咲学園スクールアイドル同好会
Tags:LoveLive! pop Love Live! school idol project anime Ayaka Miyake ygarshy PASSiON KiNG ニジガク NijiGaku 3rd album japanese video game j-pop jpop 上原歩夢 Uehara Ayumu 大西亜玖璃 Onishi Aguri 中須かすみ Nakasu Kasumi 相良茉優 Sagara Mayu 桜坂しずく Osaka Shizuku 前田佳織里 Maeda Kaori 朝香果林 Asaka Karin 久保田未夢 Kubota Miyu 宮下愛 Miyashita Ai 村上奈津実 Murakami Natsumi 近江彼方 Konoe Kanata 鬼頭明里 Kito Akari 優木せつ菜 Yuki Setsuna 楠木ともり Kusunoki Tomori エマ・ヴェルデ Emma Verde 指出毬亜 Sashide Maria 天王寺璃奈 Tennoji Rina 田中ちえ美 Tanaka Chiemi 三船栞子 Mifune Shioriko 小泉萌香 Koizumi Moeka Ōnishi Oonishi Ohnishi Ousaka Kitō Kitou Yuuki Tennouji gakuen doukoukai dōkōkai スクールアイドルフェスティバル ALL STARS スクスタ festival caps zyoi enjoy enju -_e_n_j_u_- arronchu1207 Karcher [Karcher]
BeatmapID:3305396
BeatmapSetID:1522615

[Difficulty]
HPDrainRate:6
CircleSize:3.9
OverallDifficulty:8.8
ApproachRate:9.2
SliderMultiplier:1.8
SliderTickRate:1

[Events]
//Background and Video events
0,0,"84970229_p0_master1200.jpg",0,0
//Break Periods
2,104046,107954
2,191427,197470
//Storyboard Layer 0 (Background)
//Storyboard Layer 1 (Fail)
//Storyboard Layer 2 (Pass)
//Storyboard Layer 3 (Foreground)
//Storyboard Layer 4 (Overlay)
//Storyboard Sound Samples

[TimingPoints]
539,545.454545454546,4,2,1,60,1,0
21266,322.58064516129,4,2,1,60,1,0
21266,-125,4,2,1,60,0,0
22556,-166.666666666667,4,2,1,60,0,0
23201,-250,4,2,1,60,0,0
23846,-125,4,2,1,60,0,0
25136,-250,4,2,1,60,0,0
25378,-250,4,2,1,5,0,0
25459,-142.857142857143,4,2,1,60,0,0
25701,-142.857142857143,4,2,1,5,0,0
25782,-90.9090909090909,4,2,1,70,0,0
26024,-90.9090909090909,4,2,1,5,0,0
26104,-66.6666666666667,4,2,1,70,0,0
26346,-66.6666666666667,4,2,1,5,0,0
26427,-100,4,2,1,80,0,0
34088,-100,4,2,1,5,0,0
34169,-100,4,2,1,80,0,0
35298,-76.9230769230769,4,2,1,80,0,0
35540,-76.9230769230769,4,2,1,5,0,0
35620,-76.9230769230769,4,2,1,80,0,0
35862,-76.9230769230769,4,2,1,5,0,0
35943,-100,4,2,1,80,0,0
36265,-100,4,2,2,80,0,0
36427,-100,4,2,1,80,0,0
36507,-100,4,2,2,80,0,0
36749,-125,4,2,1,70,0,0
46024,-125,4,2,1,5,0,0
46104,-125,4,2,1,70,0,0
46346,-125,4,2,1,5,0,0
46427,-125,4,2,1,70,0,0
46669,-125,4,2,1,5,0,0
46749,-125,4,2,1,70,0,0
46991,-125,4,2,1,5,0,0
47072,-111.111111111111,4,2,1,70,0,0
54814,-90.9090909090908,4,2,1,70,0,0
61427,-90.9090909090908,4,2,1,5,0,0
61507,-90.9090909090908,4,2,1,70,0,0
61669,-90.9090909090908,4,2,1,5,0,0
61749,-90.9090909090908,4,2,1,70,0,0
67072,-90.9090909090908,4,2,2,70,0,0
67233,-90.9090909090908,4,2,1,70,0,0
67717,-83.3333333333333,4,2,1,80,0,1
74088,-83.3333333333333,4,2,1,5,0,1
74169,-83.3333333333333,4,2,1,80,0,1
77556,-83.3333333333333,4,2,2,80,0,1
78040,-83.3333333333333,4,2,1,80,0,1
86024,-83.3333333333333,4,2,1,5,0,1
86104,-83.3333333333333,4,2,1,80,0,1
93524,-100,4,2,1,70,0,0
102395,-76.9230769230769,4,2,1,70,0,0
102636,-76.9230769230769,4,2,1,5,0,0
102717,-76.9230769230769,4,2,1,70,0,0
102959,-76.9230769230769,4,2,1,5,0,0
103040,-100,4,2,1,70,0,0
103362,-100,4,2,2,70,0,0
103524,-100,4,2,1,70,0,0
103846,-100,4,2,1,50,0,0
108685,-285.714285714286,4,2,1,60,0,0
108927,-285.714285714286,4,2,1,5,0,0
109007,-125,4,2,1,60,0,0
114169,-111.111111111111,4,2,1,70,0,0
121830,-111.111111111111,4,2,1,5,0,0
121911,-111.111111111111,4,2,1,70,0,0
128524,-111.111111111111,4,2,1,5,0,0
128604,-111.111111111111,4,2,1,70,0,0
128765,-111.111111111111,4,2,1,5,0,0
128846,-111.111111111111,4,2,1,70,0,0
132233,-83.3333333333333,4,2,1,70,0,0
134169,-83.3333333333333,4,2,2,70,0,0
134330,-83.3333333333333,4,2,1,70,0,0
134814,-83.3333333333333,4,2,1,80,0,1
141185,-83.3333333333333,4,2,1,5,0,1
141265,-83.3333333333333,4,2,1,80,0,1
153120,-83.3333333333333,4,2,1,5,0,1
153201,-83.3333333333333,4,2,1,80,0,1
160620,-90.9090909090909,4,2,1,70,0,0
169733,-90.9090909090909,4,2,1,5,0,0
169814,-90.9090909090909,4,2,1,70,0,0
177314,-90.9090909090909,4,2,1,5,0,0
177395,-90.9090909090909,4,2,1,70,0,0
178685,-111.111111111111,4,2,1,70,0,0
183846,-83.3333333333333,4,2,1,70,0,1
184088,-83.3333333333333,4,2,1,5,0,1
184169,-83.3333333333333,4,2,1,70,0,1
186427,-111.111111111111,4,2,1,70,0,0
188846,-83.3333333333333,4,2,1,70,0,0
190298,-83.3333333333333,4,2,2,70,0,0
198040,-83.3333333333333,4,2,1,60,0,0
198927,-83.3333333333333,4,2,1,5,0,0
199007,-83.3333333333333,4,2,1,60,0,0
200136,-83.3333333333333,4,2,1,70,0,0
200943,-76.9230769230769,4,2,1,80,0,1
208604,-76.9230769230769,4,2,1,5,0,1
208685,-76.9230769230769,4,2,1,80,0,1
212314,-76.9230769230769,4,2,1,5,0,1
212395,-76.9230769230769,4,2,1,80,0,1
216104,-100,4,2,1,70,0,0
234411,-100,4,2,1,5,0,0
234491,-100,4,2,1,70,0,0
236749,-100,4,2,1,60,0,0
239330,-100,4,2,1,5,0,0

[Colours]
Combo1 : 128,128,192
Combo2 : 255,0,128
Combo3 : 255,128,0
Combo4 : 0,128,192

[HitObjects]
108,73,21266,5,8,0:3:0:0:
108,73,21427,2,0,L|98:145,1,72,2|2,0:0|0:0,0:0:0:0:
24,198,21749,2,0,P|90:176|144:218,1,144,0|0,0:3|0:0,0:0:0:0:
99,302,22233,2,0,P|66:313|39:292,1,72,2|0,0:0|0:0,0:0:0:0:
242,309,22556,5,0,0:0:0:0:
242,309,22717,2,0,P|217:317|197:301,2,53.9999983520508,2|2|0,0:0|0:0|0:0,0:0:0:0:
372,317,23201,5,2,0:0:0:0:
372,317,23362,2,0,P|353:323|337:311,2,36,0|2|0,0:0|0:0|0:0,0:0:0:0:
350,149,23846,5,0,0:0:0:0:
350,149,24007,2,0,L|342:220,1,72,2|2,0:0|0:0,0:0:0:0:
372,317,24330,2,0,P|330:263|266:286,1,144
124,253,24814,2,0,P|144:279|176:268,1,72,2|0,0:0|0:0,0:0:0:0:
232,106,25136,6,0,P|233:86|246:105,1,54,2|0,0:0|0:0,0:0:0:0:
155,142,25459,6,0,B|132:94|159:46,1,94.499997116089,2|0,0:0|0:0,0:0:0:0:
235,96,25782,6,0,B|315:114|273:157|361:172,1,148.50000453186,2|0,0:0|0:0,0:0:0:0:
377,83,26104,6,0,B|259:103|331:173|205:189,1,202.500007724762,2|0,0:0|0:0,0:0:0:0:
80,187,26427,5,14,0:3:0:0:
194,276,26588,1,2,0:0:0:0:
46,328,26749,1,10,0:0:0:0:
214,187,26911,2,0,P|259:206|285:243,1,90,2|8,0:0|0:3,0:0:0:0:
381,333,27233,2,0,P|374:284|393:243,1,90,2|8,0:0|0:0,0:0:0:0:
423,115,27556,6,0,P|384:144|339:148,1,90,2|8,0:0|0:3,0:0:0:0:
214,187,27878,1,2,0:0:0:0:
119,96,28040,1,10,0:0:0:0:
344,149,28201,2,0,L|335:241,1,90,2|8,0:0|0:3,0:0:0:0:
248,384,28524,2,0,L|239:294,1,90,2|8,0:0|0:0,0:0:0:0:
214,187,28846,1,2,0:0:0:0:
134,318,29007,5,10,0:3:0:0:
335,238,29169,1,2,0:0:0:0:
136,150,29330,1,10,0:0:0:0:
337,326,29491,2,0,P|382:317|412:283,1,90,2|8,0:0|0:3,0:0:0:0:
257,195,29814,2,0,P|242:238|256:281,1,90,2|8,0:0|0:0,0:0:0:0:
411,192,30136,6,0,P|380:157|336:148,1,90,2|8,0:0|0:3,0:0:0:0:
255,279,30459,1,2,0:0:0:0:
118,223,30620,1,10,0:0:0:0:
174,7,30782,2,0,L|191:96,1,90,2|8,0:0|0:3,0:0:0:0:
20,147,31104,2,0,L|36:58,1,90,2|8,0:0|0:0,0:0:0:0:
118,223,31427,1,2,0:0:0:0:
190,95,31588,5,14,0:3:0:0:
252,18,31749,1,10,0:3:0:0:
286,111,31911,1,10,0:0:0:0:
438,100,32072,6,0,P|355:65|279:126,1,180,14|8,0:3|0:3,0:0:0:0:
223,203,32556,2,0,L|230:299,1,90,10|0,0:0|0:0,0:0:0:0:
145,369,32878,5,14,0:3:0:0:
123,253,33040,1,10,0:3:0:0:
41,337,33201,1,10,0:0:0:0:
377,314,33362,6,0,P|309:261|229:292,1,180,14|8,0:3|0:3,0:0:0:0:
123,253,33846,2,0,P|97:184|118:124,1,135,10|0,0:0|0:0,0:0:0:0:
200,95,34169,5,12,0:3:0:0:
398,128,34330,1,0,0:0:0:0:
209,217,34491,5,8,0:0:0:0:
405,113,34653,1,0,0:0:0:0:
305,295,34814,5,8,0:3:0:0:
412,98,34975,1,0,0:0:0:0:
416,311,35136,5,8,0:0:0:0:
341,37,35298,2,0,B|303:15|303:15|329:156,1,175.499991966248,12|0,0:3|0:0,0:0:0:0:
483,38,35620,2,0,B|521:16|521:16|497:145,1,175.499991966248,8|0,0:3|0:0,0:0:0:0:
340,245,35943,6,0,B|389:232|410:191|410:191|430:234|481:243,1,180,12|4,0:3|0:3,0:0:0:0:
483,340,36346,1,4,0:3:0:0:
456,341,36427,1,10,0:0:0:0:
429,342,36507,1,4,0:3:0:0:
402,343,36588,1,4,0:3:0:0:
375,344,36669,1,4,0:3:0:0:
347,345,36749,6,0,P|293:335|246:262,1,144,14|8,0:3|0:0,0:0:0:0:
54,219,37233,1,10,0:3:0:0:
54,219,37395,2,0,P|108:209|155:136,1,144,2|8,0:0|0:0,0:0:0:0:
388,29,38040,6,0,L|377:180,1,144,8|8,0:3|0:0,0:0:0:0:
426,258,38524,1,8,0:3:0:0:
426,258,38685,2,0,P|389:270|347:264,1,72,2|8,0:0|0:3,0:0:0:0:
210,182,39007,2,0,P|245:179|279:191,1,72,10|0,0:0|0:0,0:0:0:0:
265,361,39330,6,0,L|255:278,1,72,10|0,0:3|0:0,0:0:0:0:
288,119,39653,1,8,0:0:0:0:
288,119,39814,2,0,L|279:190,1,72,10|0,0:3|0:0,0:0:0:0:
365,338,40136,2,0,L|355:255,1,72,2|8,0:0|0:0,0:0:0:0:
283,194,40459,1,2,0:0:0:0:
283,194,40620,6,0,B|202:185|221:225|141:209,1,144,8|8,0:3|0:0,0:0:0:0:
56,174,41104,1,8,0:3:0:0:
56,174,41265,2,0,P|48:209|55:246,1,72,2|8,0:0|0:3,0:0:0:0:
128,374,41588,2,0,P|136:339|129:302,1,72,10|0,0:0|0:0,0:0:0:0:
209,155,41911,6,0,P|251:129|311:200,1,144,10|10,0:3|0:0,0:0:0:0:
502,222,42395,2,0,P|439:197|397:250,1,144,10|2,0:3|0:0,0:0:0:0:
299,292,42878,1,10,0:0:0:0:
299,292,43040,1,2,0:0:0:0:
312,183,43201,6,0,L|170:203,1,144,10|8,0:3|0:0,0:0:0:0:
169,203,43685,1,8,0:3:0:0:
39,29,43846,2,0,L|181:49,1,144,2|8,0:0|0:0,0:0:0:0:
356,101,44491,6,0,P|388:128|392:233,1,144,10|8,0:3|0:0,0:0:0:0:
352,308,44975,1,8,0:3:0:0:
150,213,45298,1,8,0:3:0:0:
150,213,45459,2,0,L|163:293,1,72,10|0,0:0|0:0,0:0:0:0:
278,373,45782,6,0,P|256:327|267:267,1,108,10|0,0:3|0:0,0:0:0:0:
365,258,46104,2,0,P|319:280|259:269,1,108,10|0,0:0|0:0,0:0:0:0:
250,171,46427,2,0,P|272:217|261:277,1,108,2|0,0:0|0:0,0:0:0:0:
162,285,46749,2,0,P|208:263|268:274,1,108,10|0,0:0|0:0,0:0:0:0:
365,258,47072,6,0,P|424:219|501:252,1,161.999995056153,14|8,0:3|0:0,0:0:0:0:
488,83,47556,1,10,0:3:0:0:
488,83,47717,2,0,P|429:122|352:89,1,161.999995056153,2|8,0:3|0:0,0:0:0:0:
64,208,48362,6,0,L|238:174,1,161.999995056153,8|8,0:3|0:0,0:0:0:0:
307,133,48846,1,10,0:3:0:0:
307,133,49007,2,0,P|321:178|311:216,1,80.9999975280763,2|8,0:3|0:3,0:0:0:0:
238,350,49330,2,0,P|224:305|234:267,1,80.9999975280763,10|0,0:0|0:0,0:0:0:0:
475,299,49653,6,0,B|399:322|399:322|311:300,1,161.999995056153,10|10,0:3|0:0,0:0:0:0:
222,176,50136,2,0,B|181:165|181:165|143:177,1,80.9999975280763,10|0,0:3|0:0,0:0:0:0:
89,274,50459,1,2,0:0:0:0:
89,274,50620,2,0,L|98:358,1,80.9999975280763,10|2,0:0|0:0,0:0:0:0:
34,174,50943,6,0,P|11:112|86:46,1,161.999995056153,8|8,0:3|0:0,0:0:0:0:
158,108,51427,1,8,0:3:0:0:
158,108,51588,2,0,P|203:112|245:100,1,80.9999975280763,2|8,0:0|0:3,0:0:0:0:
383,19,51911,2,0,P|342:14|303:23,1,80.9999975280763,10|2,0:0|0:0,0:0:0:0:
335,120,52233,6,0,L|320:293,1,161.999995056153,10|10,0:3|0:0,0:0:0:0:
474,308,52717,2,0,P|440:268|399:254,1,80.9999975280763,10|0,0:3|0:0,0:0:0:0:
308,381,53040,1,2,0:0:0:0:
308,381,53201,2,0,P|358:371|391:343,1,80.9999975280763,10|2,0:0|0:0,0:0:0:0:
300,248,53524,6,0,L|136:278,1,161.999995056153,10|8,0:3|0:0,0:0:0:0:
65,333,54007,1,8,0:3:0:0:
12,104,54169,2,0,L|176:134,1,161.999995056153,2|8,0:0|0:0,0:0:0:0:
468,313,54814,6,0,B|480:299|506:292|506:292|423:273|456:353|349:323,1,198.000006042481,10|8,0:3|0:0,0:0:0:0:
321,237,55298,1,8,0:3:0:0:
172,317,55459,6,0,B|281:283|255:359|368:325,1,198.000006042481,2|8,0:0|0:0,0:0:0:0:
423,240,55943,1,0,0:0:0:0:
305,139,56104,6,0,L|322:245,1,99.0000030212403,10|0,0:3|0:0,0:0:0:0:
451,50,56427,2,0,L|434:156,1,99.0000030212403,10|0,0:0|0:0,0:0:0:0:
289,35,56749,1,10,0:3:0:0:
289,35,56911,1,8,0:3:0:0:
233,191,57072,1,10,0:3:0:0:
192,210,57153,1,8,0:3:0:0:
148,217,57233,1,8,0:3:0:0:
103,213,57314,1,8,0:3:0:0:
60,197,57395,6,0,P|53:151|75:99,1,99.0000030212403,14|0,0:3|0:0,0:0:0:0:
206,115,57717,1,0,0:0:0:0:
82,304,57878,6,0,P|34:306|-9:277,1,99.0000030212403,10|0,0:3|0:0,0:0:0:0:
148,217,58201,1,10,0:3:0:0:
263,360,58362,5,10,0:0:0:0:
322,164,58524,2,0,L|327:263,1,99.0000030212403,2|8,0:0|0:3,0:0:0:0:
379,366,58846,5,2,0:0:0:0:
221,260,59007,1,2,0:0:0:0:
428,170,59169,2,0,L|432:268,1,99.0000030212403,10|0,0:3|0:0,0:0:0:0:
263,360,59491,5,10,0:3:0:0:
221,260,59653,1,10,0:0:0:0:
159,351,59814,1,2,0:0:0:0:
327,263,59975,6,0,L|317:65,1,198.000006042481,10|0,0:3|0:0,0:0:0:0:
116,255,60459,2,0,L|125:57,1,198.000006042481,10|8,0:3|0:3,0:0:0:0:
221,147,60943,1,10,0:0:0:0:
221,147,61104,1,2,0:0:0:0:
451,110,61265,6,0,P|470:51|394:54,2,148.50000453186,10|2|10,0:3|0:0|0:3,0:0:0:0:
263,232,61911,2,0,P|244:173|320:176,2,148.50000453186,2|10|10,0:0|0:3|0:3,0:0:0:0:
364,254,62475,1,8,0:3:0:0:
364,254,62556,6,0,P|268:264|159:281,1,198.000006042481,14|0,0:3|0:0,0:0:0:0:
370,74,63040,2,0,P|272:58|173:48,1,198.000006042481,10|8,0:3|0:3,0:0:0:0:
83,164,63524,1,10,0:0:0:0:
83,164,63685,1,2,0:0:0:0:
171,283,63846,5,10,0:3:0:0:
171,283,64007,1,2,0:0:0:0:
64,267,64169,1,2,0:0:0:0:
64,267,64330,1,8,0:3:0:0:
183,179,64491,5,2,0:0:0:0:
183,179,64653,1,10,0:3:0:0:
278,299,64814,1,8,0:0:0:0:
202,62,64975,5,8,0:3:0:0:
202,62,65056,1,8,0:3:0:0:
202,62,65136,2,0,P|142:80|186:179,1,198.000006042481,10|8,0:0|0:0,0:0:0:0:
284,134,65620,1,0,0:0:0:0:
433,269,65782,6,0,L|418:67,1,198.000006042481,10|8,0:0|0:0,0:0:0:0:
320,246,66265,1,2,0:0:0:0:
202,62,66427,5,10,0:0:0:0:
145,46,66507,1,8,0:0:0:0:
86,58,66588,2,0,P|62:75|43:105,1,49.5000015106202,8|8,0:0|0:0,0:0:0:0:
83,250,66749,5,10,0:0:0:0:
140,266,66829,1,8,0:0:0:0:
199,254,66910,2,0,P|223:237|242:207,1,49.5000015106202,8|8,0:0|0:0,0:0:0:0:
351,35,67072,5,2,0:0:0:0:
148,156,67233,1,2,0:0:0:0:
138,160,67395,1,2,0:0:0:0:
137,150,67556,1,2,0:0:0:0:
347,322,67717,6,0,P|402:338|466:216,1,215.999993408203,14|10,0:3|0:0,0:0:0:0:
328,72,68201,2,0,L|340:184,1,107.999996704102,2|8,0:0|0:3,0:0:0:0:
219,370,68524,2,0,L|230:262,1,107.999996704102,2|8,0:0|0:0,0:0:0:0:
495,118,68846,6,0,B|372:106|416:180|286:164,1,215.999993408203,2|0,0:0|0:0,0:0:0:0:
158,38,69330,1,10,0:0:0:0:
158,38,69491,1,2,0:0:0:0:
123,232,69653,2,0,P|121:289|152:344,1,107.999996704102,10|2,0:3|0:0,0:0:0:0:
329,296,69975,2,0,P|280:266|216:264,1,107.999996704102,10|2,0:0|0:0,0:0:0:0:
20,201,70298,6,0,P|97:131|198:158,1,215.999993408203,10|10,0:3|0:0,0:0:0:0:
329,296,70782,2,0,L|342:180,1,107.999996704102,2|8,0:0|0:3,0:0:0:0:
476,25,71104,2,0,L|488:132,1,107.999996704102,2|8,0:0|0:0,0:0:0:0:
381,370,71427,6,0,P|306:384|246:266,1,215.999993408203,2|2,0:0|0:0,0:0:0:0:
369,124,71911,1,10,0:0:0:0:
369,124,72072,1,2,0:0:0:0:
176,58,72233,2,0,L|196:170,1,107.999996704102,10|0,0:3|0:0,0:0:0:0:
398,273,72556,2,0,P|451:281|506:263,1,107.999996704102,10|0,0:0|0:0,0:0:0:0:
170,48,72878,6,0,B|5:30|5:30|46:76,1,215.999993408203,14|8,0:3|0:0,0:0:0:0:
203,246,73362,1,10,0:3:0:0:
82,292,73524,2,0,L|98:180,1,107.999996704102,2|10,0:0|0:3,0:0:0:0:
265,113,73846,2,0,P|320:76|414:119,1,161.999995056153,10|0,0:0|0:0,0:0:0:0:
479,154,74169,6,0,L|455:378,1,215.999993408203,14|8,0:3|0:0,0:0:0:0:
231,268,74653,1,10,0:3:0:0:
189,373,74814,2,0,L|304:352,1,107.999996704102,0|8,0:0|0:3,0:0:0:0:
303,175,75136,2,0,L|188:154,1,107.999996704102,10|2,0:0|0:0,0:0:0:0:
22,360,75459,6,0,B|58:260|58:260|25:154,1,215.999993408203,14|10,0:3|0:0,0:0:0:0:
144,62,75943,1,2,0:0:0:0:
144,62,76104,1,10,0:3:0:0:
261,249,76265,2,0,P|316:261|361:238,1,107.999996704102,2|8,0:0|0:0,0:0:0:0:
463,26,76588,6,0,L|445:139,1,107.999996704102,10|0,0:3|0:0,0:0:0:0:
512,369,76911,2,0,L|495:262,1,107.999996704102,10|8,0:3|0:0,0:0:0:0:
255,79,77233,2,0,P|200:67|155:90,1,107.999996704102,10|0,0:3|0:0,0:0:0:0:
74,357,77556,5,10,0:3:0:0:
103,345,77636,1,8,0:3:0:0:
123,319,77717,1,6,0:3:0:0:
127,286,77798,1,4,0:3:0:0:
111,257,77878,1,6,0:3:0:0:
81,243,77959,1,4,0:3:0:0:
49,249,78040,6,0,P|97:294|212:214,1,215.999993408203,14|10,0:3|0:0,0:0:0:0:
140,33,78524,2,0,L|123:144,1,107.999996704102,2|8,0:0|0:3,0:0:0:0:
341,268,78846,2,0,L|324:161,1,107.999996704102,2|8,0:0|0:0,0:0:0:0:
53,322,79169,6,0,P|128:282|206:376,1,215.999993408203,2|2,0:0|0:0,0:0:0:0:
328,165,79653,1,10,0:0:0:0:
328,165,79814,1,2,0:0:0:0:
467,355,79975,2,0,P|414:369|359:353,1,107.999996704102,10|0,0:3|0:0,0:0:0:0:
224,165,80298,2,0,P|275:150|327:164,1,107.999996704102,10|0,0:0|0:0,0:0:0:0:
509,44,80620,6,0,B|458:5|458:5|487:156,1,215.999993408203,10|8,0:3|0:0,0:0:0:0:
455,245,81104,1,0,0:0:0:0:
309,62,81265,6,0,B|186:31|210:99|97:63,1,215.999993408203,10|8,0:3|0:0,0:0:0:0:
24,15,81749,1,0,0:0:0:0:
236,266,81911,6,0,L|252:149,1,107.999996704102,10|0,0:3|0:0,0:0:0:0:
47,324,82233,2,0,L|31:207,1,107.999996704102,10|0,0:0|0:0,0:0:0:0:
332,312,82556,2,0,L|348:195,1,107.999996704102,10|0,0:3|0:0,0:0:0:0:
149,340,82878,2,0,L|133:223,1,107.999996704102,10|0,0:0|0:0,0:0:0:0:
342,91,83201,6,0,P|431:59|502:142,1,215.999993408203,14|8,0:3|0:0,0:0:0:0:
383,303,83685,1,8,0:3:0:0:
276,218,83846,1,2,0:0:0:0:
276,218,84007,1,10,0:3:0:0:
290,313,84169,1,10,0:0:0:0:
290,313,84330,1,2,0:0:0:0:
375,206,84491,5,10,0:3:0:0:
200,274,84653,1,10,0:3:0:0:
316,127,84814,1,10,0:0:0:0:
383,303,84975,1,10,0:3:0:0:
224,136,85136,5,2,0:0:0:0:
459,253,85298,1,10,0:3:0:0:
204,366,85459,2,0,P|150:378|94:361,1,107.999996704102,10|2,0:0|0:0,0:0:0:0:
41,60,85782,6,0,P|87:21|166:66,1,161.999995056153,12|0,0:3|0:0,0:0:0:0:
224,136,86104,1,8,0:0:0:0:
414,205,86265,1,2,0:0:0:0:
220,261,86427,1,8,0:3:0:0:
344,101,86588,1,2,0:0:0:0:
337,303,86750,1,10,0:0:0:0:
224,136,86911,6,0,B|61:167|61:167|107:191,1,215.999993408203,14|0,0:3|0:0,0:0:0:0:
202,273,87395,1,8,0:0:0:0:
436,205,87556,1,2,0:0:0:0:
207,122,87717,1,10,0:3:0:0:
343,324,87879,1,2,0:0:0:0:
352,79,88041,1,10,0:0:0:0:
202,273,88201,6,0,P|160:340|262:354,1,215.999993408203,14|0,0:3|0:0,0:0:0:0:
462,205,88685,1,8,0:0:0:0:
188,105,88846,1,2,0:0:0:0:
351,348,89008,1,10,0:3:0:0:
362,54,89170,1,2,0:0:0:0:
182,287,89330,1,10,0:0:0:0:
491,125,89491,6,0,P|421:129|394:261,1,215.999993408203,14|8,0:3|0:3,0:0:0:0:
214,358,89975,1,10,0:0:0:0:
129,209,90136,1,2,0:0:0:0:
129,209,90298,2,0,P|191:195|233:211,1,107.999996704102,8|8,0:3|0:3,0:0:0:0:
369,330,90620,1,10,0:0:0:0:
381,114,90782,1,2,0:0:0:0:
179,274,90943,6,0,L|186:383,1,107.999996704102,14|0,0:3|0:0,0:0:0:0:
375,222,91265,2,0,L|368:331,1,107.999996704102,10|0,0:0|0:0,0:0:0:0:
173,167,91588,2,0,L|180:276,1,107.999996704102,10|0,0:3|0:0,0:0:0:0:
381,114,91911,2,0,L|374:223,1,107.999996704102,10|0,0:0|0:0,0:0:0:0:
166,59,92233,5,10,0:0:0:0:
179,274,92395,1,8,0:3:0:0:
387,6,92556,5,10,0:0:0:0:
374,221,92718,1,8,0:3:0:0:
155,52,92878,5,8,0:0:0:0:
96,38,92959,1,8,0:3:0:0:
36,46,93040,2,0,P|11:65|-2:85,1,53.9999983520508,8|8,0:3|0:3,0:0:0:0:
60,268,93201,5,8,0:0:0:0:
119,282,93282,1,8,0:3:0:0:
179,274,93363,2,0,P|204:255|217:235,1,53.9999983520508,8|8,0:3|0:3,0:0:0:0:
331,95,93524,5,14,0:3:0:0:
331,95,93846,2,0,P|376:85|418:95,1,90,10|2,0:0|0:0,0:0:0:0:
512,212,94169,2,0,P|467:202|425:212,1,90,8|2,0:3|0:0,0:0:0:0:
216,236,94491,2,0,P|261:226|303:236,1,90,8|2,0:0|0:0,0:0:0:0:
434,301,94814,5,8,0:3:0:0:
434,301,95136,2,0,L|424:202,1,90,10|2,0:0|0:0,0:0:0:0:
293,325,95459,2,0,L|303:226,1,90,8|2,0:3|0:0,0:0:0:0:
187,280,95782,2,0,L|177:181,1,90,8|2,0:0|0:0,0:0:0:0:
89,349,96104,6,0,P|26:346|8:239,2,180,10|10|8,0:3|0:0|0:3,0:0:0:0:
187,280,96911,1,2,0:0:0:0:
187,280,97072,1,8,0:0:0:0:
49,172,97233,2,0,B|146:144|135:208|225:179,1,180,2|2,0:0|0:0,0:0:0:0:
329,204,97717,1,10,0:0:0:0:
312,17,97878,2,0,L|291:121,1,90,2|8,0:0|0:3,0:0:0:0:
422,215,98201,2,0,L|404:126,1,90,2|8,0:0|0:0,0:0:0:0:
498,24,98524,1,10,0:3:0:0:
219,6,98685,5,14,0:3:0:0:
257,88,98846,1,10,0:3:0:0:
312,17,99007,1,8,0:0:0:0:
49,62,99169,6,0,B|10:106|10:106|135:91,1,180,14|8,0:3|0:3,0:0:0:0:
181,276,99653,2,0,L|170:170,1,90,8|0,0:0|0:0,0:0:0:0:
333,136,99975,5,14,0:3:0:0:
402,229,100136,1,10,0:3:0:0:
285,247,100298,1,8,0:0:0:0:
457,46,100459,6,0,B|413:7|413:7|428:132,1,180,14|8,0:3|0:3,0:0:0:0:
512,290,100943,2,0,L|494:184,1,90,8|0,0:0|0:0,0:0:0:0:
333,136,101265,5,10,0:0:0:0:
194,285,101427,1,0,0:0:0:0:
330,122,101588,5,10,0:0:0:0:
314,341,101749,1,0,0:0:0:0:
327,108,101911,5,10,0:0:0:0:
440,332,102072,1,0,0:0:0:0:
324,94,102233,5,10,0:0:0:0:
194,285,102395,2,0,P|112:310|37:261,1,175.499991966248,14|0,0:3|0:0,0:0:0:0:
55,149,102717,2,0,P|136:123|209:168,1,175.499991966248,10|0,0:3|0:0,0:0:0:0:
306,241,103040,6,0,B|405:217|390:276|482:246,1,180,14|8,0:3|0:3,0:0:0:0:
501,151,103443,1,8,0:3:0:0:
498,127,103524,1,8,0:0:0:0:
496,103,103604,1,8,0:0:0:0:
493,79,103685,1,8,0:3:0:0:
490,55,103765,1,8,0:3:0:0:
487,32,103846,5,6,0:0:0:0:
293,156,108524,5,8,0:3:0:0:
293,156,108604,1,8,0:3:0:0:
293,156,108685,2,0,P|319:151|331:127,1,47.2499985580445,12|0,0:0|0:0,0:0:0:0:
239,86,109007,6,0,L|257:245,1,144,12|8,0:3|0:3,0:0:0:0:
308,307,109491,2,0,P|272:322|236:319,1,72,0|8,0:0|0:3,0:0:0:0:
97,246,109814,1,0,0:0:0:0:
97,246,109975,2,0,P|133:261|169:258,1,72,8|0,0:3|0:0,0:0:0:0:
283,158,110298,6,0,P|330:117|409:126,1,144,8|8,0:3|0:3,0:0:0:0:
481,181,110782,1,0,0:0:0:0:
398,296,110943,6,0,L|249:275,1,144,8|10,0:3|0:3,0:0:0:0:
172,198,111427,1,2,0:0:0:0:
90,355,111588,6,0,P|32:352|28:273,2,144,8|8|8,0:3|0:3|0:3,0:0:0:0:
172,198,112556,2,0,L|164:118,1,72,8|0,0:3|0:0,0:0:0:0:
118,49,112878,6,0,P|165:36|198:44,1,72,8|0,0:3|0:0,0:0:0:0:
350,133,113201,1,8,0:0:0:0:
260,185,113362,2,0,L|252:105,1,72,8|0,0:3|0:0,0:0:0:0:
316,42,113685,1,10,0:3:0:0:
476,139,113846,2,0,L|468:210,1,72,8|8,0:0|0:3,0:0:0:0:
389,289,114169,6,0,P|267:257|254:273,1,161.999995056153,14|8,0:3|0:0,0:0:0:0:
141,270,114653,1,10,0:3:0:0:
141,270,114814,2,0,P|19:302|6:286,1,161.999995056153,2|8,0:0|0:0,0:0:0:0:
240,104,115459,6,0,L|260:274,1,161.999995056153,8|8,0:3|0:0,0:0:0:0:
328,348,115943,1,8,0:3:0:0:
328,348,116104,2,0,P|369:358|407:346,1,80.9999975280763,2|8,0:0|0:3,0:0:0:0:
503,249,116427,2,0,P|462:259|424:247,1,80.9999975280763,10|0,0:0|0:0,0:0:0:0:
288,168,116749,6,0,P|351:157|346:67,1,161.999995056153,10|10,0:3|0:0,0:0:0:0:
235,0,117233,2,0,L|248:82,1,80.9999975280763,10|0,0:3|0:0,0:0:0:0:
175,236,117556,1,2,0:0:0:0:
175,236,117717,2,0,L|187:155,1,80.9999975280763,10|2,0:0|0:0,0:0:0:0:
288,168,118040,6,0,P|351:179|346:269,1,161.999995056153,8|8,0:3|0:0,0:0:0:0:
287,344,118524,1,8,0:3:0:0:
287,344,118685,2,0,L|202:331,1,80.9999975280763,2|8,2:0|2:3,2:0:0:0:
13,371,119007,2,0,L|98:358,1,80.9999975280763,10|0,2:0|2:0,2:0:0:0:
259,244,119330,6,0,L|236:81,1,161.999995056153,10|10,0:3|0:0,0:0:0:0:
132,135,119814,2,0,P|85:142|47:129,1,80.9999975280763,10|0,0:3|0:0,0:0:0:0:
51,28,120136,1,2,0:0:0:0:
51,28,120298,2,0,P|98:21|136:34,1,80.9999975280763,10|2,0:0|0:0,0:0:0:0:
236,83,120620,6,0,B|316:107|316:107|392:75,1,161.999995056153,10|8,0:3|0:0,0:0:0:0:
388,76,121104,1,8,0:3:0:0:
496,169,121265,2,0,L|481:257,1,80.9999975280763,2|8,0:0|0:3,0:0:0:0:
300,249,121588,2,0,P|360:265|367:332,1,121.499996292114,8|0,0:0|0:0,0:0:0:0:
373,317,121911,6,0,L|204:336,1,161.999995056153,10|8,0:3|0:0,0:0:0:0:
92,232,122395,1,8,0:3:0:0:
189,100,122556,6,0,B|219:146|219:146|184:254,1,161.999995056153,2|8,0:0|0:0,0:0:0:0:
117,325,123040,1,0,0:0:0:0:
11,223,123201,6,0,L|104:233,1,80.9999975280763,10|0,0:3|0:0,0:0:0:0:
293,327,123524,2,0,L|208:336,1,80.9999975280763,10|0,0:0|0:0,0:0:0:0:
246,186,123846,1,10,0:3:0:0:
246,186,124007,1,0,0:0:0:0:
399,327,124169,1,10,0:0:0:0:
442,332,124249,1,8,0:3:0:0:
484,317,124330,1,8,0:3:0:0:
507,278,124411,1,8,0:3:0:0:
498,234,124491,6,0,P|455:240|416:225,1,80.9999975280763,14|0,0:3|0:0,0:0:0:0:
372,136,124814,1,0,0:0:0:0:
357,302,124975,6,0,P|330:267|323:226,1,80.9999975280763,10|0,0:3|0:0,0:0:0:0:
471,147,125298,1,10,0:3:0:0:
272,131,125459,5,10,0:0:0:0:
365,56,125620,2,0,L|373:148,1,80.9999975280763,2|8,0:0|0:3,0:0:0:0:
176,272,125943,5,2,0:0:0:0:
190,96,126104,1,2,0:0:0:0:
340,219,126265,2,0,P|386:225|424:209,1,80.9999975280763,10|0,0:3|0:0,0:0:0:0:
450,0,126588,5,10,0:3:0:0:
365,56,126749,1,10,0:0:0:0:
457,99,126911,1,2,0:0:0:0:
340,219,127072,6,0,P|273:204|203:267,1,161.999995056153,10|0,0:3|0:0,0:0:0:0:
0,315,127556,2,0,P|67:300|137:363,1,161.999995056153,10|8,0:3|0:3,0:0:0:0:
241,371,128040,1,10,0:0:0:0:
241,371,128201,1,2,0:0:0:0:
466,343,128362,6,0,P|460:293|388:303,2,121.499996292114,10|2|10,0:3|0:0|0:3,0:0:0:0:
223,225,129007,2,0,P|229:175|301:185,2,121.499996292114,2|2|10,0:0|0:0|0:3,0:0:0:0:
310,260,129572,1,8,0:3:0:0:
310,260,129653,6,0,L|321:84,1,161.999995056153,14|0,0:3|0:0,0:0:0:0:
507,261,130136,2,0,L|496:85,1,161.999995056153,10|8,0:3|0:3,0:0:0:0:
320,98,130620,2,0,P|278:108|235:93,1,80.9999975280763,10|0,0:0|0:0,0:0:0:0:
117,19,130943,6,0,L|131:107,1,80.9999975280763,10|0,0:3|0:0,0:0:0:0:
194,195,131265,2,0,L|181:274,1,80.9999975280763,2|8,0:0|0:3,0:0:0:0:
242,97,131588,2,0,P|281:108|320:98,1,80.9999975280763,2|8,0:0|0:3,0:0:0:0:
95,192,131911,1,10,0:0:0:0:
315,335,132072,5,8,0:3:0:0:
315,335,132153,1,8,0:3:0:0:
315,335,132233,2,0,P|382:338|410:212,1,215.999993408203,8|8,0:0|0:0,0:0:0:0:
350,106,132717,1,0,0:0:0:0:
80,217,132878,6,0,B|202:179|184:253|297:212,1,215.999993408203,10|8,0:0|0:0,0:0:0:0:
473,113,133362,1,2,0:0:0:0:
224,20,133524,5,10,0:0:0:0:
166,8,133604,1,8,0:0:0:0:
107,17,133685,2,0,P|79:28|57:49,1,53.9999983520508,8|8,0:0|0:0,0:0:0:0:
80,217,133846,5,10,0:0:0:0:
138,229,133926,1,8,0:0:0:0:
197,220,134007,2,0,P|225:209|247:188,1,53.9999983520508,8|8,0:0|0:0,0:0:0:0:
393,112,134169,5,10,0:0:0:0:
477,284,134330,1,2,0:0:0:0:
471,293,134491,1,2,0:0:0:0:
464,284,134653,1,2,0:0:0:0:
420,21,134814,6,0,B|300:0|340:93|206:62,1,215.999993408203,14|10,0:3|0:0,0:0:0:0:
48,182,135298,2,0,L|29:61,1,107.999996704102,2|8,0:0|0:3,0:0:0:0:
193,281,135620,2,0,L|212:160,1,107.999996704102,2|8,0:0|0:0,0:0:0:0:
41,353,135943,6,0,P|67:283|199:287,1,215.999993408203,2|0,0:0|0:0,0:0:0:0:
374,359,136427,2,0,P|435:368|490:349,1,107.999996704102,10|0,0:0|0:0,0:0:0:0:
506,198,136749,1,10,0:3:0:0:
506,198,136911,1,2,0:0:0:0:
289,129,137072,2,0,L|308:252,1,107.999996704102,10|2,0:0|0:0,0:0:0:0:
478,31,137395,6,0,B|418:37|390:85|390:85|364:37|303:25,1,215.999993408203,10|10,0:3|0:0,0:0:0:0:
100,80,137878,2,0,L|216:57,1,107.999996704102,2|8,0:0|0:3,0:0:0:0:
393,196,138201,2,0,P|407:249|381:306,1,107.999996704102,2|8,0:0|0:0,0:0:0:0:
124,294,138524,6,0,L|98:66,1,215.999993408203,2|2,0:0|0:0,0:0:0:0:
236,175,139007,1,10,0:0:0:0:
236,175,139169,1,0,0:0:0:0:
403,37,139330,2,0,P|457:20|507:31,1,107.999996704102,10|0,0:3|0:0,0:0:0:0:
291,254,139653,2,0,P|237:271|187:260,1,107.999996704102,10|0,0:0|0:0,0:0:0:0:
55,48,139975,6,0,B|98:6|98:6|87:171,1,215.999993408203,14|8,0:3|0:0,0:0:0:0:
100,367,140459,1,10,0:3:0:0:
32,285,140620,2,0,L|149:262,1,107.999996704102,0|8,0:0|0:3,0:0:0:0:
287,361,140943,2,0,L|267:182,1,161.999995056153,8|0,0:0|0:0,0:0:0:0:
252,108,141265,6,0,P|290:33|403:72,1,215.999993408203,14|8,0:3|0:0,0:0:0:0:
405,229,141749,1,10,0:3:0:0:
305,275,141911,2,0,L|322:161,1,107.999996704102,0|8,0:0|0:3,0:0:0:0:
492,168,142233,2,0,L|507:274,1,107.999996704102,10|0,0:0|0:0,0:0:0:0:
369,353,142556,6,0,P|293:373|205:274,1,215.999993408203,12|10,0:3|0:0,0:0:0:0:
61,172,143040,2,0,L|49:283,1,107.999996704102,2|8,0:0|0:3,0:0:0:0:
125,81,143362,2,0,P|69:65|17:72,1,107.999996704102,2|8,0:0|0:0,0:0:0:0:
205,282,143685,6,0,P|258:287|309:271,1,107.999996704102,10|0,0:3|0:0,0:0:0:0:
470,106,144007,1,10,0:3:0:0:
256,43,144169,1,8,0:0:0:0:
485,111,144330,2,0,L|492:229,1,107.999996704102,10|0,0:3|0:0,0:0:0:0:
317,354,144653,5,10,0:3:0:0:
290,360,144733,1,8,0:3:0:0:
262,359,144814,1,10,0:3:0:0:
236,349,144895,1,8,0:3:0:0:
217,329,144975,1,10,0:3:0:0:
211,302,145056,1,8,0:3:0:0:
215,275,145136,6,0,P|281:246|314:358,1,215.999993408203,14|10,0:3|0:0,0:0:0:0:
124,328,145620,2,0,P|114:265|134:217,1,107.999996704102,2|8,0:0|0:3,0:0:0:0:
185,72,145943,2,0,P|225:121|231:173,1,107.999996704102,2|8,0:0|0:0,0:0:0:0:
5,175,146265,6,0,P|57:131|118:241,1,215.999993408203,2|2,0:0|0:0,0:0:0:0:
286,345,146749,1,10,0:0:0:0:
286,345,146911,1,2,0:0:0:0:
375,192,147072,2,0,P|428:175|477:187,1,107.999996704102,10|0,0:3|0:0,0:0:0:0:
482,286,147395,2,0,P|429:303|380:291,1,107.999996704102,10|0,0:0|0:0,0:0:0:0:
267,26,147717,6,0,L|285:247,1,215.999993408203,10|8,0:3|0:0,0:0:0:0:
379,290,148201,1,0,0:0:0:0:
155,371,148362,6,0,P|77:364|78:248,1,215.999993408203,10|8,0:3|0:0,0:0:0:0:
240,129,148846,1,0,0:0:0:0:
92,6,149007,6,0,L|119:129,1,107.999996704102,10|0,0:3|0:0,0:0:0:0:
220,244,149330,2,0,P|268:246|320:218,1,107.999996704102,10|0,0:0|0:0,0:0:0:0:
467,124,149653,2,0,P|419:126|367:98,1,107.999996704102,10|0,0:3|0:0,0:0:0:0:
216,23,149975,2,0,L|243:146,1,107.999996704102,10|0,0:0|0:0,0:0:0:0:
353,330,150298,6,0,P|409:272|312:222,1,215.999993408203,14|8,0:3|0:0,0:0:0:0:
220,244,150782,1,8,0:3:0:0:
115,154,150943,5,2,0:0:0:0:
115,154,151104,1,10,0:3:0:0:
213,145,151265,1,10,0:0:0:0:
213,145,151427,1,0,0:0:0:0:
123,250,151588,5,10,0:3:0:0:
149,62,151749,1,10,0:3:0:0:
130,247,151911,1,10,0:0:0:0:
158,58,152072,1,10,0:3:0:0:
297,194,152233,5,2,0:0:0:0:
56,80,152395,1,10,0:3:0:0:
308,9,152556,2,0,P|369:1|417:18,1,107.999996704102,10|2,0:0|0:0,0:0:0:0:
316,354,152878,6,0,L|294:175,1,161.999995056153,12|0,0:3|0:0,0:0:0:0:
225,136,153201,1,8,0:0:0:0:
35,205,153362,1,2,0:0:0:0:
229,261,153524,1,8,0:3:0:0:
105,101,153685,1,2,0:0:0:0:
112,303,153847,1,10,0:0:0:0:
225,136,154007,6,0,B|385:102|385:102|339:163,1,215.999993408203,14|0,0:3|0:0,0:0:0:0:
247,273,154491,1,8,0:0:0:0:
23,208,154653,1,2,0:0:0:0:
243,129,154814,1,10,0:3:0:0:
112,322,154975,1,2,0:0:0:0:
104,88,155137,1,10,0:0:0:0:
247,273,155298,6,0,P|315:285|332:155,1,215.999993408203,14|0,0:3|0:0,0:0:0:0:
94,64,155782,1,8,0:0:0:0:
104,342,155944,1,2,0:0:0:0:
259,113,156105,1,10,0:3:0:0:
0,207,156266,1,2,0:0:0:0:
265,285,156428,1,10,0:0:0:0:
15,34,156588,6,0,P|19:107|141:135,1,215.999993408203,14|0,0:3|0:0,0:0:0:0:
371,91,157072,1,8,0:0:0:0:
241,6,157233,1,2,0:0:0:0:
241,6,157395,2,0,L|259:115,1,107.999996704102,8|8,0:3|0:3,0:0:0:0:
424,228,157717,1,10,0:0:0:0:
488,26,157878,1,10,0:3:0:0:
282,202,158040,6,0,P|225:199|180:162,1,107.999996704102,14|0,0:3|0:0,0:0:0:0:
405,321,158362,2,0,P|462:318|507:281,1,107.999996704102,10|0,0:0|0:0,0:0:0:0:
406,121,158685,2,0,L|425:238,1,107.999996704102,10|0,0:3|0:0,0:0:0:0:
275,5,159007,2,0,L|256:122,1,107.999996704102,10|0,0:0|0:0,0:0:0:0:
263,300,159330,5,14,0:0:0:0:
68,145,159491,1,8,0:3:0:0:
307,207,159653,5,10,0:0:0:0:
68,289,159814,1,8,0:3:0:0:
339,366,159975,5,10,0:0:0:0:
391,378,160056,1,8,0:3:0:0:
443,365,160136,2,0,P|470:350|491:327,1,53.9999983520508,10|8,0:3|0:3,0:0:0:0:
454,174,160298,5,10,0:0:0:0:
402,162,160379,1,8,0:3:0:0:
350,175,160459,2,0,P|323:190|302:213,1,53.9999983520508,8|8,0:3|0:3,0:0:0:0:
197,308,160620,6,0,P|107:329|54:237,1,198.000006042481,14|8,0:3|0:0,0:0:0:0:
141,111,161104,1,2,0:0:0:0:
141,111,161185,1,2,0:0:0:0:
141,111,161265,2,0,L|152:216,1,99.0000030212403,10|2,0:3|0:0,0:0:0:0:
289,334,161588,2,0,P|319:330|345:314,1,49.5000015106202,10|2,0:0|0:0,0:0:0:0:
473,264,161749,2,0,P|443:260|417:244,1,49.5000015106202,2|0,0:0|0:0,0:0:0:0:
370,183,161911,6,0,L|395:385,2,198.000006042481,8|8|10,0:3|0:0|0:3,0:0:0:0:
464,119,162717,1,0,0:0:0:0:
270,29,162878,2,0,P|219:16|164:39,1,99.0000030212403,10|0,0:0|0:0,0:0:0:0:
27,145,163201,6,0,L|44:349,1,198.000006042481,10|8,0:3|0:0,0:0:0:0:
145,374,163685,1,0,0:0:0:0:
236,217,163846,6,0,B|314:205|314:205|349:222|349:222|432:207,1,198.000006042481,10|8,0:3|0:0,0:0:0:0:
501,143,164330,1,0,0:0:0:0:
219,119,164491,6,0,L|237:224,1,99.0000030212403,10|0,0:3|0:0,0:0:0:0:
411,305,164814,2,0,L|427:207,1,99.0000030212403,10|0,0:0|0:0,0:0:0:0:
264,316,165136,2,0,P|214:320|170:293,1,99.0000030212403,10|0,0:3|0:0,0:0:0:0:
43,224,165459,2,0,P|85:199|134:204,1,99.0000030212403,10|0,0:0|0:0,0:0:0:0:
473,104,165782,6,0,P|402:111|430:208,1,198.000006042481,14|8,0:3|0:0,0:0:0:0:
346,29,166265,2,0,P|295:92|299:214,1,198.000006042481,10|8,0:3|0:3,0:0:0:0:
360,304,166749,1,10,0:0:0:0:
360,304,166911,1,2,0:0:0:0:
153,368,167072,6,0,P|114:289|198:264,1,198.000006042481,14|8,0:3|0:0,0:0:0:0:
21,365,167555,2,0,P|15:268|72:189,1,198.000006042481,10|8,0:3|0:3,0:0:0:0:
210,155,168040,1,10,0:0:0:0:
210,155,168201,1,2,0:0:0:0:
53,91,168362,6,0,L|75:204,1,99.0000030212403,14|0,0:3|0:0,0:0:0:0:
180,277,168685,1,10,0:0:0:0:
314,81,168846,2,0,L|299:192,1,99.0000030212403,2|8,0:0|0:3,0:0:0:0:
193,375,169169,2,0,L|179:276,1,99.0000030212403,2|8,0:0|0:0,0:0:0:0:
134,34,169491,6,0,P|84:17|54:93,1,148.50000453186,10|0,0:3|0:0,0:0:0:0:
52,90,169814,2,0,L|69:192,1,99.0000030212403,10|8,0:3|0:0,0:0:0:0:
253,265,170136,2,0,B|364:228|335:307|451:263,1,198.000006042481,10|8,0:3|0:3,0:0:0:0:
495,203,170539,1,8,0:3:0:0:
492,183,170620,1,8,0:0:0:0:
489,163,170701,1,8,0:3:0:0:
486,143,170781,1,8,0:3:0:0:
483,123,170862,1,8,0:3:0:0:
480,103,170943,5,12,0:3:0:0:
480,103,171265,2,0,P|431:89|385:101,1,99.0000030212403,10|0,0:0|0:0,0:0:0:0:
300,280,171588,2,0,P|336:244|349:198,1,99.0000030212403,10|0,0:3|0:0,0:0:0:0:
237,36,171911,2,0,P|249:85|282:119,1,99.0000030212403,10|0,0:0|0:0,0:0:0:0:
460,293,172233,5,8,0:3:0:0:
460,293,172556,2,0,L|448:192,1,99.0000030212403,10|0,0:0|0:0,0:0:0:0:
295,374,172878,2,0,L|307:273,1,99.0000030212403,10|0,0:3|0:0,0:0:0:0:
138,327,173201,2,0,L|126:226,1,99.0000030212403,10|0,0:0|0:0,0:0:0:0:
256,194,173524,6,0,B|363:157|344:236|453:192,1,198.000006042481,10|8,0:3|0:0,0:0:0:0:
512,105,174007,1,0,0:0:0:0:
203,106,174169,6,0,L|239:327,1,198.000006042481,10|8,0:3|0:0,0:0:0:0:
309,366,174653,1,0,0:0:0:0:
482,307,174814,6,0,P|421:326|397:215,1,198.000006042481,10|8,0:3|0:0,0:0:0:0:
465,167,175298,1,0,0:0:0:0:
318,58,175459,6,0,B|247:71|247:71|217:51|217:51|128:64,1,198.000006042481,10|8,0:3|0:0,0:0:0:0:
59,136,175943,1,2,0:0:0:0:
186,338,176104,6,0,P|236:343|281:316,1,99.0000030212403,12|0,0:3|0:0,0:0:0:0:
311,226,176427,1,10,0:0:0:0:
188,155,176588,2,0,L|216:258,1,99.0000030212403,8|2,0:3|0:0,0:0:0:0:
370,307,176911,1,8,0:3:0:0:
499,224,177072,2,0,P|433:228|395:150,1,148.50000453186,10|0,0:0|0:0,0:0:0:0:
482,118,177395,5,12,0:3:0:0:
482,118,177556,1,8,0:3:0:0:
292,122,177717,1,8,0:0:0:0:
387,65,177878,2,0,L|393:168,1,99.0000030212403,10|0,0:3|0:0,0:0:0:0:
338,322,178201,1,8,0:0:0:0:
283,328,178282,1,8,0:0:0:0:
229,334,178362,1,8,0:0:0:0:
174,340,178443,1,8,0:0:0:0:
119,346,178524,1,8,0:0:0:0:
65,353,178604,1,8,0:0:0:0:
10,359,178685,6,0,P|61:309|14:241,1,161.999995056153,12|8,0:3|0:0,0:0:0:0:
110,176,179169,1,8,0:3:0:0:
0,67,179330,2,0,L|14:159,1,80.9999975280763,2|10,0:0|0:3,0:0:0:0:
121,285,179653,1,10,0:0:0:0:
202,125,179814,1,2,0:0:0:0:
202,125,179975,6,0,P|252:115|288:127,1,80.9999975280763,10|0,0:3|0:0,0:0:0:0:
244,290,180298,2,0,P|234:240|246:204,1,80.9999975280763,10|8,0:0|0:3,0:0:0:0:
409,248,180620,2,0,P|359:258|323:246,1,80.9999975280763,2|8,0:0|0:3,0:0:0:0:
367,83,180943,2,0,P|377:133|365:169,1,80.9999975280763,10|0,0:0|0:0,0:0:0:0:
202,125,181265,6,0,P|131:102|69:162,1,161.999995056153,10|8,0:3|0:0,0:0:0:0:
54,247,181749,1,8,0:3:0:0:
162,297,181911,2,0,L|149:199,1,80.9999975280763,2|10,0:0|0:3,0:0:0:0:
283,148,182233,1,10,0:0:0:0:
382,346,182395,6,0,P|441:372|508:303,1,161.999995056153,10|8,0:3|0:3,0:0:0:0:
370,198,182878,1,10,0:0:0:0:
274,254,183040,2,0,L|286:341,1,80.9999975280763,2|0,0:0|0:0,0:0:0:0:
375,97,183362,1,10,0:3:0:0:
200,20,183524,1,8,0:0:0:0:
148,14,183604,1,8,0:0:0:0:
95,17,183685,1,8,0:0:0:0:
45,33,183765,1,8,0:0:0:0:
5,67,183846,6,0,L|31:228,1,161.999995056153,12|0,0:0|0:0,0:0:0:0:
86,311,184169,5,8,0:0:0:0:
248,102,184330,1,8,0:3:0:0:
301,332,184491,5,10,0:0:0:0:
128,93,184653,1,10,0:3:0:0:
185,371,184814,5,10,0:0:0:0:
360,148,184975,1,2,0:0:0:0:
47,44,185136,6,0,P|32:96|51:150,1,107.999996704102,8|8,0:0|0:3,0:0:0:0:
246,252,185459,5,10,0:0:0:0:
446,134,185620,1,8,0:3:0:0:
199,137,185782,5,10,0:0:0:0:
457,254,185943,1,8,0:3:0:0:
129,233,186104,5,10,0:0:0:0:
461,131,186265,1,8,0:3:0:0:
100,42,186427,6,0,B|62:19|62:19|97:146,1,161.999995056153,14|8,0:3|0:0,0:0:0:0:
238,248,186911,2,0,P|313:223|381:284,1,161.999995056153,8|8,0:3|0:3,0:0:0:0:
292,352,187395,1,8,0:0:0:0:
512,248,187556,6,0,P|437:223|369:284,1,161.999995056153,14|10,0:3|0:3,0:0:0:0:
292,352,188040,1,8,0:0:0:0:
292,352,188201,1,10,0:3:0:0:
151,245,188362,1,8,0:3:0:0:
151,245,188524,1,10,0:3:0:0:
48,376,188685,1,8,0:0:0:0:
85,151,188846,6,0,B|238:116|238:116|203:174,1,215.999993408203,14|10,0:3|0:3,0:0:0:0:
47,259,189330,1,8,0:0:0:0:
124,49,189491,1,10,0:3:0:0:
252,263,189653,5,10,0:0:0:0:
252,263,189733,1,8,0:0:0:0:
252,263,189814,2,0,P|279:275|313:273,1,53.9999983520508,10|8,0:0|0:0,0:0:0:0:
501,270,189975,5,10,0:0:0:0:
495,210,190056,1,8,0:0:0:0:
490,151,190136,1,10,0:0:0:0:
482,91,190217,1,8,0:0:0:0:
475,31,190298,1,2,0:0:0:0:
256,192,198040,12,8,199007,0:0:0:0:
312,86,199169,6,0,B|248:55|248:55|105:99,1,215.999993408203,10|10,0:3|0:3,0:0:0:0:
24,146,199653,1,8,0:0:0:0:
236,302,199814,6,0,L|245:176,1,107.999996704102,10|0,0:3|0:0,0:0:0:0:
418,33,200136,1,10,0:3:0:0:
463,61,200217,1,8,0:3:0:0:
485,110,200298,1,10,0:3:0:0:
484,163,200378,1,8,0:3:0:0:
458,210,200459,1,10,0:3:0:0:
410,236,200540,1,8,0:3:0:0:
356,231,200620,5,10,0:3:0:0:
353,220,200701,1,8,0:3:0:0:
350,209,200782,1,8,0:3:0:0:
347,198,200862,1,8,0:3:0:0:
345,187,200943,5,14,0:0:0:0:
170,278,201104,1,2,0:0:0:0:
388,105,201265,1,8,0:3:0:0:
129,54,201427,1,2,0:0:0:0:
129,54,201507,1,2,0:0:0:0:
129,54,201588,1,8,0:0:0:0:
429,206,201749,6,0,P|481:159|430:9,1,233.999989288331,2|2,0:0|0:0,0:0:0:0:
242,174,202233,1,10,0:0:0:0:
242,174,202395,1,2,0:0:0:0:
129,54,202556,2,0,P|62:44|17:69,1,116.999994644165,10|0,0:3|0:0,0:0:0:0:
124,286,202878,2,0,L|131:153,1,116.999994644165,10|0,0:0|0:0,0:0:0:0:
308,44,203201,6,0,B|488:14|488:14|452:71,1,233.999989288331,10|8,0:3|0:0,0:0:0:0:
406,137,203685,1,0,0:0:0:0:
197,6,203846,6,0,L|233:252,1,233.999989288331,10|8,0:3|0:0,0:0:0:0:
323,299,204330,1,0,0:0:0:0:
133,277,204491,6,0,P|164:326|219:346,1,116.999994644165,10|0,0:3|0:0,0:0:0:0:
439,307,204814,2,0,L|311:298,1,116.999994644165,10|0,0:0|0:0,0:0:0:0:
246,129,205136,2,0,P|219:180|230:237,1,116.999994644165,10|0,0:3|0:0,0:0:0:0:
102,354,205459,2,0,L|230:345,1,116.999994644165,10|0,0:0|0:0,0:0:0:0:
439,307,205782,6,0,P|506:265|441:148,1,233.999989288331,14|8,0:3|0:0,0:0:0:0:
342,224,206265,1,8,0:3:0:0:
280,112,206427,1,2,0:0:0:0:
280,112,206588,1,10,0:3:0:0:
186,243,206749,1,10,0:0:0:0:
186,243,206911,1,2,0:0:0:0:
376,112,207072,5,10,0:3:0:0:
145,49,207233,1,10,0:3:0:0:
254,136,207395,1,10,0:0:0:0:
254,135,207556,1,10,0:3:0:0:
436,0,207717,5,2,0:0:0:0:
318,260,207878,1,10,0:3:0:0:
145,49,208040,2,0,P|86:42|33:72,1,116.999994644165,10|2,0:0|0:0,0:0:0:0:
51,358,208362,6,0,P|113:380|189:309,1,175.499991966248,12|0,0:3|0:0,0:0:0:0:
185,234,208685,1,8,0:0:0:0:
295,38,208846,1,2,0:0:0:0:
318,260,209008,1,8,0:3:0:0:
168,95,209169,1,2,0:0:0:0:
386,142,209331,1,10,0:0:0:0:
185,234,209491,6,0,P|75:231|69:121,1,233.999989288331,14|0,0:3|0:0,0:0:0:0:
298,15,209975,1,8,0:0:0:0:
326,282,210137,1,2,0:0:0:0:
146,84,210298,1,10,0:3:0:0:
408,140,210460,1,2,0:0:0:0:
167,251,210621,1,10,0:0:0:0:
298,15,210782,6,0,B|487:21|487:21|444:54,1,233.999989288331,14|0,0:3|0:0,0:0:0:0:
157,264,211265,1,8,0:0:0:0:
304,0,211426,1,2,0:0:0:0:
335,298,211588,1,10,0:3:0:0:
133,77,211749,1,2,0:0:0:0:
427,139,211911,1,10,0:0:0:0:
168,360,212072,6,0,P|101:343|87:196,1,233.999989288331,14|2,0:3|0:0,0:0:0:0:
328,111,212556,1,10,0:0:0:0:
177,8,212717,1,2,0:0:0:0:
177,8,212878,2,0,L|198:129,1,116.999994644165,10|10,0:3|0:3,0:0:0:0:
368,264,213201,1,10,0:0:0:0:
168,360,213362,1,8,0:3:0:0:
437,201,213524,6,0,P|465:260|452:313,1,116.999994644165,14|0,0:3|0:0,0:0:0:0:
125,212,213846,2,0,L|252:183,1,116.999994644165,10|0,0:0|0:0,0:0:0:0:
368,264,214169,2,0,P|330:317|278:332,1,116.999994644165,10|0,0:3|0:0,0:0:0:0:
10,238,214491,2,0,L|137:209,1,116.999994644165,10|0,0:0|0:0,0:0:0:0:
330,56,214814,5,10,0:0:0:0:
151,320,214975,1,8,0:3:0:0:
155,51,215136,5,10,0:0:0:0:
331,323,215298,1,8,0:3:0:0:
330,56,215459,5,10,0:0:0:0:
386,40,215540,1,8,0:0:0:0:
443,47,215620,2,0,P|473:60|498:84,1,58.4999973220826,10|8,0:3|0:3,0:0:0:0:
478,236,215782,5,10,0:0:0:0:
422,252,215863,1,8,0:0:0:0:
365,245,215943,2,0,P|335:232|310:208,1,58.4999973220826,8|8,0:3|0:3,0:0:0:0:
202,138,216104,5,12,0:3:0:0:
202,138,216427,2,0,P|151:151|109:138,1,90,10|0,0:0|0:0,0:0:0:0:
7,8,216749,2,0,L|20:121,1,90,10|0,0:3|0:0,0:0:0:0:
23,288,217072,2,0,L|33:198,1,90,10|0,0:0|0:0,0:0:0:0:
216,37,217395,5,8,0:3:0:0:
216,37,217717,2,0,P|263:24|306:36,1,90,10|0,0:0|0:0,0:0:0:0:
498,122,218040,2,0,P|451:109|408:121,1,90,10|0,0:3|0:0,0:0:0:0:
206,196,218362,2,0,P|253:183|296:195,1,90,10|0,0:0|0:0,0:0:0:0:
463,343,218685,5,8,0:3:0:0:
463,343,219007,2,0,L|445:237,1,90,10|0,0:0|0:0,0:0:0:0:
307,104,219330,2,0,L|291:192,1,90,10|0,0:3|0:0,0:0:0:0:
366,376,219653,2,0,L|348:270,1,90,10|0,0:0|0:0,0:0:0:0:
198,132,219975,6,0,P|118:112|63:187,2,180,8|10|8,0:3|0:0|0:3,0:0:0:0:
377,194,220782,1,0,0:0:0:0:
491,62,220943,1,10,0:0:0:0:
491,62,221104,1,2,0:0:0:0:
315,18,221265,6,0,L|302:112,1,90,12|0,0:3|0:0,0:0:0:0:
273,209,221588,1,10,0:0:0:0:
48,160,221749,2,0,P|122:187|199:129,1,180,10|8,0:3|0:3,0:0:0:0:
315,18,222233,2,0,P|359:11|405:23,1,90,10|0,0:0|0:0,0:0:0:0:
468,163,222556,6,0,L|455:257,1,90,10|8,0:3|0:3,0:0:0:0:
401,346,222878,1,10,0:0:0:0:
208,268,223040,2,0,P|256:220|360:262,1,180,10|8,0:3|0:3,0:0:0:0:
218,357,223524,2,0,L|206:258,1,90,10|10,0:0|0:3,0:0:0:0:
33,200,223846,6,0,P|83:207|122:194,1,90,14|0,0:3|0:0,0:0:0:0:
260,77,224169,1,10,0:0:0:0:
353,250,224330,1,2,0:0:0:0:
421,122,224491,5,8,0:3:0:0:
421,122,224653,2,0,P|410:85|388:113,1,90,2|8,0:0|0:0,0:0:0:0:
167,216,224975,2,0,P|153:251|187:241,1,90,10|0,0:3|0:0,0:0:0:0:
427,289,225298,2,0,P|458:268|425:255,1,90,10|8,0:3|0:0,0:0:0:0:
260,77,225620,2,0,P|222:75|242:104,1,90,10|0,0:3|0:0,0:0:0:0:
270,347,225943,2,0,P|299:370|300:335,1,90,8|8,0:3|0:0,0:0:0:0:
421,122,226265,1,8,0:3:0:0:
421,122,226346,1,8,0:3:0:0:
421,122,226427,5,12,0:3:0:0:
421,122,226749,2,0,P|372:132|330:119,1,90,10|0,0:0|0:0,0:0:0:0:
287,264,227072,2,0,P|253:226|244:183,1,90,10|0,0:3|0:0,0:0:0:0:
97,218,227395,2,0,P|112:170|145:140,1,90,10|0,0:0|0:0,0:0:0:0:
222,21,227717,5,8,0:3:0:0:
222,21,228040,2,0,L|232:117,1,90,10|0,0:0|0:0,0:0:0:0:
422,147,228362,2,0,L|412:243,1,90,10|0,0:3|0:0,0:0:0:0:
246,274,228685,2,0,L|256:370,1,90,10|0,0:0|0:0,0:0:0:0:
433,156,229007,6,0,P|356:174|322:90,2,180,8|8|10,0:3|0:0|0:3,0:0:0:0:
363,14,229814,2,0,P|313:3|271:15,1,90,2|8,0:0|0:0,0:0:0:0:
47,157,230136,6,0,L|36:56,1,90,2|8,0:0|0:3,0:0:0:0:
229,101,230459,2,0,L|220:191,1,90,2|8,0:0|0:0,0:0:0:0:
130,353,230782,6,0,L|119:252,1,90,2|8,0:0|0:3,0:0:0:0:
340,116,231104,2,0,L|330:205,1,90,2|8,0:0|0:0,0:0:0:0:
166,27,231427,1,10,0:3:0:0:
166,27,231507,1,8,0:3:0:0:
166,27,231588,5,14,0:3:0:0:
243,114,231749,1,0,0:0:0:0:
130,148,231911,1,8,0:0:0:0:
425,19,232072,6,0,B|290:33|290:33|318:46|333:66,1,180,14|8,0:3|0:3,0:0:0:0:
419,209,232556,2,0,L|404:105,1,90,10|2,0:0|0:0,0:0:0:0:
243,114,232878,5,14,0:3:0:0:
159,196,233040,1,10,0:3:0:0:
128,83,233201,1,8,0:0:0:0:
28,277,233362,6,0,B|126:251|107:314|208:281,1,180,14|8,0:3|0:3,0:0:0:0:
329,105,233846,2,0,L|316:194,1,90,10|2,0:0|0:0,0:0:0:0:
395,369,234169,6,0,P|455:355|435:278,1,135,14|0,0:3|0:0,0:0:0:0:
453,291,234491,2,0,P|409:279|367:289,1,90,8|0,0:0|0:0,0:0:0:0:
220,366,234814,1,8,0:3:0:0:
220,366,234975,1,0,0:0:0:0:
123,240,235136,1,8,0:0:0:0:
294,100,235298,6,0,B|338:69|338:69|313:205,1,180,10|8,0:3|0:3,0:0:0:0:
36,292,235782,2,0,P|26:243|35:202,1,90,10|8,0:0|0:3,0:0:0:0:
226,276,236104,1,2,0:0:0:0:
342,107,236265,1,8,0:3:0:0:
344,93,236346,1,8,0:3:0:0:
347,79,236427,5,10,0:0:0:0:
304,54,236507,1,8,0:3:0:0:
254,54,236588,1,8,0:3:0:0:
208,73,236669,1,8,0:3:0:0:
159,69,236749,1,6,0:0:0:0:
256,192,236830,12,0,239330,0:0:0:0:
