osu file format v14

[General]
AudioFilename: audio.mp3
AudioLeadIn: 0
PreviewTime: 134330
Countdown: 0
SampleSet: Soft
StackLeniency: 0.4
Mode: 0
LetterboxInBreaks: 0
WidescreenStoryboard: 1

[Editor]
DistanceSpacing: 1.3
BeatDivisor: 4
GridSize: 16
TimelineZoom: 2.699999

[Metadata]
Title:Just Believe!!!
TitleUnicode:Just Believe!!!
Artist:Nijigasaki High School Idol Club
ArtistUnicode:虹ヶ咲学園スクールアイドル同好会
Creator:MiyohashiKoori
Version:Chu's Hard
Source:ラブライブ!虹ヶ咲学園スクールアイドル同好会
Tags:LoveLive! pop Love Live! school idol project anime Ayaka Miyake ygarshy PASSiON KiNG ニジガク NijiGaku 3rd album japanese video game j-pop jpop 上原歩夢 Uehara Ayumu 大西亜玖璃 Onishi Aguri 中須かすみ Nakasu Kasumi 相良茉優 Sagara Mayu 桜坂しずく Osaka Shizuku 前田佳織里 Maeda Kaori 朝香果林 Asaka Karin 久保田未夢 Kubota Miyu 宮下愛 Miyashita Ai 村上奈津実 Murakami Natsumi 近江彼方 Konoe Kanata 鬼頭明里 Kito Akari 優木せつ菜 Yuki Setsuna 楠木ともり Kusunoki Tomori エマ・ヴェルデ Emma Verde 指出毬亜 Sashide Maria 天王寺璃奈 Tennoji Rina 田中ちえ美 Tanaka Chiemi 三船栞子 Mifune Shioriko 小泉萌香 Koizumi Moeka Ōnishi Oonishi Ohnishi Ousaka Kitō Kitou Yuuki Tennouji gakuen doukoukai dōkōkai スクールアイドルフェスティバル ALL STARS スクスタ festival caps zyoi enjoy enju -_e_n_j_u_- arronchu1207 Karcher [Karcher]
BeatmapID:3324236
BeatmapSetID:1522615

[Difficulty]
HPDrainRate:4
CircleSize:4
OverallDifficulty:6.5
ApproachRate:8
SliderMultiplier:1.3
SliderTickRate:1

[Events]
//Background and Video events
0,0,"84970229_p0_master1200.jpg",0,0
//Break Periods
2,104046,107774
2,190498,197290
//Storyboard Layer 0 (Background)
//Storyboard Layer 1 (Fail)
//Storyboard Layer 2 (Pass)
//Storyboard Layer 3 (Foreground)
//Storyboard Layer 4 (Overlay)
//Storyboard Sound Samples

[TimingPoints]
539,545.454545454546,4,2,1,60,1,0
21266,322.58064516129,4,2,1,60,1,0
21266,-133.333333333333,4,2,1,60,0,0
26427,-95.2380952380952,4,2,1,80,0,0
35298,-95.2380952380952,4,2,1,80,0,0
36265,-95.2380952380952,4,2,2,80,0,0
36427,-95.2380952380952,4,2,1,80,0,0
36507,-95.2380952380952,4,2,2,80,0,0
36749,-105.263157894737,4,2,1,70,0,0
61427,-105.263157894737,4,2,1,5,0,0
61507,-105.263157894737,4,2,1,70,0,0
61669,-105.263157894737,4,2,1,5,0,0
61749,-105.263157894737,4,2,1,70,0,0
67072,-105.263157894737,4,2,2,70,0,0
67112,-105.263157894737,4,2,2,5,0,0
67233,-105.263157894737,4,2,1,70,0,0
67274,-105.263157894737,4,2,1,5,0,0
67395,-105.263157894737,4,2,1,70,0,0
67435,-105.263157894737,4,2,1,5,0,0
67556,-105.263157894737,4,2,1,70,0,0
67596,-105.263157894737,4,2,1,5,0,0
67717,-86.9565217391304,4,2,1,80,0,1
77556,-86.9565217391304,4,2,2,80,0,1
78040,-86.9565217391304,4,2,1,80,0,1
85701,-86.9565217391304,4,2,1,5,0,1
85782,-86.9565217391304,4,2,1,80,0,1
93524,-95.2380952380952,4,2,1,70,0,0
103362,-95.2380952380952,4,2,2,70,0,0
103524,-95.2380952380952,4,2,1,70,0,0
103846,-105.263157894737,4,2,1,50,0,0
108685,-105.263157894737,4,2,1,60,0,0
108927,-105.263157894737,4,2,1,5,0,0
109007,-105.263157894737,4,2,1,60,0,0
114169,-105.263157894737,4,2,1,70,0,0
128524,-105.263157894737,4,2,1,5,0,0
128604,-105.263157894737,4,2,1,70,0,0
128765,-105.263157894737,4,2,1,5,0,0
128846,-105.263157894737,4,2,1,70,0,0
134169,-105.263157894737,4,2,2,70,0,0
134209,-105.263157894737,4,2,2,5,0,0
134330,-105.263157894737,4,2,1,70,0,0
134370,-105.263157894737,4,2,1,5,0,0
134491,-105.263157894737,4,2,1,70,0,0
134532,-105.263157894737,4,2,1,5,0,0
134653,-105.263157894737,4,2,1,70,0,0
134693,-105.263157894737,4,2,1,5,0,0
134814,-86.9565217391304,4,2,1,80,0,1
139975,-86.9565217391304,4,2,1,80,0,1
142556,-86.9565217391304,4,2,1,80,0,1
152798,-86.9565217391304,4,2,1,5,0,1
152878,-86.9565217391304,4,2,1,80,0,1
160620,-86.9565217391304,4,2,1,70,0,0
178685,-105.263157894737,4,2,1,70,0,0
183846,-95.2380952380952,4,2,1,70,0,0
198040,-133.333333333333,4,2,1,60,0,0
199007,-95.2380952380952,4,2,1,60,0,0
200136,-95.2380952380952,4,2,1,70,0,0
200943,-86.9565217391304,4,2,1,80,0,1
201024,-86.9565217391304,4,2,1,5,0,1
201104,-86.9565217391304,4,2,1,80,0,1
208282,-86.9565217391304,4,2,1,5,0,1
208362,-86.9565217391304,4,2,1,80,0,1
212314,-86.9565217391304,4,2,1,5,0,1
212395,-86.9565217391304,4,2,1,80,0,1
216104,-95.2380952380952,4,2,1,70,0,0
236749,-95.2380952380952,4,2,1,60,0,0
239330,-95.2380952380952,4,2,1,5,0,0

[Colours]
Combo1 : 128,128,192
Combo2 : 255,0,128
Combo3 : 255,128,0
Combo4 : 0,128,192

[HitObjects]
137,111,21427,6,0,P|134:73|128:48,2,48.750001859665,2|0|0,0:0|0:0|0:0,0:0:0:0:
216,149,21911,2,0,P|219:111|225:86,2,48.750001859665,2|0|0,0:0|0:0|0:0,0:0:0:0:
144,200,22395,1,2,0:0:0:0:
137,205,22717,6,0,L|80:194,2,48.750001859665,2|0|0,0:0|0:0|0:0,0:0:0:0:
178,282,23201,2,0,L|121:293,2,48.750001859665,2|0|0,0:0|0:0|0:0,0:0:0:0:
257,319,23685,1,2,0:0:0:0:
265,323,24007,6,0,B|272:349|272:349|267:376,2,48.750001859665,2|0|0,0:0|0:0|0:0,0:0:0:0:
329,262,24491,2,0,B|355:268|355:268|375:286,2,48.750001859665,2|0|0,0:0|0:0|0:0,0:0:0:0:
276,190,24975,1,2,0:0:0:0:
344,135,25136,6,0,L|402:129,1,48.750001859665,2|0,0:0|0:0,0:0:0:0:
385,42,25459,2,0,L|336:47,1,48.750001859665,2|0,0:0|0:0,0:0:0:0:
262,94,25782,2,0,L|213:99,1,48.750001859665,2|0,0:0|0:0,0:0:0:0:
206,11,26105,2,0,L|254:5,1,48.750001859665,2|2,0:0|0:0,0:0:0:0:
208,105,26427,6,0,B|123:116|166:76|55:93,1,136.499995834351,14|10,0:3|0:0,0:0:0:0:
12,154,26911,2,0,P|2:197|16:233,1,68.2499979171753,2|8,0:0|0:3,0:0:0:0:
61,296,27233,1,2,0:0:0:0:
61,296,27395,2,0,L|136:286,1,68.2499979171753,8|2,0:0|0:0,0:0:0:0:
198,232,27717,6,0,P|264:226|314:288,1,136.499995834351,8|10,0:3|0:0,0:0:0:0:
366,342,28201,2,0,B|399:350|399:350|436:331,1,68.2499979171753,2|8,0:0|0:3,0:0:0:0:
477,259,28524,1,2,0:0:0:0:
477,259,28685,2,0,P|479:218|486:186,1,68.2499979171753,8|2,0:0|0:0,0:0:0:0:
433,118,29007,6,0,P|375:132|311:82,1,136.499995834351,10|10,0:3|0:0,0:0:0:0:
264,17,29491,2,0,L|193:28,1,68.2499979171753,2|8,0:0|0:3,0:0:0:0:
154,106,29814,1,2,0:0:0:0:
154,106,29975,2,0,P|164:141|168:180,1,68.2499979171753,8|2,0:0|0:0,0:0:0:0:
133,255,30298,6,0,P|158:221|262:231,1,136.499995834351,8|10,0:3|0:0,0:0:0:0:
313,282,30782,1,2,0:0:0:0:
313,282,30943,2,0,L|390:293,1,68.2499979171753,8|2,0:3|0:0,0:0:0:0:
452,240,31265,1,8,0:0:0:0:
412,141,31427,1,2,0:0:0:0:
406,137,31507,1,0,0:0:0:0:
400,133,31588,6,0,L|324:143,1,68.2499979171753,14|10,0:3|0:3,0:0:0:0:
262,85,31911,1,10,0:0:0:0:
262,85,32072,2,0,P|288:136|261:217,1,136.499995834351,14|8,0:3|0:3,0:0:0:0:
196,262,32556,1,10,0:0:0:0:
71,347,32878,6,0,P|97:330|139:325,1,68.2499979171753,14|10,0:3|0:3,0:0:0:0:
196,262,33201,1,10,0:0:0:0:
196,262,33362,2,0,P|219:287|333:296,1,136.499995834351,14|8,0:3|0:3,0:0:0:0:
383,245,33846,1,10,0:0:0:0:
512,324,34169,6,0,L|442:309,1,68.2499979171753,12|0,0:3|0:0,0:0:0:0:
383,245,34491,2,0,P|374:205|390:173,1,68.2499979171753,8|0,0:0|0:0,0:0:0:0:
449,120,34814,2,0,P|458:80|442:48,1,68.2499979171753,8|0,0:3|0:0,0:0:0:0:
374,6,35136,1,8,0:0:0:0:
314,71,35298,6,0,P|276:95|239:95,1,68.2499979171753,12|0,0:3|0:0,0:0:0:0:
188,157,35620,2,0,P|148:136|129:104,1,68.2499979171753,8|8,0:3|0:0,0:0:0:0:
51,91,35943,2,0,P|49:46|122:1,1,136.499995834351,12|4,0:3|0:3,0:0:0:0:
135,117,36427,2,0,L|117:158,3,34.1249989585877,10|4|4|4,0:0|0:3|0:3|0:3,0:0:0:0:
117,158,36749,6,0,L|132:285,1,123.499996702194,14|8,0:3|0:0,0:0:0:0:
91,359,37233,1,10,0:3:0:0:
91,359,37395,2,0,P|130:328|211:348,1,123.499996702194,0|8,0:0|0:0,0:0:0:0:
351,254,38040,6,0,P|390:285|471:265,1,123.499996702194,8|8,0:3|0:0,0:0:0:0:
503,200,38524,1,8,0:3:0:0:
503,200,38685,2,0,L|497:133,1,61.7499983510972,2|8,0:0|0:3,0:0:0:0:
430,83,39007,2,0,L|436:16,1,61.7499983510972,10|0,0:0|0:0,0:0:0:0:
366,146,39330,6,0,B|288:156|328:130|238:139,1,123.499996702194,10|8,0:3|0:0,0:0:0:0:
195,66,39814,2,0,P|164:100|176:195,1,123.499996702194,10|2,0:3|0:0,0:0:0:0:
212,245,40298,2,0,L|199:317,1,61.7499983510972,8|2,0:0|0:0,0:0:0:0:
156,379,40620,6,0,P|197:350|278:376,1,123.499996702194,8|8,0:3|0:0,0:0:0:0:
336,312,41104,1,8,0:3:0:0:
336,312,41265,2,0,L|403:324,1,61.7499983510972,2|8,0:0|0:3,0:0:0:0:
472,279,41588,2,0,P|486:243|474:214,1,61.7499983510972,10|0,0:0|0:0,0:0:0:0:
385,115,41911,6,0,L|253:128,1,123.499996702194,10|10,0:3|0:0,0:0:0:0:
194,73,42395,2,0,P|217:126|192:192,1,123.499996702194,10|2,0:3|0:0,0:0:0:0:
121,226,42878,2,0,L|113:162,1,61.7499983510972,10|2,0:0|0:0,0:0:0:0:
27,152,43201,6,0,L|45:277,1,123.499996702194,10|8,0:3|0:0,0:0:0:0:
107,341,43685,1,8,0:3:0:0:
107,341,43846,2,0,P|142:349|179:336,1,61.7499983510972,0|8,0:0|0:3,0:0:0:0:
228,281,44169,1,8,0:0:0:0:
370,379,44491,6,0,P|406:329|477:335,1,123.499996702194,10|8,0:3|0:0,0:0:0:0:
509,253,44975,2,0,L|496:129,1,123.499996702194,8|8,0:3|0:3,0:0:0:0:
429,74,45459,2,0,P|391:69|365:87,1,61.7499983510972,10|0,0:0|0:0,0:0:0:0:
327,154,45782,6,0,B|251:164|282:135|205:148,1,123.499996702194,10|10,0:3|0:0,0:0:0:0:
142,206,46265,1,8,0:3:0:0:
142,206,46427,2,0,P|135:235|130:270,1,61.7499983510972,2|8,0:0|0:3,0:0:0:0:
61,318,46749,2,0,P|68:347|73:382,1,61.7499983510972,10|0,0:0|0:0,0:0:0:0:
19,242,47072,6,0,P|79:233|130:266,1,123.499996702194,14|8,0:3|0:0,0:0:0:0:
177,343,47556,1,10,0:3:0:0:
177,343,47717,2,0,L|311:329,1,123.499996702194,2|8,0:3|0:0,0:0:0:0:
463,233,48362,6,0,P|488:192|469:117,1,123.499996702194,8|8,0:3|0:0,0:0:0:0:
404,68,48846,1,10,0:3:0:0:
404,68,49007,2,0,L|338:75,1,61.7499983510972,2|8,0:3|0:3,0:0:0:0:
279,134,49330,2,0,P|270:169|279:199,1,61.7499983510972,10|0,0:0|0:0,0:0:0:0:
326,265,49653,6,0,P|276:245|212:288,1,123.499996702194,10|10,0:3|0:0,0:0:0:0:
148,327,50136,2,0,L|136:191,1,123.499996702194,10|2,0:3|0:0,0:0:0:0:
75,143,50620,2,0,L|81:77,1,61.7499983510972,10|2,0:0|0:0,0:0:0:0:
141,19,50943,6,0,B|225:8|179:43|276:31,1,123.499996702194,8|8,0:3|0:0,0:0:0:0:
334,87,51427,1,8,0:3:0:0:
334,87,51588,2,0,P|333:123|314:153,1,61.7499983510972,2|8,0:0|0:3,0:0:0:0:
253,199,51911,1,10,0:0:0:0:
253,199,52072,1,2,0:0:0:0:
310,263,52233,6,0,P|352:251|423:310,1,123.499996702194,10|10,0:3|0:0,0:0:0:0:
375,367,52717,2,0,L|244:353,1,123.499996702194,10|2,0:3|0:0,0:0:0:0:
187,295,53201,2,0,L|123:302,1,61.7499983510972,10|2,0:0|0:0,0:0:0:0:
60,244,53524,6,0,P|42:206|72:128,1,123.499996702194,10|8,0:3|0:0,0:0:0:0:
16,62,54007,1,8,0:3:0:0:
16,62,54169,2,0,P|54:44|132:74,1,123.499996702194,2|8,0:0|0:0,0:0:0:0:
189,129,54653,1,0,0:0:0:0:
295,37,54814,6,0,L|274:171,1,123.499996702194,10|8,0:3|0:0,0:0:0:0:
337,227,55298,1,8,0:3:0:0:
337,227,55459,2,0,P|373:242|446:204,1,123.499996702194,2|8,0:0|0:0,0:0:0:0:
387,370,56104,6,0,P|350:358|324:357,1,61.7499983510972,10|0,0:3|0:0,0:0:0:0:
258,304,56427,2,0,P|221:316|195:317,1,61.7499983510972,10|0,0:0|0:0,0:0:0:0:
127,366,56749,1,10,0:3:0:0:
127,366,56911,1,8,0:3:0:0:
69,301,57072,2,0,P|45:289|28:288,3,30.8749991755486,10|8|8|8,0:3|0:3|0:3|0:3,0:0:0:0:
33,291,57395,6,0,B|40:243|40:243|21:155,1,123.499996702194,14|0,0:3|0:0,0:0:0:0:
79,103,57878,2,0,P|118:88|187:135,1,123.499996702194,10|10,0:3|0:3,0:0:0:0:
238,200,58362,1,10,0:0:0:0:
238,200,58524,1,2,0:0:0:0:
358,76,58846,6,0,L|428:64,1,61.7499983510972,2|2,0:0|0:0,0:0:0:0:
485,121,59169,2,0,L|468:256,1,123.499996702194,10|10,0:3|0:3,0:0:0:0:
424,317,59653,1,10,0:0:0:0:
424,317,59814,1,2,0:0:0:0:
352,268,59975,6,0,B|282:258|303:291|231:280,1,123.499996702194,10|0,0:3|0:0,0:0:0:0:
176,212,60459,2,0,P|190:248|151:321,1,123.499996702194,10|8,0:3|0:3,0:0:0:0:
69,299,60943,2,0,L|56:235,1,61.7499983510972,10|2,0:0|0:0,0:0:0:0:
11,164,61265,6,0,L|24:62,2,92.6249975266457,10|2|10,0:3|0:0|0:3,0:0:0:0:
56,238,61911,2,0,P|92:228|125:238,1,61.7499983510972,2|8,0:0|0:3,0:0:0:0:
198,256,62233,2,0,L|213:209,3,30.8749991755486,8|0|10|8,0:0|0:0|0:3|0:3,0:0:0:0:
212,215,62556,6,0,L|194:92,1,123.499996702194,14|0,0:3|0:0,0:0:0:0:
150,17,63040,2,0,P|200:2|262:38,1,123.499996702194,10|8,0:3|0:3,0:0:0:0:
311,110,63524,1,10,0:0:0:0:
311,110,63685,1,2,0:0:0:0:
387,71,63846,6,0,L|454:66,2,61.7499983510972,10|2|2,0:3|0:0|0:0,0:0:0:0:
311,110,64330,1,8,0:3:0:0:
311,110,64491,2,0,P|301:151|312:182,1,61.7499983510972,2|10,0:0|0:3,0:0:0:0:
366,230,64814,2,0,L|360:278,3,30.8749991755486,8|8|8|8,0:0|0:3|0:3|0:3,0:0:0:0:
372,279,65136,6,0,L|380:350,1,61.7499983510972,10|0,0:0|0:0,0:0:0:0:
287,299,65459,2,0,L|294:361,1,61.7499983510972,8|0,0:0|0:0,0:0:0:0:
212,257,65782,2,0,L|218:195,1,61.7499983510972,10|0,0:0|0:0,0:0:0:0:
128,237,66104,2,0,L|134:175,1,61.7499983510972,8|2,0:0|0:0,0:0:0:0:
83,105,66427,6,0,L|77:67,3,30.8749991755486,10|8|8|8,0:0|0:0|0:0|0:0,0:0:0:0:
87,64,66749,2,0,L|93:26,3,30.8749991755486,10|8|8|8,0:0|0:0|0:0|0:0,0:0:0:0:
95,21,67072,1,2,0:0:0:0:
172,58,67233,6,0,P|208:63|228:50,2,61.7499983510972,2|2|2,0:0|0:0|0:0,0:0:0:0:
95,21,67717,6,0,P|56:15|22:106,1,149.500002851486,14|10,0:3|0:0,0:0:0:0:
79,176,68201,2,0,L|161:164,1,74.7500014257431,2|8,0:0|0:3,0:0:0:0:
230,224,68524,2,0,P|244:262|232:300,1,74.7500014257431,2|8,0:0|0:0,0:0:0:0:
151,341,68846,6,0,P|212:332|282:386,1,149.500002851486,2|0,0:0|0:0,0:0:0:0:
372,352,69330,1,10,0:0:0:0:
372,352,69491,1,2,0:0:0:0:
346,257,69653,2,0,P|341:215|356:178,1,74.7500014257431,10|2,0:3|0:0,0:0:0:0:
435,135,69975,2,0,P|440:93|425:56,1,74.7500014257431,10|2,0:0|0:0,0:0:0:0:
344,14,70298,6,0,B|264:0|282:46|194:30,1,149.500002851486,10|10,0:3|0:0,0:0:0:0:
127,97,70782,2,0,L|141:172,1,74.7500014257431,2|8,0:0|0:3,0:0:0:0:
214,232,71104,2,0,L|200:307,1,74.7500014257431,2|8,0:0|0:0,0:0:0:0:
122,363,71427,6,0,P|75:369|30:279,1,149.500002851486,2|2,0:0|0:0,0:0:0:0:
122,264,71911,1,10,0:0:0:0:
122,264,72072,1,2,0:0:0:0:
91,171,72233,2,0,L|15:157,1,74.7500014257431,10|0,0:3|0:0,0:0:0:0:
177,124,72556,2,0,L|253:110,1,74.7500014257431,10|0,0:0|0:0,0:0:0:0:
135,0,72878,6,0,P|175:32|176:125,1,149.500002851486,14|8,0:3|0:0,0:0:0:0:
91,171,73362,1,10,0:3:0:0:
91,171,73524,2,0,L|81:91,1,74.7500014257431,2|0,0:0|0:0,0:0:0:0:
175,217,73846,1,10,0:0:0:0:
362,165,74169,6,0,P|322:197|321:290,1,149.500002851486,14|8,0:3|0:0,0:0:0:0:
406,336,74653,1,10,0:3:0:0:
406,336,74814,2,0,L|416:256,1,74.7500014257431
482,192,75136,2,0,L|472:112,1,74.7500014257431,10|2,0:0|0:0,0:0:0:0:
355,29,75459,6,0,B|275:15|294:63|205:46,1,149.500002851486,14|10,0:3|0:0,0:0:0:0:
118,11,75943,1,2,0:0:0:0:
77,99,76104,1,10,0:3:0:0:
77,99,76265,2,0,P|88:148|91:185,1,74.7500014257431,2|8,0:0|0:0,0:0:0:0:
20,240,76588,6,0,P|78:212|141:283,1,149.500002851486,10|10,0:3|0:3,0:0:0:0:
68,328,77072,1,8,0:0:0:0:
199,369,77233,6,0,B|286:381|263:331|359:351,1,149.500002851486,10|10,0:3|0:3,0:0:0:0:
390,363,77636,1,8,0:3:0:0:
388,355,77717,2,0,L|382:311,3,37.3750007128716,6|4|6|4,0:3|0:3|0:3|0:3,0:0:0:0:
376,268,78040,6,0,P|427:278|449:189,1,149.500002851486,14|10,0:3|0:0,0:0:0:0:
365,167,78524,2,0,L|285:177,1,74.7500014257431,2|8,0:0|0:3,0:0:0:0:
206,128,78846,2,0,P|192:94|200:46,1,74.7500014257431,2|8,0:0|0:0,0:0:0:0:
103,24,79169,6,0,P|94:83|125:188,1,149.500002851486,2|2,0:0|0:0,0:0:0:0:
192,236,79653,1,10,0:0:0:0:
192,236,79814,1,2,0:0:0:0:
100,268,79975,2,0,L|25:255,1,74.7500014257431,10|0,0:3|0:0,0:0:0:0:
9,351,80298,2,0,L|82:363,1,74.7500014257431,10|0,0:0|0:0,0:0:0:0:
175,333,80620,6,0,B|259:320|236:373|330:356,1,149.500002851486,10|8,0:3|0:0,0:0:0:0:
409,320,81104,1,0,0:0:0:0:
409,320,81265,2,0,P|426:273|395:174,1,149.500002851486,10|8,0:3|0:0,0:0:0:0:
311,151,81749,1,0,0:0:0:0:
311,151,81911,6,0,L|232:162,1,74.7500014257431,10|0,0:3|0:0,0:0:0:0:
150,117,82233,2,0,P|141:69|152:38,1,74.7500014257431,10|0,0:0|0:0,0:0:0:0:
236,2,82556,2,0,L|310:12,1,74.7500014257431,10|0,0:3|0:0,0:0:0:0:
382,77,82878,2,0,L|456:66,1,74.7500014257431,10|0,0:0|0:0,0:0:0:0:
512,208,83201,6,0,P|476:176|375:182,1,149.500002851486,14|8,0:3|0:0,0:0:0:0:
306,243,83685,1,8,0:3:0:0:
306,243,83846,2,0,L|316:319,1,74.7500014257431,2|10,0:0|0:3,0:0:0:0:
236,374,84169,2,0,P|194:378|168:360,1,74.7500014257431,10|2,0:0|0:0,0:0:0:0:
131,270,84491,5,10,0:3:0:0:
131,270,84653,1,10,0:3:0:0:
41,306,84814,2,0,L|55:384,1,74.7500014257431,10|10,0:0|0:3,0:0:0:0:
131,270,85136,2,0,L|144:196,1,74.7500014257431,2|10,0:0|0:3,0:0:0:0:
230,150,85459,2,0,P|286:170|338:132,1,112.125002138615,10|0,0:0|0:0,0:0:0:0:
334,137,85782,6,0,L|327:61,1,74.7500014257431,12|0,0:3|0:0,0:0:0:0:
422,121,86104,2,0,L|415:45,1,74.7500014257431,8|2,0:0|0:0,0:0:0:0:
491,182,86427,2,0,P|494:219|474:257,1,74.7500014257431,8|2,0:3|0:0,0:0:0:0:
388,282,86749,1,10,0:0:0:0:
388,282,86911,6,0,P|460:286|511:353,1,149.500002851486,14|0,0:3|0:0,0:0:0:0:
416,374,87395,2,0,L|336:366,1,74.7500014257431,8|2,0:0|0:0,0:0:0:0:
287,285,87717,2,0,L|207:293,1,74.7500014257431,10|2,0:3|0:0,0:0:0:0:
104,341,88040,1,10,0:0:0:0:
190,376,88201,6,0,P|194:322|115:250,1,149.500002851486,14|0,0:3|0:0,0:0:0:0:
46,210,88685,2,0,P|30:170|35:126,1,74.7500014257431,8|2,0:0|0:0,0:0:0:0:
112,85,89007,2,0,P|128:125|123:169,1,74.7500014257431,10|2,0:3|0:0,0:0:0:0:
32,36,89330,1,10,0:0:0:0:
32,36,89491,6,0,P|75:46|166:1,1,149.500002851486,14|8,0:3|0:3,0:0:0:0:
225,85,89975,1,10,0:0:0:0:
225,85,90136,2,0,L|389:109,1,149.500002851486,2|8,0:0|0:3,0:0:0:0:
465,75,90620,1,10,0:0:0:0:
483,218,90782,1,2,0:0:0:0:
482,228,90862,1,0,0:0:0:0:
481,238,90943,6,0,B|470:359|470:359|451:327,1,149.500002851486,14|10,0:3|0:0,0:0:0:0:
376,287,91427,1,0,0:0:0:0:
376,287,91588,2,0,P|329:285|301:302,1,74.7500014257431,10|0,0:3|0:0,0:0:0:0:
244,373,91911,2,0,P|197:375|169:358,1,74.7500014257431,10|0,0:0|0:0,0:0:0:0:
86,318,92233,6,0,P|79:271|69:239,1,74.7500014257431,10|8,0:0|0:3,0:0:0:0:
145,181,92556,2,0,P|152:134|162:102,1,74.7500014257431,10|8,0:0|0:3,0:0:0:0:
224,35,92878,2,0,L|274:40,3,37.3750007128716,8|8|8|8,0:0|0:3|0:3|0:3,0:0:0:0:
268,48,93201,2,0,L|318:43,3,37.3750007128716,8|8|8|8,0:0|0:3|0:3|0:3,0:0:0:0:
312,36,93524,6,0,P|337:80|319:168,1,136.499995834351,14|10,0:3|0:0,0:0:0:0:
266,229,94007,1,2,0:0:0:0:
266,229,94169,2,0,P|256:272|270:308,1,68.2499979171753,8|2,0:3|0:0,0:0:0:0:
334,346,94492,2,0,L|409:336,1,68.2499979171753,8|2,0:0|0:0,0:0:0:0:
464,274,94814,6,0,L|446:127,1,136.499995834351,8|10,0:3|0:0,0:0:0:0:
391,69,95298,1,2,0:0:0:0:
391,69,95459,2,0,B|358:61|358:61|327:76,1,68.2499979171753,8|2,0:3|0:0,0:0:0:0:
247,116,95782,2,0,P|253:149|254:183,1,68.2499979171753,8|2,0:0|0:0,0:0:0:0:
173,219,96104,6,0,P|115:205|51:255,1,136.499995834351,10|10,0:3|0:0,0:0:0:0:
34,333,96588,2,0,L|101:322,1,68.2499979171753,2|8,0:0|0:3,0:0:0:0:
180,373,96911,1,2,0:0:0:0:
180,373,97072,2,0,L|247:383,1,68.2499979171753,8|2,0:0|0:0,0:0:0:0:
317,328,97395,6,0,P|342:294|446:304,1,136.499995834351,8|10,0:3|0:0,0:0:0:0:
491,226,97878,2,0,L|480:149,1,68.2499979171753,2|8,0:0|0:3,0:0:0:0:
427,94,98201,1,2,0:0:0:0:
427,94,98362,2,0,L|351:104,1,68.2499979171753,8|10,0:0|0:3,0:0:0:0:
310,34,98685,5,14,0:3:0:0:
310,34,98846,2,0,L|233:27,1,68.2499979171754,10|8,0:3|0:0,0:0:0:0:
182,94,99169,2,0,P|208:145|181:226,1,136.499995834351,14|8,0:3|0:3,0:0:0:0:
117,273,99653,1,8,0:0:0:0:
1,369,99975,5,14,0:3:0:0:
1,369,100136,2,0,P|27:352|69:347,1,68.2499979171753,10|8,0:3|0:0,0:0:0:0:
117,273,100459,2,0,P|140:298|254:307,1,136.499995834351,14|8,0:3|0:3,0:0:0:0:
304,256,100943,1,8,0:0:0:0:
361,384,101266,6,0,L|369:313,1,68.2499979171754,10|0,0:0|0:0,0:0:0:0:
304,256,101588,2,0,L|296:185,1,68.2499979171754,10|0,0:0|0:0,0:0:0:0:
377,150,101911,2,0,L|385:79,1,68.2499979171754,10|0,0:0|0:0,0:0:0:0:
335,8,102233,1,10,0:0:0:0:
271,71,102395,6,0,P|233:95|196:95,1,68.2499979171753,14|0,0:3|0:0,0:0:0:0:
145,157,102717,2,0,P|105:136|86:104,1,68.2499979171753,10|8,0:3|0:0,0:0:0:0:
9,91,103040,2,0,P|7:46|80:1,1,136.499995834351,14|8,0:3|0:3,0:0:0:0:
91,118,103524,2,0,L|83:164,3,34.1249989585877,8|8|8|8,0:0|0:0|0:3|0:3,0:0:0:0:
90,160,103846,5,6,0:0:0:0:
385,115,108524,6,0,L|402:79,2,30.8749991755486,8|8|12,0:3|0:3|0:0,0:0:0:0:
385,115,109008,6,0,L|403:250,1,123.499996702194,12|8,0:3|0:3,0:0:0:0:
459,301,109492,2,0,P|401:281|346:304,1,123.499996702194
262,281,109975,2,0,L|269:342,1,61.7499983510972,8|0,0:3|0:0,0:0:0:0:
190,378,110298,6,0,L|175:254,1,123.499996702194,8|8,0:3|0:3,0:0:0:0:
110,197,110782,1,0,0:0:0:0:
110,197,110943,2,0,P|140:171|223:185,1,123.499996702194,8|10,0:3|0:3,0:0:0:0:
309,327,111588,6,0,P|339:353|422:339,1,123.499996702194,8|8,0:3|0:3,0:0:0:0:
481,284,112072,2,0,L|468:160,1,123.499996702194
405,101,112556,2,0,P|410:63|392:37,1,61.7499983510972,8|0,0:3|0:0,0:0:0:0:
321,81,112879,6,0,B|245:91|276:62|199:75,1,123.499996702194,8|8,0:3|0:0,0:0:0:0:
154,150,113362,1,8,0:3:0:0:
154,150,113524,2,0,P|147:179|142:214,1,61.7499983510972,2|8,0:0|0:3,0:0:0:0:
73,262,113846,2,0,P|80:291|85:326,1,61.7499983510972,8|8,0:0|0:3,0:0:0:0:
31,186,114169,6,0,P|91:177|142:210,1,123.499996702194,14|8,0:3|0:0,0:0:0:0:
183,291,114653,1,10,0:3:0:0:
183,291,114814,2,0,L|309:275,1,123.499996702194,2|8,0:0|0:0,0:0:0:0:
445,172,115459,6,0,P|470:131|451:56,1,123.499996702194,8|8,0:3|0:0,0:0:0:0:
389,11,115943,1,8,0:3:0:0:
389,11,116104,2,0,L|323:18,1,61.7499983510972,2|8,0:0|0:3,0:0:0:0:
269,82,116427,2,0,P|263:121|272:145,1,61.7499983510972,10|0,0:0|0:0,0:0:0:0:
331,202,116750,6,0,P|281:182|217:225,1,123.499996702194,10|10,0:3|0:0,0:0:0:0:
150,259,117233,2,0,L|138:123,1,123.499996702194,10|2,0:3|0:0,0:0:0:0:
83,69,117717,2,0,L|89:3,1,61.7499983510972,10|2,0:0|0:0,0:0:0:0:
166,45,118040,6,0,B|250:34|204:69|301:57,1,123.499996702194,8|8,0:3|0:0,0:0:0:0:
376,53,118524,1,8,0:3:0:0:
376,53,118685,2,0,P|375:89|356:119,1,61.7499983510972,2|8,2:0|2:3,0:0:0:0:
294,164,119007,2,0,P|295:200|314:230,1,61.7499983510972,10|0,2:0|2:0,0:0:0:0:
366,284,119330,6,0,P|408:272|479:331,1,123.499996702194,10|10,0:3|0:0,0:0:0:0:
401,362,119814,2,0,L|270:348,1,123.499996702194,10|2,0:3|0:0,0:0:0:0:
217,287,120298,2,0,L|153:294,1,61.7499983510972,10|2,0:0|0:0,0:0:0:0:
85,345,120621,6,0,P|67:307|97:229,1,123.499996702194,10|8,0:3|0:0,0:0:0:0:
41,163,121104,1,8,0:3:0:0:
41,163,121266,2,0,P|79:145|157:175,1,123.499996702194,2|8,0:0|0:0,0:0:0:0:
211,233,121750,1,0,0:0:0:0:
319,170,121911,6,0,L|301:32,1,123.499996702194,10|8,0:3|0:0,0:0:0:0:
384,13,122395,1,8,0:3:0:0:
384,13,122556,2,0,P|420:-2|493:36,1,123.499996702194,2|8,0:0|0:0,0:0:0:0:
418,190,123201,6,0,P|381:178|355:177,1,61.7499983510972,10|0,0:3|0:0,0:0:0:0:
289,124,123524,2,0,P|252:136|226:137,1,61.7499983510972,10|0,0:0|0:0,0:0:0:0:
158,186,123846,1,10,0:3:0:0:
158,186,124008,1,0,0:0:0:0:
86,137,124169,2,0,P|62:149|45:150,3,30.8749991755486,10|0|8|8,0:0|0:0|0:3|0:3,0:0:0:0:
50,147,124492,6,0,B|66:286,1,123.499996702194,14|0,0:3|0:0,0:0:0:0:
9,336,124975,2,0,P|48:321|117:368,1,123.499996702194,10|10,0:3|0:3,0:0:0:0:
198,333,125459,1,10,0:0:0:0:
198,333,125621,1,2,0:0:0:0:
311,202,125943,6,0,L|381:190,1,61.7499983510972,2|2,0:0|0:0,0:0:0:0:
435,251,126266,2,0,P|415:191|449:127,1,123.499996702194,10|10,0:3|0:3,0:0:0:0:
487,67,126750,1,10,0:0:0:0:
487,67,126911,1,2,0:0:0:0:
417,15,127072,6,0,B|347:5|368:38|296:27,1,123.499996702194,10|0,0:3|0:0,0:0:0:0:
229,82,127556,2,0,P|215:118|254:191,1,123.499996702194,10|8,0:3|0:3,0:0:0:0:
324,234,128040,2,0,L|316:301,1,61.7499983510972,10|2,0:0|0:0,0:0:0:0:
370,362,128362,6,0,L|472:349,2,92.6249975266457,10|2|10,0:3|0:0|0:3,0:0:0:0:
316,295,129008,2,0,P|279:280|244:286,1,61.7499983510972,2|8,0:0|0:3,0:0:0:0:
173,298,129330,2,0,L|168:252,3,30.8749991755486,8|8|10|8,0:0|0:3|0:3|0:3,0:0:0:0:
164,258,129653,6,0,L|183:127,1,123.499996702194,14|0,0:3|0:0,0:0:0:0:
137,61,130137,2,0,P|182:45|249:82,1,123.499996702194,10|8,0:3|0:3,0:0:0:0:
303,149,130620,2,0,P|341:151|378:141,1,61.7499983510972,10|0,0:0|0:0,0:0:0:0:
445,117,130943,6,0,L|441:190,1,61.7499983510972,10|0,0:3|0:0,0:0:0:0:
503,239,131265,2,0,L|507:312,1,61.7499983510972,2|8,0:0|0:3,0:0:0:0:
443,360,131588,2,0,P|412:364|383:354,1,61.7499983510972,2|8,0:0|0:3,0:0:0:0:
321,293,131911,2,0,L|324:262,3,30.8749991755486,10|8|8|8,0:0|0:0|0:3|0:3,0:0:0:0:
334,252,132233,6,0,L|327:190,1,61.7499983510972,8|0,0:0|0:0,0:0:0:0:
239,227,132556,2,0,L|232:165,1,61.7499983510972,8|0,0:0|0:0,0:0:0:0:
149,119,132878,2,0,L|142:180,1,61.7499983510972,10|0,0:0|0:0,0:0:0:0:
54,144,133201,2,0,L|47:205,1,61.7499983510972,8|2,0:0|0:0,0:0:0:0:
94,278,133524,6,0,L|88:316,3,30.8749991755486,10|8|8|8,0:0|0:0|0:0|0:0,0:0:0:0:
98,319,133846,2,0,L|104:357,3,30.8749991755486,10|8|8|8,0:0|0:0|0:0|0:0,0:0:0:0:
106,362,134169,1,10,0:0:0:0:
184,326,134330,6,0,P|220:321|240:334,2,61.7499983510972,2|2|2,0:0|0:0|0:0,0:0:0:0:
106,362,134814,6,0,P|67:368|33:277,1,149.500002851486,14|10,0:3|0:0,0:0:0:0:
93,209,135298,2,0,L|175:221,1,74.7500014257431,2|8,0:0|0:3,0:0:0:0:
255,179,135621,2,0,P|269:141|257:103,1,74.7500014257431,2|8,0:0|0:0,0:0:0:0:
211,25,135943,6,0,B|303:37|272:-9|389:17,1,149.500002851486,2|0,0:0|0:0,0:0:0:0:
447,49,136427,2,0,P|463:93|451:132,1,74.7500014257431,10|0,0:0|0:0,0:0:0:0:
398,196,136749,2,0,L|319:182,1,74.7500014257431,10|2,0:3|0:0,0:0:0:0:
238,229,137072,2,0,P|222:273|234:312,1,74.7500014257431,10|2,0:0|0:0,0:0:0:0:
304,358,137395,6,0,P|256:337|174:382,1,149.500002851486,10|10,0:3|0:0,0:0:0:0:
92,328,137879,2,0,L|106:253,1,74.7500014257431,2|8,0:0|0:3,0:0:0:0:
162,176,138201,2,0,L|148:101,1,74.7500014257431,2|8,0:0|0:0,0:0:0:0:
96,19,138524,6,0,P|49:13|4:103,1,149.500002851486,2|2,0:0|0:0,0:0:0:0:
72,162,139008,1,10,0:0:0:0:
72,162,139169,1,0,0:0:0:0:
148,102,139330,2,0,L|224:88,1,74.7500014257431,10|0,0:3|0:0,0:0:0:0:
330,183,139653,2,0,L|403:196,1,74.7500014257431,10|0,0:0|0:0,0:0:0:0:
346,45,139975,6,0,P|319:88|335:190,1,149.500002851486,14|8,0:3|0:0,0:0:0:0:
362,279,140459,1,10,0:3:0:0:
362,279,140621,2,0,L|282:269,1,74.7500014257431
405,361,140943,1,8,0:0:0:0:
166,339,141265,6,0,P|193:296|177:194,1,149.500002851486,14|8,0:3|0:0,0:0:0:0:
150,105,141749,1,10,0:3:0:0:
150,105,141911,2,0,L|230:115,1,74.7500014257431
291,44,142233,2,0,L|371:34,1,74.7500014257431,10|0,0:0|0:0,0:0:0:0:
453,75,142556,6,0,P|480:133|459:215,1,149.500002851486,12|10,0:3|0:0,0:0:0:0:
407,295,143040,2,0,P|358:284|321:281,1,74.7500014257431,2|8,0:0|0:3,0:0:0:0:
262,215,143362,2,0,P|213:226|176:229,1,74.7500014257431,2|8,0:0|0:0,0:0:0:0:
122,156,143685,6,0,P|146:196|98:285,1,149.500002851486,10|10,0:3|0:3,0:0:0:0:
39,209,144169,1,8,0:0:0:0:
99,58,144330,6,0,B|186:46|163:96|259:76,1,149.500002851486,10|10,0:3|0:3,0:0:0:0:
283,50,144733,1,8,0:3:0:0:
291,52,144814,2,0,L|335:58,3,37.3750007128716,10|8|10|8,0:3|0:3|0:3|0:3,0:0:0:0:
367,86,145137,6,0,P|418:76|440:165,1,149.500002851486,14|10,0:3|0:0,0:0:0:0:
357,189,145621,2,0,L|277:179,1,74.7500014257431,2|8,0:0|0:3,0:0:0:0:
207,241,145943,2,0,P|196:276|208:320,1,74.7500014257431,2|8,0:0|0:0,0:0:0:0:
113,347,146265,6,0,P|102:305|119:197,1,149.500002851486,2|2,0:0|0:0,0:0:0:0:
194,140,146750,1,10,0:0:0:0:
194,140,146911,1,2,0:0:0:0:
102,106,147072,2,0,L|27:119,1,74.7500014257431,10|0,0:3|0:0,0:0:0:0:
12,22,147395,2,0,L|85:10,1,74.7500014257431,10|0,0:0|0:0,0:0:0:0:
176,45,147717,6,0,B|260:58|237:5|331:22,1,149.500002851486,10|8,0:3|0:0,0:0:0:0:
407,72,148201,1,0,0:0:0:0:
407,72,148362,2,0,P|424:119|393:218,1,149.500002851486,10|8,0:3|0:0,0:0:0:0:
314,258,148846,1,0,0:0:0:0:
314,258,149008,6,0,L|235:247,1,74.7500014257431,10|0,0:3|0:0,0:0:0:0:
173,177,149330,2,0,P|165:140|174:105,1,74.7500014257431,10|0,0:0|0:0,0:0:0:0:
118,25,149653,2,0,L|44:35,1,74.7500014257431,10|0,0:3|0:0,0:0:0:0:
174,105,149975,2,0,L|248:116,1,74.7500014257431,10|0,0:0|0:0,0:0:0:0:
380,87,150298,6,0,P|307:75|247:115,1,149.500002851486,14|8,0:3|0:0,0:0:0:0:
297,205,150782,1,8,0:3:0:0:
297,205,150943,2,0,L|287:281,1,74.7500014257431,2|10,0:0|0:3,0:0:0:0:
350,353,151266,2,0,P|392:357|418:339,1,74.7500014257431,10|0,0:0|0:0,0:0:0:0:
477,264,151588,5,10,0:3:0:0:
477,264,151750,1,10,0:3:0:0:
498,169,151911,2,0,L|423:181,1,74.7500014257431,10|10,0:0|0:3,0:0:0:0:
349,118,152233,1,2,0:0:0:0:
349,118,152395,1,10,0:3:0:0:
391,31,152556,2,0,P|335:11|283:49,1,112.125002138615,10|0,0:0|0:0,0:0:0:0:
288,45,152879,6,0,L|212:38,1,74.7500014257431,12|0,0:3|0:0,0:0:0:0:
188,131,153201,2,0,L|262:137,1,74.7500014257431,8|2,0:0|0:0,0:0:0:0:
298,228,153524,2,0,P|301:264|285:298,1,74.7500014257431,8|2,0:3|0:0,0:0:0:0:
193,330,153846,1,10,0:0:0:0:
165,238,154008,6,0,P|237:242|288:309,1,149.500002851486,14|0,0:3|0:0,0:0:0:0:
193,330,154492,2,0,L|113:338,1,74.7500014257431,8|2,0:0|0:0,0:0:0:0:
46,272,154814,2,0,L|54:192,1,74.7500014257431,10|2,0:3|0:0,0:0:0:0:
117,124,155137,1,10,0:0:0:0:
42,65,155298,6,0,P|20:145|63:203,1,149.500002851486,14|0,0:3|0:0,0:0:0:0:
135,248,155782,2,0,L|220:238,1,74.7500014257431,8|2,0:0|0:0,0:0:0:0:
283,176,156104,2,0,L|368:186,1,74.7500014257431,10|2,0:3|0:0,0:0:0:0:
457,66,156427,1,10,0:0:0:0:
457,66,156588,6,0,P|396:45|323:101,1,149.500002851486,14|0,0:3|0:0,0:0:0:0:
283,176,157072,1,8,0:0:0:0:
283,176,157233,2,0,L|304:337,1,149.500002851486,2|8,0:0|0:3,0:0:0:0:
222,380,157717,1,10,0:0:0:0:
106,298,157879,1,10,0:3:0:0:
99,295,157959,1,8,0:3:0:0:
93,292,158040,6,0,P|74:237|117:159,1,149.500002851486,14|10,0:3|0:0,0:0:0:0:
210,197,158524,1,0,0:0:0:0:
210,197,158685,2,0,P|257:199|285:182,1,74.7500014257431,10|0,0:3|0:0,0:0:0:0:
334,105,159008,2,0,P|381:103|409:120,1,74.7500014257431,10|0,0:0|0:0,0:0:0:0:
485,168,159330,6,0,P|492:215|502:247,1,74.7500014257431,14|8,0:0|0:3,0:0:0:0:
413,287,159653,2,0,P|406:334|396:366,1,74.7500014257431,10|8,0:0|0:3,0:0:0:0:
303,382,159975,2,0,L|253:377,3,37.3750007128716,10|8|10|8,0:0|0:3|0:3|0:3,0:0:0:0:
259,369,160298,2,0,L|209:374,3,37.3750007128716,10|8|8|8,0:0|0:3|0:3|0:3,0:0:0:0:
212,380,160620,6,0,P|193:345|228:246,1,149.500002851486,14|8,0:3|0:0,0:0:0:0:
312,202,161104,1,2,0:0:0:0:
312,202,161265,2,0,L|304:125,1,74.7500014257431,10|2,0:3|0:0,0:0:0:0:
236,57,161588,2,0,P|188:51|165:65,1,74.7500014257431,10|2,0:0|0:0,0:0:0:0:
90,2,161911,6,0,P|71:42|115:148,1,149.500002851486,8|8,0:3|0:0,0:0:0:0:
162,219,162395,1,0,0:0:0:0:
162,219,162556,2,0,L|148:300,1,74.7500014257431,10|0,0:3|0:0,0:0:0:0:
242,318,162878,2,0,L|254:244,1,74.7500014257431,10|0,0:0|0:0,0:0:0:0:
320,171,163201,6,0,B|402:154|386:212|476:188,1,149.500002851486,10|8,0:3|0:0,0:0:0:0:
505,102,163685,1,0,0:0:0:0:
505,102,163846,2,0,P|497:52|396:32,1,149.500002851486,10|8,0:3|0:0,0:0:0:0:
329,74,164330,1,0,0:0:0:0:
329,74,164491,6,0,L|248:64,1,74.7500014257431,10|0,0:3|0:0,0:0:0:0:
188,136,164814,2,0,P|179:178|198:222,1,74.7500014257431,10|0,0:0|0:0,0:0:0:0:
251,280,165136,2,0,P|260:322|241:366,1,74.7500014257431,10|0,0:3|0:0,0:0:0:0:
159,316,165459,2,0,L|78:326,1,74.7500014257431,10|0,0:0|0:0,0:0:0:0:
17,254,165782,6,0,B|3:155|41:206|26:90,1,149.500002851486,14|8,0:3|0:0,0:0:0:0:
11,11,166265,2,0,P|27:56|128:58,1,149.500002851486,10|8,0:3|0:3,0:0:0:0:
199,13,166749,1,10,0:0:0:0:
199,13,166911,1,2,0:0:0:0:
279,121,167072,6,0,L|286:197,1,74.7500014257431,14|8,0:3|0:3,0:0:0:0:
239,283,167395,1,8,0:0:0:0:
239,283,167556,2,0,P|269:249|377:267,1,149.500002851486,10|8,0:3|0:3,0:0:0:0:
437,329,168040,1,10,0:0:0:0:
437,329,168201,1,2,0:0:0:0:
356,383,168362,6,0,L|276:371,1,74.7500014257431,14|0,0:3|0:0,0:0:0:0:
239,283,168685,1,10,0:0:0:0:
239,283,168846,2,0,L|159:295,1,74.7500014257431,2|8,0:0|0:3,0:0:0:0:
89,231,169169,2,0,P|77:192|87:157,1,74.7500014257431,2|8,0:0|0:0,0:0:0:0:
24,84,169491,6,0,P|57:106|169:79,1,149.500002851486,10|10,0:3|0:3,0:0:0:0:
243,36,169975,1,8,0:0:0:0:
243,36,170136,2,0,L|226:187,1,149.500002851486,10|8,0:3|0:3,0:0:0:0:
291,257,170620,2,0,L|301:307,3,37.3750007128716,8|8|8|8,0:0|0:3|0:3|0:3,0:0:0:0:
292,302,170943,6,0,B|372:288|360:338|446:322,1,149.500002851486,12|10,0:3|0:0,0:0:0:0:
506,255,171427,1,0,0:0:0:0:
506,255,171588,2,0,L|495:175,1,74.7500014257431,10|0,0:3|0:0,0:0:0:0:
420,119,171911,2,0,L|431:39,1,74.7500014257431,10|0,0:0|0:0,0:0:0:0:
338,13,172233,6,0,P|283:8|235:93,1,149.500002851486,8|10,0:3|0:0,0:0:0:0:
280,169,172717,1,0,0:0:0:0:
280,169,172878,2,0,P|286:212|271:251,1,74.7500014257431,10|0,0:3|0:0,0:0:0:0:
202,304,173201,2,0,L|128:294,1,74.7500014257431,10|0,0:0|0:0,0:0:0:0:
48,350,173524,6,0,B|27:308|27:308|47:205,1,149.500002851486,10|8,0:3|0:0,0:0:0:0:
115,138,174007,1,0,0:0:0:0:
115,138,174169,2,0,P|184:121|256:180,1,149.500002851486,10|8,0:3|0:0,0:0:0:0:
335,118,174653,1,0,0:0:0:0:
335,118,174814,6,0,L|314:280,1,149.500002851486,10|8,0:3|0:0,0:0:0:0:
327,367,175298,1,0,0:0:0:0:
327,367,175459,2,0,B|363:340|408:346|408:346|434:378|467:378,1,149.500002851486,10|8,0:3|0:0,0:0:0:0:
484,282,175943,1,0,0:0:0:0:
487,276,176024,1,2,0:0:0:0:
491,270,176104,6,0,L|472:119,1,149.500002851486,12|10,0:3|0:0,0:0:0:0:
395,60,176588,1,0,0:0:0:0:
395,60,176749,2,0,P|355:53|324:75,1,74.7500014257431,2|0,0:0|0:0,0:0:0:0:
267,146,177072,2,0,P|227:153|196:131,1,74.7500014257431,10|0,0:0|0:0,0:0:0:0:
123,74,177395,6,0,L|108:-6,2,74.7500014257431,12|8|8,0:3|0:3|0:0,0:0:0:0:
37,120,177878,2,0,P|21:154|28:195,1,74.7500014257431,2|0,0:0|0:0,0:0:0:0:
69,277,178201,1,8,0:0:0:0:
70,284,178282,1,8,0:0:0:0:
71,291,178362,2,0,L|77:332,3,37.3750007128716,8|8|8|8,0:0|0:0|0:0|0:0,0:0:0:0:
74,337,178685,6,0,P|111:323|189:378,1,123.499996702194,12|8,0:3|0:0,0:0:0:0:
256,315,179169,1,8,0:3:0:0:
256,315,179330,2,0,L|252:249,2,61.7499983510972,2|10|10,0:0|0:3|0:0,0:0:0:0:
334,363,179814,1,2,0:0:0:0:
334,363,179975,6,0,B|403:374|383:336|459:352,1,123.499996702194,10|10,0:3|0:0,0:0:0:0:
502,278,180459,1,8,0:3:0:0:
502,278,180620,2,0,P|513:231|466:168,1,123.499996702194,2|10,0:0|0:0,0:0:0:0:
323,85,181265,6,0,B|287:104|287:104|201:95,1,123.499996702194,10|8,0:3|0:0,0:0:0:0:
146,31,181749,1,8,0:3:0:0:
146,31,181911,2,0,L|77:35,2,61.7499983510972,2|10|10,0:0|0:3|0:0,0:0:0:0:
204,95,182395,6,0,P|216:137|189:212,1,123.499996702194,0|8,0:0|0:3,0:0:0:0:
123,263,182878,1,10,0:0:0:0:
123,263,183040,2,0,L|265:281,1,123.499996702194,2|10,0:0|0:3,0:0:0:0:
321,235,183524,2,0,L|354:231,3,30.8749991755486,8|8|8|8,0:0|0:0|0:0|0:0,0:0:0:0:
361,238,183846,6,0,P|373:197|361:160,1,68.2499979171754,12|0,0:0|0:0,0:0:0:0:
290,115,184169,2,0,P|278:74|290:37,1,68.2499979171754,8|8,0:0|0:3,0:0:0:0:
366,3,184491,2,0,L|439:13,1,68.2499979171754,10|10,0:0|0:3,0:0:0:0:
487,91,184814,2,0,L|477:164,1,68.2499979171754,10|2,0:0|0:0,0:0:0:0:
415,230,185136,5,8,0:0:0:0:
415,230,185298,1,8,0:3:0:0:
335,177,185459,2,0,P|292:172|268:191,1,68.2499979171754,10|8,0:0|0:3,0:0:0:0:
211,258,185782,1,10,0:0:0:0:
211,258,185943,1,8,0:3:0:0:
267,334,186104,2,0,L|339:342,1,68.2499979171754,10|8,0:0|0:3,0:0:0:0:
421,383,186427,6,0,P|448:345|435:244,1,136.499995834351,14|8,0:3|0:0,0:0:0:0:
359,212,186911,2,0,P|332:174|345:73,1,136.499995834351,8|8,0:3|0:3,0:0:0:0:
279,16,187395,1,8,0:0:0:0:
279,16,187556,6,0,L|135:29,1,136.499995834351,14|10,0:3|0:3,0:0:0:0:
75,95,188040,1,8,0:0:0:0:
75,95,188201,2,0,P|68:136|82:174,1,68.2499979171754,10|8,0:3|0:3,0:0:0:0:
138,232,188524,2,0,L|212:224,1,68.2499979171754,10|8,0:3|0:0,0:0:0:0:
272,156,188846,6,0,B|305:159|305:159|366:134|366:134|410:136,1,136.499995834351,14|10,0:3|0:3,0:0:0:0:
480,201,189330,1,8,0:0:0:0:
480,201,189491,1,10,0:3:0:0:
415,271,189653,2,0,L|410:319,3,34.1249989585877,10|8|10|8,0:0|0:0|0:0|0:0,0:0:0:0:
375,336,189975,2,0,L|327:331,3,34.1249989585877,10|8|10|8,0:0|0:0|0:0|0:0,0:0:0:0:
311,366,190298,5,2,0:0:0:0:
68,263,198040,6,0,B|52:243|47:210|47:210|72:226|90:226|90:226|136:207|179:212|179:212|200:202|212:183|212:183|219:212|210:243,1,292.50001115799,2|8,0:0|0:0,0:0:0:0:
264,317,199169,6,0,P|292:347|381:334,1,136.499995834351,10|10,0:3|0:3,0:0:0:0:
444,265,199653,1,8,0:0:0:0:
444,265,199814,2,0,L|429:123,1,136.499995834351,10|10,0:3|0:3,0:0:0:0:
396,95,200217,1,8,0:3:0:0:
397,88,200298,2,0,L|402:38,3,34.1249989585877,10|8|10|8,0:3|0:3|0:3|0:3,0:0:0:0:
437,23,200620,5,2,0:3:0:0:
267,145,200943,5,14,0:0:0:0:
267,145,201104,2,0,P|218:163|147:100,1,149.500002851486,2|2,0:0|0:0,0:0:0:0:
61,150,201588,1,8,0:0:0:0:
61,150,201749,6,0,L|81:306,1,149.500002851486,2|2,0:0|0:0,0:0:0:0:
155,360,202233,1,10,0:0:0:0:
155,360,202395,1,2,0:0:0:0:
224,292,202556,2,0,P|262:285|297:300,1,74.7500014257431,10|0,0:3|0:0,0:0:0:0:
365,364,202878,2,0,P|403:371|438:356,1,74.7500014257431,10|0,0:0|0:0,0:0:0:0:
502,286,203201,6,0,B|506:220|506:220|499:202|499:202|503:135,1,149.500002851486,10|8,0:3|0:0,0:0:0:0:
442,61,203685,1,0,0:0:0:0:
442,61,203846,2,0,B|412:31|366:34|366:34|345:55|303:62,1,149.500002851486,10|8,0:3|0:0,0:0:0:0:
212,67,204330,1,0,0:0:0:0:
212,67,204491,6,0,P|222:113|224:149,1,74.7500014257431,10|0,0:3|0:0,0:0:0:0:
300,201,204814,2,0,P|290:247|288:283,1,74.7500014257431,10|0,0:0|0:0,0:0:0:0:
234,355,205136,2,0,P|192:373|160:363,1,74.7500014257431,10|0,0:3|0:0,0:0:0:0:
67,363,205459,2,0,P|30:335|23:302,1,74.7500014257431,10|0,0:0|0:0,0:0:0:0:
52,216,205782,6,0,B|135:200|118:253|205:238,1,149.500002851486,14|8,0:3|0:0,0:0:0:0:
223,149,206265,1,8,0:3:0:0:
223,149,206427,2,0,L|215:68,1,74.7500014257431,2|10,0:0|0:3,0:0:0:0:
298,24,206749,2,0,P|334:20|373:47,1,74.7500014257431,10|2,0:0|0:0,0:0:0:0:
428,120,207072,5,10,0:3:0:0:
428,120,207233,1,10,0:3:0:0:
353,183,207395,1,10,0:0:0:0:
353,183,207556,1,10,0:3:0:0:
420,252,207717,2,0,B|428:290|428:290|408:331,1,74.7500014257431,2|10,0:0|0:3,0:0:0:0:
330,376,208040,2,0,P|296:345|222:356,1,112.125002138615,10|0,0:0|0:0,0:0:0:0:
224,355,208362,6,0,P|220:313|211:277,1,74.7500014257431,12|0,0:3|0:0,0:0:0:0:
136,219,208685,2,0,P|140:177|149:141,1,74.7500014257431,8|2,0:0|0:0,0:0:0:0:
222,83,209007,2,0,P|218:41|209:5,1,74.7500014257431,8|2,0:3|0:0,0:0:0:0:
147,145,209330,1,10,0:0:0:0:
147,145,209491,6,0,P|193:177|287:158,1,149.500002851486,14|0,0:3|0:0,0:0:0:0:
366,114,209975,2,0,L|374:192,1,74.7500014257431,8|2,0:0|0:0,0:0:0:0:
415,276,210298,2,0,L|407:354,1,74.7500014257431,10|2,0:3|0:0,0:0:0:0:
501,228,210620,1,10,0:0:0:0:
501,228,210782,6,0,P|445:181|373:188,1,149.500002851486,14|0,0:3|0:0,0:0:0:0:
309,261,211265,2,0,L|229:268,1,74.7500014257431,8|2,0:0|0:0,0:0:0:0:
170,193,211588,2,0,L|90:186,1,74.7500014257431,10|2,0:3|0:0,0:0:0:0:
234,267,211911,1,10,0:0:0:0:
234,267,212072,6,0,P|264:217|241:126,1,149.500002851486,14|2,0:3|0:0,0:0:0:0:
190,57,212556,1,10,0:0:0:0:
190,57,212717,2,0,L|344:43,1,149.500002851486,2|10,0:0|0:3,0:0:0:0:
415,103,213201,1,10,0:0:0:0:
352,177,213362,1,8,0:3:0:0:
351,184,213443,1,8,0:3:0:0:
350,191,213524,6,0,P|372:225|478:229,1,149.500002851486,14|10,0:3|0:0,0:0:0:0:
509,322,214007,1,0,0:0:0:0:
509,322,214169,2,0,P|465:332|427:348,1,74.7500014257431,10|0,0:3|0:0,0:0:0:0:
349,383,214491,2,0,P|305:373|267:357,1,74.7500014257431,10|0,0:0|0:0,0:0:0:0:
212,289,214814,5,10,0:0:0:0:
212,289,214975,1,8,0:3:0:0:
282,222,215136,2,0,P|291:178|271:142,1,74.7500014257431,10|8,0:0|0:3,0:0:0:0:
198,98,215459,5,10,0:0:0:0:
188,98,215539,1,8,0:0:0:0:
179,99,215620,1,10,0:3:0:0:
170,100,215700,1,8,0:3:0:0:
160,101,215782,2,0,L|116:105,3,37.3750007128716,10|8|8|8,0:0|0:0|0:3|0:3,0:0:0:0:
84,81,216104,6,0,P|102:113|88:226,1,136.499995834351,12|10,0:3|0:0,0:0:0:0:
37,276,216588,1,0,0:0:0:0:
37,276,216749,2,0,P|32:323|50:360,1,68.2499979171754,10|0,0:3|0:0,0:0:0:0:
120,378,217072,2,0,L|194:369,1,68.2499979171754,10|0,0:0|0:0,0:0:0:0:
250,306,217395,6,0,B|326:293|306:340|395:323,1,136.499995834351,8|10,0:3|0:0,0:0:0:0:
458,277,217878,1,0,0:0:0:0:
458,277,218040,2,0,L|449:206,1,68.2499979171754,10|0,0:3|0:0,0:0:0:0:
383,150,218362,2,0,L|392:79,1,68.2499979171754,10|0,0:0|0:0,0:0:0:0:
320,29,218685,6,0,P|277:16|212:70,1,136.499995834351,8|10,0:3|0:0,0:0:0:0:
276,138,219169,1,0,0:0:0:0:
276,138,219330,2,0,P|279:178|265:208,1,68.2499979171754,10|0,0:3|0:0,0:0:0:0:
187,241,219653,2,0,L|113:231,1,68.2499979171754,10|0,0:0|0:0,0:0:0:0:
49,286,219975,6,0,P|51:341|128:356,1,136.499995834351,8|10,0:3|0:0,0:0:0:0:
211,383,220459,1,0,0:0:0:0:
211,383,220620,2,0,L|347:369,1,136.499995834351,8|10,0:3|0:0,0:0:0:0:
416,313,221104,1,2,0:0:0:0:
416,313,221265,6,0,B|425:242|425:242|421:229|421:229|428:174,1,136.499995834351,12|10,0:3|0:0,0:0:0:0:
474,102,221749,2,0,P|449:133|356:115,1,136.499995834351,10|8,0:3|0:3,0:0:0:0:
338,36,222233,2,0,L|416:46,1,68.2499979171754,10|0,0:0|0:0,0:0:0:0:
279,106,222556,5,10,0:3:0:0:
279,106,222717,2,0,P|240:120|211:117,1,68.2499979171754,0|10,0:0|0:0,0:0:0:0:
141,65,223040,2,0,P|86:54|34:135,1,136.499995834351,10|8,0:3|0:3,0:0:0:0:
87,178,223524,1,10,0:0:0:0:
87,178,223685,1,10,0:3:0:0:
27,243,223846,6,0,B|63:268|63:268|172:255,1,136.499995834351,14|10,0:3|0:0,0:0:0:0:
224,200,224330,1,2,0:0:0:0:
281,274,224491,1,8,0:3:0:0:
281,274,224653,2,0,L|272:345,1,68.2499979171754,2|8,0:0|0:0,0:0:0:0:
354,374,224975,6,0,P|397:383|483:313,1,136.499995834351,10|10,0:3|0:3,0:0:0:0:
429,259,225459,1,8,0:0:0:0:
429,259,225620,2,0,L|441:120,1,136.499995834351,10|8,0:3|0:3,0:0:0:0:
415,85,226024,1,8,0:3:0:0:
414,77,226104,2,0,L|406:28,3,34.1249989585877,8|8|8|8,0:0|0:0|0:3|0:3,0:0:0:0:
429,3,226427,6,0,P|395:34|311:20,1,136.499995834351,12|10,0:3|0:0,0:0:0:0:
254,89,226911,1,0,0:0:0:0:
254,89,227072,2,0,L|263:163,1,68.2499979171754,10|0,0:3|0:0,0:0:0:0:
320,224,227395,2,0,L|311:298,1,68.2499979171754,10|0,0:0|0:0,0:0:0:0:
238,342,227717,6,0,B|165:330|181:371|102:356,1,136.499995834351,8|10,0:3|0:0,0:0:0:0:
39,303,228201,1,0,0:0:0:0:
39,303,228362,2,0,P|30:266|37:232,1,68.2499979171754,10|0,0:3|0:0,0:0:0:0:
107,184,228685,2,0,P|116:147|109:113,1,68.2499979171754,10|0,0:0|0:0,0:0:0:0:
72,37,229007,6,0,P|101:70|201:64,1,136.499995834351,8|8,0:3|0:0,0:0:0:0:
260,20,229491,1,0,0:0:0:0:
311,98,229653,1,10,0:3:0:0:
311,98,229814,2,0,P|300:138|297:168,1,68.2499979171754,2|8,0:0|0:0,0:0:0:0:
344,239,230136,6,0,P|395:224|473:271,1,136.499995834351,2|2,0:0|0:0,0:0:0:0:
442,346,230620,1,8,0:0:0:0:
442,346,230782,2,0,L|369:357,1,68.2499979171754,2|8,0:0|0:3,0:0:0:0:
294,317,231104,2,0,L|226:306,1,68.2499979171754,2|8,0:0|0:0,0:0:0:0:
151,354,231427,1,10,0:3:0:0:
151,354,231588,6,0,P|125:320|133:227,1,136.499995834351,14|8,0:3|0:0,0:0:0:0:
203,179,232072,2,0,P|229:145|221:52,1,136.499995834351,14|8,0:3|0:3,0:0:0:0:
145,12,232556,2,0,L|77:23,1,68.2499979171754,10|2,0:0|0:0,0:0:0:0:
37,103,232878,5,14,0:3:0:0:
37,103,233040,2,0,P|51:138|49:182,1,68.2499979171754,0|8,0:0|0:0,0:0:0:0:
0,240,233362,2,0,P|40:218|127:259,1,136.499995834351,14|8,0:3|0:3,0:0:0:0:
170,327,233846,1,10,0:0:0:0:
170,327,234007,1,2,0:0:0:0:
250,289,234169,6,0,L|228:142,1,136.499995834351,14|8,0:3|0:0,0:0:0:0:
284,83,234653,1,0,0:0:0:0:
284,83,234814,2,0,P|317:71|354:89,1,68.2499979171754,8|0,0:3|0:0,0:0:0:0:
402,150,235136,1,8,0:0:0:0:
472,95,235298,6,0,P|487:135|451:226,1,136.499995834351,10|8,0:3|0:3,0:0:0:0:
381,266,235782,2,0,L|311:260,1,68.2499979171754,10|8,0:0|0:3,0:0:0:0:
244,204,236104,1,2,0:0:0:0:
244,204,236265,1,8,0:3:0:0:
182,268,236427,2,0,L|187:308,3,34.1249989585877,10|8|8|8,0:0|0:3|0:3|0:3,0:0:0:0:
216,335,236749,5,6,0:0:0:0:
256,192,236830,12,0,239330,0:0:0:0:
