osu file format v14

[General]
AudioFilename: audio.mp3
AudioLeadIn: 0
PreviewTime: 221632
Countdown: 0
SampleSet: Normal
StackLeniency: 0.7
Mode: 1
LetterboxInBreaks: 0
WidescreenStoryboard: 1

[Editor]
Bookmarks: 17220,30461,43703,50323,60254,73496,80116,93358,106599,119841,133082,139703,149634,162875,169496,179427,192668,208392,215012,221633,228254,239840,241495,248116,254736
DistanceSpacing: 2.9
BeatDivisor: 2
GridSize: 32
TimelineZoom: 0.8

[Metadata]
Title:Future Parade
TitleUnicode:Future Parade
Artist:Nijigasaki High School Idol Club
ArtistUnicode:虹ヶ咲学園スクールアイドル同好会
Creator:makimen
Version:Sammu's Futsuu
Source:ラブライブ!虹ヶ咲学園スクールアイドル同好会
Tags:makimen419 _hellfly_ -Maruko- Sammu anime Japanese love live! nijigaku ニジガク jpop j-pop female vocal lovelive school idol project 上原歩夢 Uehara Ayumu 中須かすみ Nakasu Kasumi 桜坂しずく Osaka Shizuku 朝香果林 Asaka Karin 宮下愛 Miyashita Ai 近江彼方 Konoe Kanata 優木せつな Yuki Setsuna エマ・ヴェルデ Emma Verde 天王寺璃奈 Tennoji Rina 三船栞子 Mifune Shioriko ミア・テイラー Mia Taylor 鐘嵐珠 Zhong Lanzhu
BeatmapID:4148513
BeatmapSetID:1950655

[Difficulty]
HPDrainRate:7
CircleSize:2
OverallDifficulty:4
ApproachRate:10
SliderMultiplier:1.4
SliderTickRate:1

[Events]
//Background and Video events
0,0,"future parade image.png",0,151
//Break Periods
//Storyboard Layer 0 (Background)
//Storyboard Layer 1 (Fail)
//Storyboard Layer 2 (Pass)
//Storyboard Layer 3 (Foreground)
//Storyboard Layer 4 (Overlay)
//Storyboard Sound Samples

[TimingPoints]
3979,413.793103448276,4,1,0,60,1,0
17194,-100,4,1,0,65,0,0
30435,-100,4,1,0,70,0,0
50297,-100,4,1,0,75,0,0
60254,413.793103448276,4,1,0,80,1,0
60254,-100,4,1,0,80,0,1
93332,-100,4,1,0,65,0,1
93357,-105.263157894737,4,1,0,60,0,0
106573,-100,4,1,0,65,0,0
119815,-100,4,1,0,70,0,0
133056,-100,4,1,0,75,0,0
149633,413.793103448276,4,1,0,80,1,0
149633,-100,4,1,0,80,0,1
179426,-100,4,1,0,70,0,0
192642,-100,4,1,0,60,0,0
208366,-100,4,1,0,70,0,0
208391,413.793103448276,4,1,0,70,1,0
215011,-100,4,1,0,80,0,1
239839,-99.009900990099,4,1,0,100,0,0
241494,-95.2380952380952,4,1,0,80,0,1
267972,-95.2380952380952,4,1,0,80,0,1
268386,-95.2380952380952,4,1,0,70,0,1
268799,-95.2380952380952,4,1,0,60,0,1
269213,-95.2380952380952,4,1,0,50,0,1
269632,-95.2380952380952,4,1,0,40,0,0

[HitObjects]
256,192,3979,5,0,0:0:0:0:
256,192,4599,1,0,0:0:0:0:
256,192,5220,1,8,0:0:0:0:
256,192,5841,1,8,0:0:0:0:
256,192,6461,1,8,0:0:0:0:
256,192,7082,1,0,0:0:0:0:
256,192,7289,1,0,0:0:0:0:
256,192,7910,1,0,0:0:0:0:
256,192,8530,1,8,0:0:0:0:
256,192,9151,1,8,0:0:0:0:
256,192,9772,1,0,0:0:0:0:
256,192,10599,1,0,0:0:0:0:
256,192,11220,1,8,0:0:0:0:
256,192,11841,1,0,0:0:0:0:
256,192,12461,1,8,0:0:0:0:
256,192,13082,1,0,0:0:0:0:
256,192,13496,1,8,0:0:0:0:
256,192,13703,1,0,0:0:0:0:
256,192,13910,1,0,0:0:0:0:
256,192,14530,1,8,0:0:0:0:
256,192,14944,1,0,0:0:0:0:
256,192,15151,1,8,0:0:0:0:
256,192,15772,1,8,0:0:0:0:
256,192,16392,1,0,0:0:0:0:
256,192,17220,1,0,0:0:0:0:
256,192,17427,1,0,0:0:0:0:
256,192,17634,1,8,0:0:0:0:
256,192,17841,1,8,0:0:0:0:
256,192,18461,1,8,0:0:0:0:
256,192,18668,1,8,0:0:0:0:
256,192,18875,1,0,0:0:0:0:
256,192,19082,1,0,0:0:0:0:
256,192,19496,1,0,0:0:0:0:
256,192,20116,1,8,0:0:0:0:
256,192,20530,1,8,0:0:0:0:
256,192,20737,1,0,0:0:0:0:
256,192,20944,1,0,0:0:0:0:
256,192,21151,1,8,0:0:0:0:
256,192,21772,1,0,0:0:0:0:
256,192,21979,1,8,0:0:0:0:
256,192,22185,1,8,0:0:0:0:
256,192,22392,1,0,0:0:0:0:
256,192,23013,1,0,0:0:0:0:
256,192,23841,1,8,0:0:0:0:
256,192,24047,1,8,0:0:0:0:
256,192,24254,1,0,0:0:0:0:
256,192,24461,1,0,0:0:0:0:
256,192,25082,1,0,0:0:0:0:
256,192,25289,1,0,0:0:0:0:
256,192,25496,1,8,0:0:0:0:
256,192,25703,1,8,0:0:0:0:
256,192,26116,1,0,0:0:0:0:
256,192,26530,1,0,0:0:0:0:
256,192,26737,1,8,0:0:0:0:
256,192,27151,1,8,0:0:0:0:
256,192,27358,1,0,0:0:0:0:
256,192,27565,1,0,0:0:0:0:
256,192,27772,1,8,0:0:0:0:
256,192,28392,1,0,0:0:0:0:
256,192,30047,1,8,0:0:0:0:
256,192,30461,1,0,0:0:0:0:
256,192,30875,1,0,0:0:0:0:
256,192,31082,1,8,0:0:0:0:
256,192,31289,1,0,0:0:0:0:
256,192,31703,1,0,0:0:0:0:
256,192,31910,1,8,0:0:0:0:
256,192,32323,1,0,0:0:0:0:
256,192,32530,1,0,0:0:0:0:
256,192,32737,1,8,0:0:0:0:
256,192,32944,1,8,0:0:0:0:
256,192,33358,1,0,0:0:0:0:
256,192,33772,1,8,0:0:0:0:
256,192,34185,1,0,0:0:0:0:
256,192,34392,1,8,0:0:0:0:
256,192,34599,1,0,0:0:0:0:
256,192,35013,1,8,0:0:0:0:
256,192,35220,1,0,0:0:0:0:
256,192,35634,1,0,0:0:0:0:
256,192,35841,1,0,0:0:0:0:
256,192,36047,1,8,0:0:0:0:
256,192,36254,1,0,0:0:0:0:
256,192,37082,1,0,0:0:0:0:
256,192,37496,1,8,0:0:0:0:
256,192,37703,1,8,0:0:0:0:
256,192,37910,1,0,0:0:0:0:
256,192,38323,1,8,0:0:0:0:
256,192,38737,1,0,0:0:0:0:
256,192,39151,1,8,0:0:0:0:
256,192,39358,1,0,0:0:0:0:
256,192,39565,1,8,0:0:0:0:
256,192,40599,1,0,0:0:0:0:
256,192,40806,1,0,0:0:0:0:
256,192,41013,1,0,0:0:0:0:
256,192,41220,1,8,0:0:0:0:
256,192,41634,1,0,0:0:0:0:
256,192,42047,1,8,0:0:0:0:
256,192,42668,1,8,0:0:0:0:
256,192,42875,1,0,0:0:0:0:
256,192,43496,1,0,0:0:0:0:
256,192,43703,1,12,0:0:0:0:
256,192,44116,1,0,0:0:0:0:
256,192,44323,1,8,0:0:0:0:
256,192,44737,1,0,0:0:0:0:
256,192,44944,1,8,0:0:0:0:
256,192,45358,1,0,0:0:0:0:
256,192,45668,1,8,0:0:0:0:
256,192,45979,1,0,0:0:0:0:
256,192,46392,1,0,0:0:0:0:
256,192,46599,1,8,0:0:0:0:
256,192,46806,1,0,0:0:0:0:
256,192,47013,1,8,0:0:0:0:
256,192,47427,1,8,0:0:0:0:
256,192,47634,1,8,0:0:0:0:
256,192,48047,1,0,0:0:0:0:
256,192,48254,1,8,0:0:0:0:
256,192,49289,5,8,0:0:0:0:
256,192,49496,1,0,0:0:0:0:
256,192,49910,1,8,0:0:0:0:
256,192,50323,1,4,0:0:0:0:
256,192,50737,1,0,0:0:0:0:
256,192,51151,1,8,0:0:0:0:
256,192,51565,1,8,0:0:0:0:
256,192,51772,1,8,0:0:0:0:
256,192,51979,1,0,0:0:0:0:
256,192,52392,1,0,0:0:0:0:
256,192,52806,1,8,0:0:0:0:
256,192,53013,1,0,0:0:0:0:
256,192,53220,1,8,0:0:0:0:
256,192,53427,1,8,0:0:0:0:
256,192,53634,1,4,0:0:0:0:
256,192,54461,1,0,0:0:0:0:
256,192,54875,1,8,0:0:0:0:
256,192,55289,1,4,0:0:0:0:
256,192,55703,1,8,0:0:0:0:
256,192,56116,1,8,0:0:0:0:
256,192,56323,1,0,0:0:0:0:
256,192,56530,1,8,0:0:0:0:
256,192,56944,1,12,0:0:0:0:
256,192,57565,1,0,0:0:0:0:
256,192,57772,1,12,0:0:0:0:
256,192,58599,1,8,0:0:0:0:
256,192,58806,1,0,0:0:0:0:
256,192,59013,1,8,0:0:0:0:
256,192,59427,1,8,0:0:0:0:
256,192,59841,1,0,0:0:0:0:
256,192,60254,1,12,0:0:0:0:
256,192,60667,1,8,0:0:0:0:
256,192,60874,1,0,0:0:0:0:
256,192,61288,1,8,0:0:0:0:
256,192,61495,1,0,0:0:0:0:
256,192,61702,1,8,0:0:0:0:
256,192,62116,1,8,0:0:0:0:
256,192,62322,1,8,0:0:0:0:
256,192,62529,1,0,0:0:0:0:
256,192,62736,1,8,0:0:0:0:
256,192,63150,1,0,0:0:0:0:
256,192,63564,1,8,0:0:0:0:
256,192,63978,1,0,0:0:0:0:
256,192,64185,1,8,0:0:0:0:
256,192,64598,1,0,0:0:0:0:
256,192,64805,1,8,0:0:0:0:
256,192,65012,1,0,0:0:0:0:
256,192,65840,1,8,0:0:0:0:
256,192,66254,1,0,0:0:0:0:
256,192,66460,1,8,0:0:0:0:
256,192,66874,1,0,0:0:0:0:
256,192,67185,1,8,0:0:0:0:
256,192,67495,1,0,0:0:0:0:
256,192,67702,1,8,0:0:0:0:
256,192,68116,1,0,0:0:0:0:
256,192,68529,1,0,0:0:0:0:
256,192,68840,1,0,0:0:0:0:
256,192,69150,1,8,0:0:0:0:
256,192,69357,1,0,0:0:0:0:
256,192,69771,1,8,0:0:0:0:
256,192,70185,1,8,0:0:0:0:
256,192,70598,1,0,0:0:0:0:
256,192,70805,1,8,0:0:0:0:
256,192,71219,1,0,0:0:0:0:
256,192,71426,1,0,0:0:0:0:
256,192,71840,1,8,0:0:0:0:
256,192,72254,1,8,0:0:0:0:
256,192,72460,1,0,0:0:0:0:
256,192,72667,1,8,0:0:0:0:
256,192,73495,1,0,0:0:0:0:
256,192,73909,1,8,0:0:0:0:
256,192,74116,1,0,0:0:0:0:
256,192,74529,1,0,0:0:0:0:
256,192,74736,1,0,0:0:0:0:
256,192,74943,1,8,0:0:0:0:
256,192,75357,1,0,0:0:0:0:
256,192,75564,1,8,0:0:0:0:
256,192,75771,1,0,0:0:0:0:
256,192,75978,1,8,0:0:0:0:
256,192,76185,1,8,0:0:0:0:
256,192,76391,1,0,0:0:0:0:
256,192,76805,1,12,0:0:0:0:
256,192,77219,1,0,0:0:0:0:
256,192,77426,1,12,0:0:0:0:
256,192,77840,1,0,0:0:0:0:
256,192,78047,1,12,0:0:0:0:
256,192,78874,1,0,0:0:0:0:
256,192,79288,1,8,0:0:0:0:
256,192,79495,1,0,0:0:0:0:
256,192,79702,1,0,0:0:0:0:
256,192,80116,1,8,0:0:0:0:
256,192,80426,1,8,0:0:0:0:
256,192,80736,1,0,0:0:0:0:
256,192,80943,1,8,0:0:0:0:
256,192,81357,1,0,0:0:0:0:
256,192,81771,1,8,0:0:0:0:
256,192,82081,1,8,0:0:0:0:
256,192,82391,1,0,0:0:0:0:
256,192,82598,1,8,0:0:0:0:
256,192,83012,1,0,0:0:0:0:
256,192,83219,1,0,0:0:0:0:
256,192,83426,1,12,0:0:0:0:
256,192,83840,1,0,0:0:0:0:
256,192,84047,1,8,0:0:0:0:
256,192,84254,1,12,0:0:0:0:
256,192,84667,1,0,0:0:0:0:
256,192,84874,1,8,0:0:0:0:
256,192,85081,1,4,0:0:0:0:
256,192,85909,1,0,0:0:0:0:
256,192,86116,1,0,0:0:0:0:
256,192,86322,1,8,0:0:0:0:
256,192,86736,1,12,0:0:0:0:
256,192,87357,1,0,0:0:0:0:
256,192,87564,1,8,0:0:0:0:
256,192,87874,1,0,0:0:0:0:
256,192,88185,1,0,0:0:0:0:
256,192,88391,1,12,0:0:0:0:
256,192,89426,1,0,0:0:0:0:
256,192,89633,1,0,0:0:0:0:
256,192,90047,1,8,0:0:0:0:
256,192,90667,1,0,0:0:0:0:
256,192,91288,1,8,0:0:0:0:
256,192,91909,1,8,0:0:0:0:
256,192,92529,1,0,0:0:0:0:
256,192,92943,1,8,0:0:0:0:
256,192,93357,1,8,0:0:0:0:
256,192,93978,1,0,0:0:0:0:
256,192,94598,1,8,0:0:0:0:
256,192,95219,1,8,0:0:0:0:
256,192,95840,1,0,0:0:0:0:
256,192,96254,1,0,0:0:0:0:
256,192,96460,1,8,0:0:0:0:
256,192,96667,1,0,0:0:0:0:
256,192,97288,1,8,0:0:0:0:
256,192,97702,1,0,0:0:0:0:
256,192,97909,1,8,0:0:0:0:
256,192,98736,1,0,0:0:0:0:
256,192,99357,1,8,0:0:0:0:
256,192,99564,1,8,0:0:0:0:
256,192,99978,1,0,0:0:0:0:
256,192,100598,1,8,0:0:0:0:
256,192,101219,1,0,0:0:0:0:
256,192,101840,1,8,0:0:0:0:
256,192,102460,1,0,0:0:0:0:
256,192,102874,1,0,0:0:0:0:
256,192,103081,1,8,0:0:0:0:
256,192,103288,1,0,0:0:0:0:
256,192,103909,1,8,0:0:0:0:
256,192,104529,1,0,0:0:0:0:
256,192,104736,12,0,106185,0:0:0:0:
256,192,106391,5,8,0:0:0:0:
256,192,106598,1,0,0:0:0:0:
256,192,107219,1,0,0:0:0:0:
256,192,107426,1,8,0:0:0:0:
256,192,107840,1,0,0:0:0:0:
256,192,108460,1,8,0:0:0:0:
256,192,108874,1,8,0:0:0:0:
256,192,109288,1,0,0:0:0:0:
256,192,109495,1,8,0:0:0:0:
256,192,109702,1,8,0:0:0:0:
256,192,110116,1,0,0:0:0:0:
256,192,110322,1,0,0:0:0:0:
256,192,110529,1,8,0:0:0:0:
256,192,111150,1,0,0:0:0:0:
256,192,111357,1,0,0:0:0:0:
256,192,111564,1,0,0:0:0:0:
256,192,111771,1,8,0:0:0:0:
256,192,112081,1,0,0:0:0:0:
256,192,112391,1,8,0:0:0:0:
256,192,112805,1,0,0:0:0:0:
256,192,113012,1,0,0:0:0:0:
256,192,113219,1,8,0:0:0:0:
256,192,113840,1,0,0:0:0:0:
256,192,114047,1,8,0:0:0:0:
256,192,114460,1,0,0:0:0:0:
256,192,115081,1,0,0:0:0:0:
256,192,115495,1,0,0:0:0:0:
256,192,115909,1,8,0:0:0:0:
256,192,116116,1,8,0:0:0:0:
256,192,116322,1,8,0:0:0:0:
256,192,116943,1,8,0:0:0:0:
256,192,117150,1,0,0:0:0:0:
256,192,117357,1,8,0:0:0:0:
256,192,117771,1,0,0:0:0:0:
256,192,118391,1,0,0:0:0:0:
256,192,118805,1,0,0:0:0:0:
256,192,119219,1,8,0:0:0:0:
256,192,119426,1,8,0:0:0:0:
256,192,119840,1,0,0:0:0:0:
256,192,120254,1,8,0:0:0:0:
256,192,120460,1,8,0:0:0:0:
256,192,120667,1,0,0:0:0:0:
256,192,121081,1,0,0:0:0:0:
256,192,121288,1,0,0:0:0:0:
256,192,121702,1,0,0:0:0:0:
256,192,121909,1,0,0:0:0:0:
256,192,122116,1,8,0:0:0:0:
256,192,122322,1,8,0:0:0:0:
256,192,122529,1,0,0:0:0:0:
256,192,122736,1,0,0:0:0:0:
256,192,123150,1,8,0:0:0:0:
256,192,123564,1,8,0:0:0:0:
256,192,123771,1,0,0:0:0:0:
256,192,123978,1,0,0:0:0:0:
256,192,124598,1,0,0:0:0:0:
256,192,125012,1,8,0:0:0:0:
256,192,125219,1,0,0:0:0:0:
256,192,125426,1,8,0:0:0:0:
256,192,125633,1,0,0:0:0:0:
256,192,126460,1,0,0:0:0:0:
256,192,126874,1,8,0:0:0:0:
256,192,127081,1,8,0:0:0:0:
256,192,127288,1,0,0:0:0:0:
256,192,127702,1,8,0:0:0:0:
256,192,128116,1,0,0:0:0:0:
256,192,128529,1,0,0:0:0:0:
256,192,128736,1,0,0:0:0:0:
256,192,128943,1,8,0:0:0:0:
256,192,129978,1,8,0:0:0:0:
256,192,130185,1,0,0:0:0:0:
256,192,130391,1,0,0:0:0:0:
256,192,130598,1,8,0:0:0:0:
256,192,131012,1,0,0:0:0:0:
256,192,131219,1,0,0:0:0:0:
256,192,131426,1,8,0:0:0:0:
256,192,131840,1,0,0:0:0:0:
256,192,132047,1,8,0:0:0:0:
256,192,132254,1,0,0:0:0:0:
256,192,132460,1,8,0:0:0:0:
256,192,132667,1,8,0:0:0:0:
256,192,133081,1,4,0:0:0:0:
256,192,133495,1,0,0:0:0:0:
256,192,133702,1,8,0:0:0:0:
256,192,134116,1,8,0:0:0:0:
256,192,134322,1,8,0:0:0:0:
256,192,134736,1,0,0:0:0:0:
256,192,135047,1,8,0:0:0:0:
256,192,135357,1,0,0:0:0:0:
256,192,135771,1,0,0:0:0:0:
256,192,135978,1,8,0:0:0:0:
256,192,136185,1,0,0:0:0:0:
256,192,136391,1,8,0:0:0:0:
256,192,136805,1,0,0:0:0:0:
256,192,137012,1,8,0:0:0:0:
256,192,137426,1,0,0:0:0:0:
256,192,137633,1,8,0:0:0:0:
256,192,138667,1,8,0:0:0:0:
256,192,138874,1,0,0:0:0:0:
256,192,139288,1,8,0:0:0:0:
256,192,139702,1,4,0:0:0:0:
256,192,140116,1,0,0:0:0:0:
256,192,140529,1,0,0:0:0:0:
256,192,140943,1,8,0:0:0:0:
256,192,141150,1,8,0:0:0:0:
256,192,141357,1,0,0:0:0:0:
256,192,141771,1,0,0:0:0:0:
256,192,142185,1,8,0:0:0:0:
256,192,142391,1,8,0:0:0:0:
256,192,142598,1,0,0:0:0:0:
256,192,142805,1,0,0:0:0:0:
256,192,143012,1,12,0:0:0:0:
256,192,143840,1,0,0:0:0:0:
256,192,144254,1,0,0:0:0:0:
256,192,144667,1,12,0:0:0:0:
256,192,144978,1,0,0:0:0:0:
256,192,145288,1,0,0:0:0:0:
256,192,145495,1,8,0:0:0:0:
256,192,145702,1,0,0:0:0:0:
256,192,145909,1,8,0:0:0:0:
256,192,146322,1,12,0:0:0:0:
256,192,146943,1,0,0:0:0:0:
256,192,147150,1,12,0:0:0:0:
256,192,147978,1,0,0:0:0:0:
256,192,148805,1,8,0:0:0:0:
256,192,149219,1,0,0:0:0:0:
256,192,149633,1,12,0:0:0:0:
256,192,150046,1,8,0:0:0:0:
256,192,150253,1,0,0:0:0:0:
256,192,150667,1,0,0:0:0:0:
256,192,150874,1,0,0:0:0:0:
256,192,151081,1,8,0:0:0:0:
256,192,151495,1,8,0:0:0:0:
256,192,151701,1,8,0:0:0:0:
256,192,151908,1,0,0:0:0:0:
256,192,152115,1,8,0:0:0:0:
256,192,152529,1,0,0:0:0:0:
256,192,152943,1,8,0:0:0:0:
256,192,153357,1,0,0:0:0:0:
256,192,153564,1,8,0:0:0:0:
256,192,153977,1,8,0:0:0:0:
256,192,154184,1,0,0:0:0:0:
256,192,154391,1,8,0:0:0:0:
256,192,155219,1,8,0:0:0:0:
256,192,155633,1,0,0:0:0:0:
256,192,155839,1,8,0:0:0:0:
256,192,156253,1,0,0:0:0:0:
256,192,156564,1,8,0:0:0:0:
256,192,156874,1,8,0:0:0:0:
256,192,157081,1,0,0:0:0:0:
256,192,157495,1,8,0:0:0:0:
256,192,157908,1,0,0:0:0:0:
256,192,158219,1,0,0:0:0:0:
256,192,158529,1,8,0:0:0:0:
256,192,158736,1,0,0:0:0:0:
256,192,159150,1,8,0:0:0:0:
256,192,159564,1,8,0:0:0:0:
256,192,159977,1,0,0:0:0:0:
256,192,160184,1,8,0:0:0:0:
256,192,160805,1,0,0:0:0:0:
256,192,161219,1,8,0:0:0:0:
256,192,161633,1,0,0:0:0:0:
256,192,161839,1,0,0:0:0:0:
256,192,162046,1,8,0:0:0:0:
256,192,162874,1,0,0:0:0:0:
256,192,163288,1,8,0:0:0:0:
256,192,163495,1,0,0:0:0:0:
256,192,163908,1,8,0:0:0:0:
256,192,164115,1,0,0:0:0:0:
256,192,164322,1,8,0:0:0:0:
256,192,164736,1,0,0:0:0:0:
256,192,164943,1,8,0:0:0:0:
256,192,165150,1,0,0:0:0:0:
256,192,165357,1,8,0:0:0:0:
256,192,165564,1,0,0:0:0:0:
256,192,165770,1,0,0:0:0:0:
256,192,166184,1,12,0:0:0:0:
256,192,166598,1,0,0:0:0:0:
256,192,166805,1,12,0:0:0:0:
256,192,167219,1,0,0:0:0:0:
256,192,167426,1,12,0:0:0:0:
256,192,168253,1,8,0:0:0:0:
256,192,168667,1,8,0:0:0:0:
256,192,168874,1,0,0:0:0:0:
256,192,169081,1,0,0:0:0:0:
256,192,169495,1,8,0:0:0:0:
256,192,169805,1,0,0:0:0:0:
256,192,170115,1,8,0:0:0:0:
256,192,170322,1,0,0:0:0:0:
256,192,170736,1,0,0:0:0:0:
256,192,171150,1,8,0:0:0:0:
256,192,171460,1,8,0:0:0:0:
256,192,171770,1,0,0:0:0:0:
256,192,171977,1,8,0:0:0:0:
256,192,172391,1,0,0:0:0:0:
256,192,172598,1,0,0:0:0:0:
256,192,172805,1,12,0:0:0:0:
256,192,173219,1,0,0:0:0:0:
256,192,173426,1,8,0:0:0:0:
256,192,173633,1,12,0:0:0:0:
256,192,174046,1,0,0:0:0:0:
256,192,174253,1,8,0:0:0:0:
256,192,174460,1,4,0:0:0:0:
256,192,174874,1,0,0:0:0:0:
256,192,175288,1,8,0:0:0:0:
256,192,175495,1,0,0:0:0:0:
256,192,175701,1,0,0:0:0:0:
256,192,176115,1,12,0:0:0:0:
256,192,176943,1,8,0:0:0:0:
256,192,177253,1,0,0:0:0:0:
256,192,177564,1,0,0:0:0:0:
256,192,177770,1,12,0:0:0:0:
256,192,178805,1,0,0:0:0:0:
256,192,179012,1,0,0:0:0:0:
256,192,179426,5,12,0:0:0:0:
256,192,182529,1,0,0:0:0:0:
256,192,182736,1,0,0:0:0:0:
256,192,184391,1,8,0:0:0:0:
256,192,185219,1,8,0:0:0:0:
256,192,186046,1,0,0:0:0:0:
256,192,189150,1,0,0:0:0:0:
256,192,189357,1,8,0:0:0:0:
256,192,192667,1,8,0:0:0:0:
256,192,193495,1,8,0:0:0:0:
256,192,194322,1,0,0:0:0:0:
256,192,195150,1,8,0:0:0:0:
256,192,195977,1,0,0:0:0:0:
256,192,196805,1,8,0:0:0:0:
256,192,197219,1,0,0:0:0:0:
256,192,197633,1,8,0:0:0:0:
256,192,198460,1,0,0:0:0:0:
256,192,199288,1,8,0:0:0:0:
256,192,200115,1,0,0:0:0:0:
256,192,200322,1,0,0:0:0:0:
256,192,200736,1,8,0:0:0:0:
256,192,201357,1,0,0:0:0:0:
256,192,201564,1,0,0:0:0:0:
256,192,201770,1,8,0:0:0:0:
256,192,201977,1,0,0:0:0:0:
256,192,202184,1,8,0:0:0:0:
256,192,202598,1,8,0:0:0:0:
256,192,202805,1,0,0:0:0:0:
256,192,203012,1,0,0:0:0:0:
256,192,203219,1,8,0:0:0:0:
256,192,203839,1,0,0:0:0:0:
256,192,204046,12,0,205908,0:0:0:0:
256,192,206529,5,8,0:0:0:0:
256,192,206943,1,0,0:0:0:0:
256,192,207150,1,0,0:0:0:0:
256,192,207564,1,8,0:0:0:0:
256,192,207770,1,0,0:0:0:0:
256,192,207977,1,8,0:0:0:0:
256,192,208391,1,4,0:0:0:0:
256,192,209218,1,8,0:0:0:0:
256,192,209425,1,0,0:0:0:0:
256,192,209839,1,12,0:0:0:0:
256,192,210253,1,8,0:0:0:0:
256,192,210459,1,8,0:0:0:0:
256,192,210666,1,0,0:0:0:0:
256,192,211080,1,0,0:0:0:0:
256,192,211287,1,8,0:0:0:0:
256,192,211701,1,4,0:0:0:0:
256,192,212528,1,8,0:0:0:0:
256,192,212735,1,0,0:0:0:0:
256,192,213356,1,0,0:0:0:0:
256,192,213563,1,8,0:0:0:0:
256,192,213770,1,8,0:0:0:0:
256,192,213977,1,8,0:0:0:0:
256,192,214391,1,0,0:0:0:0:
256,192,215011,1,8,0:0:0:0:
256,192,215322,1,8,0:0:0:0:
256,192,215632,1,0,0:0:0:0:
256,192,215839,1,8,0:0:0:0:
256,192,216253,1,0,0:0:0:0:
256,192,216666,1,0,0:0:0:0:
256,192,216977,1,0,0:0:0:0:
256,192,217287,1,8,0:0:0:0:
256,192,217494,1,0,0:0:0:0:
256,192,217908,1,8,0:0:0:0:
256,192,218322,1,8,0:0:0:0:
256,192,218735,1,0,0:0:0:0:
256,192,218942,1,8,0:0:0:0:
256,192,219356,1,8,0:0:0:0:
256,192,219563,1,0,0:0:0:0:
256,192,219770,1,0,0:0:0:0:
256,192,219977,1,8,0:0:0:0:
256,192,220391,1,8,0:0:0:0:
256,192,220598,1,8,0:0:0:0:
256,192,220804,1,0,0:0:0:0:
256,192,221632,1,0,0:0:0:0:
256,192,222046,1,8,0:0:0:0:
256,192,222253,1,0,0:0:0:0:
256,192,222666,1,0,0:0:0:0:
256,192,222873,1,0,0:0:0:0:
256,192,223080,1,8,0:0:0:0:
256,192,223494,1,0,0:0:0:0:
256,192,223701,1,8,0:0:0:0:
256,192,223908,1,0,0:0:0:0:
256,192,224115,1,0,0:0:0:0:
256,192,224322,1,8,0:0:0:0:
256,192,224528,1,8,0:0:0:0:
256,192,224942,1,12,0:0:0:0:
256,192,225356,1,0,0:0:0:0:
256,192,225563,1,12,0:0:0:0:
256,192,225977,1,0,0:0:0:0:
256,192,226184,1,12,0:0:0:0:
256,192,227011,1,8,0:0:0:0:
256,192,227425,1,8,0:0:0:0:
256,192,227632,1,0,0:0:0:0:
256,192,227839,1,0,0:0:0:0:
256,192,228253,1,0,0:0:0:0:
256,192,228563,1,0,0:0:0:0:
256,192,228873,1,8,0:0:0:0:
256,192,229080,1,0,0:0:0:0:
256,192,229494,1,0,0:0:0:0:
256,192,229908,1,8,0:0:0:0:
256,192,230218,1,8,0:0:0:0:
256,192,230528,1,0,0:0:0:0:
256,192,230735,1,8,0:0:0:0:
256,192,231149,1,0,0:0:0:0:
256,192,231356,1,0,0:0:0:0:
256,192,231563,1,12,0:0:0:0:
256,192,231977,1,0,0:0:0:0:
256,192,232184,1,8,0:0:0:0:
256,192,232391,1,12,0:0:0:0:
256,192,232804,1,0,0:0:0:0:
256,192,233011,1,8,0:0:0:0:
256,192,233218,1,4,0:0:0:0:
256,192,233632,1,0,0:0:0:0:
256,192,234046,1,8,0:0:0:0:
256,192,234253,1,0,0:0:0:0:
256,192,234459,1,0,0:0:0:0:
256,192,234666,1,0,0:0:0:0:
256,192,234873,1,12,0:0:0:0:
256,192,235701,1,8,0:0:0:0:
256,192,236011,1,0,0:0:0:0:
256,192,236322,1,0,0:0:0:0:
256,192,236528,1,12,0:0:0:0:
256,192,237563,1,0,0:0:0:0:
256,192,237770,1,0,0:0:0:0:
256,192,238184,1,12,0:0:0:0:
256,192,238804,1,12,0:0:0:0:
256,192,239425,1,4,0:0:0:0:
256,192,239839,12,0,241080,0:0:0:0:
256,192,241494,5,12,0:0:0:0:
256,192,241908,1,0,0:0:0:0:
256,192,242115,1,0,0:0:0:0:
256,192,242322,1,8,0:0:0:0:
256,192,242735,1,0,0:0:0:0:
256,192,243149,1,8,0:0:0:0:
256,192,243563,1,8,0:0:0:0:
256,192,243770,1,0,0:0:0:0:
256,192,243977,1,8,0:0:0:0:
256,192,244391,1,0,0:0:0:0:
256,192,244804,1,0,0:0:0:0:
256,192,245632,1,8,0:0:0:0:
256,192,246459,1,0,0:0:0:0:
256,192,246666,1,8,0:0:0:0:
256,192,246873,1,8,0:0:0:0:
256,192,247080,1,0,0:0:0:0:
256,192,247287,1,8,0:0:0:0:
256,192,247701,1,0,0:0:0:0:
256,192,248115,1,12,0:0:0:0:
256,192,248528,1,0,0:0:0:0:
256,192,248735,1,0,0:0:0:0:
256,192,248942,1,8,0:0:0:0:
256,192,249356,1,0,0:0:0:0:
256,192,249770,1,8,0:0:0:0:
256,192,250184,1,0,0:0:0:0:
256,192,250391,1,8,0:0:0:0:
256,192,250597,1,8,0:0:0:0:
256,192,251011,1,0,0:0:0:0:
256,192,251425,1,0,0:0:0:0:
256,192,252253,1,8,0:0:0:0:
256,192,253080,1,0,0:0:0:0:
256,192,253494,1,8,0:0:0:0:
256,192,253701,1,0,0:0:0:0:
256,192,253908,1,8,0:0:0:0:
256,192,254115,1,8,0:0:0:0:
256,192,254322,1,0,0:0:0:0:
256,192,254528,1,0,0:0:0:0:
256,192,254735,1,12,0:0:0:0:
256,192,255149,1,0,0:0:0:0:
256,192,255356,1,0,0:0:0:0:
256,192,255563,1,8,0:0:0:0:
256,192,255977,1,0,0:0:0:0:
256,192,256391,1,8,0:0:0:0:
256,192,256804,1,8,0:0:0:0:
256,192,257011,1,0,0:0:0:0:
256,192,257218,1,8,0:0:0:0:
256,192,257632,1,0,0:0:0:0:
256,192,258046,1,0,0:0:0:0:
256,192,258873,1,8,0:0:0:0:
256,192,259701,1,0,0:0:0:0:
256,192,260115,1,8,0:0:0:0:
256,192,260528,1,0,0:0:0:0:
256,192,260839,1,0,0:0:0:0:
256,192,261149,1,8,0:0:0:0:
256,192,261356,1,4,0:0:0:0:
256,192,261770,1,0,0:0:0:0:
256,192,261977,1,8,0:0:0:0:
256,192,262184,1,0,0:0:0:0:
256,192,262597,1,4,0:0:0:0:
256,192,263011,1,0,0:0:0:0:
256,192,263218,1,8,0:0:0:0:
256,192,263425,1,0,0:0:0:0:
256,192,263839,1,8,0:0:0:0:
256,192,264046,1,0,0:0:0:0:
256,192,264253,1,8,0:0:0:0:
256,192,264459,1,0,0:0:0:0:
256,192,264666,1,8,0:0:0:0:
256,192,264873,1,8,0:0:0:0:
256,192,265287,1,0,0:0:0:0:
256,192,265494,1,0,0:0:0:0:
256,192,265908,1,8,0:0:0:0:
256,192,266115,1,8,0:0:0:0:
256,192,266528,1,0,0:0:0:0:
256,192,266735,1,0,0:0:0:0:
256,192,267149,1,8,0:0:0:0:
256,192,267356,1,8,0:0:0:0:
256,192,267563,1,0,0:0:0:0:
256,192,267770,1,8,0:0:0:0:
256,192,267977,12,0,269632,0:0:0:0:
