osu file format v14

[General]
AudioFilename: audio.mp3
AudioLeadIn: 0
PreviewTime: 221632
Countdown: 0
SampleSet: Normal
StackLeniency: 0.7
Mode: 1
LetterboxInBreaks: 0
WidescreenStoryboard: 0

[Editor]
DistanceSpacing: 2.9
BeatDivisor: 4
GridSize: 32
TimelineZoom: 2

[Metadata]
Title:Future Parade
TitleUnicode:Future Parade
Artist:Nijigasaki High School Idol Club
ArtistUnicode:虹ヶ咲学園スクールアイドル同好会
Creator:makimen
Version:Rainbow
Source:ラブライブ!虹ヶ咲学園スクールアイドル同好会
Tags:makimen419 _hellfly_ -Maruko- Sammu anime Japanese love live! nijigaku ニジガク jpop j-pop female vocal lovelive school idol project 上原歩夢 Uehara Ayumu 中須かすみ Nakasu Kasumi 桜坂しずく Osaka Shizuku 朝香果林 Asaka Karin 宮下愛 Miyashita Ai 近江彼方 Konoe Kanata 優木せつな Yuki Setsuna エマ・ヴェルデ Emma Verde 天王寺璃奈 Tennoji Rina 三船栞子 Mifune Shioriko ミア・テイラー Mia Taylor 鐘嵐珠 Zhong Lanzhu
BeatmapID:4038974
BeatmapSetID:1950655

[Difficulty]
HPDrainRate:5.8
CircleSize:7
OverallDifficulty:7
ApproachRate:10
SliderMultiplier:1.4
SliderTickRate:1

[Events]
//Background and Video events
0,0,"future parade image.png",0,151
//Break Periods
2,186247,191468
//Storyboard Layer 0 (Background)
//Storyboard Layer 1 (Fail)
//Storyboard Layer 2 (Pass)
//Storyboard Layer 3 (Foreground)
//Storyboard Layer 4 (Overlay)
//Storyboard Sound Samples

[TimingPoints]
3979,413.793103448276,4,1,0,75,1,0
29831,-114.942528735632,4,1,0,81,0,0
30037,-113.636363636364,4,1,0,81,0,0
30244,-112.359550561798,4,1,0,81,0,0
30451,-111.111111111111,4,1,0,81,0,0
49486,-109.89010989011,4,1,0,81,0,0
49693,-108.695652173913,4,1,0,81,0,0
49900,-107.52688172043,4,1,0,81,0,0
50106,-106.382978723404,4,1,0,81,0,0
50313,-105.263157894737,4,1,0,85,0,0
58589,-104.166666666667,4,1,0,86,0,0
59003,-103.092783505155,4,1,0,87,0,0
59417,-102.040816326531,4,1,0,88,0,0
59831,-101.010101010101,4,1,0,89,0,0
60254,413.793103448276,4,1,0,90,1,0
60254,-100,4,1,0,90,0,1
93357,-105.263157894737,4,1,0,85,0,0
106381,-111.111111111111,4,1,0,85,0,0
119209,-108.695652173913,4,1,0,85,0,0
119416,-107.52688172043,4,1,0,85,0,0
119623,-106.382978723404,4,1,0,85,0,0
119830,-105.263157894737,4,1,0,85,0,0
147968,-104.166666666667,4,1,0,86,0,0
148381,-103.092783505155,4,1,0,87,0,0
148795,-102.040816326531,4,1,0,88,0,0
149209,-101.010101010101,4,1,0,89,0,0
149633,413.793103448276,4,1,0,90,1,0
149633,-100,4,1,0,90,0,1
179426,-100,4,1,0,90,0,0
179830,-111.111111111111,4,1,0,75,0,0
192657,-117.647058823529,4,1,0,80,0,0
199278,-111.111111111111,4,1,0,85,0,0
205899,-111.111111111111,4,1,0,80,0,0
206726,-111.111111111111,4,1,0,80,0,8
207554,-105.263157894737,4,1,0,80,0,8
208391,413.793103448276,4,1,0,80,1,0
208391,-105.263157894737,4,1,0,85,0,0
213346,-104.166666666667,4,1,0,86,0,0
213760,-103.092783505155,4,1,0,87,0,0
214174,-102.040816326531,4,1,0,88,0,0
214587,-101.010101010101,4,1,0,89,0,0
215011,-100,4,1,0,90,0,1
239839,-99.009900990099,4,1,0,91,0,0
240243,-98.0392156862745,4,1,0,92,0,0
240656,-97.0873786407767,4,1,0,93,0,0
241070,-95.7854406130268,4,1,0,94,0,0
241494,-95.2380952380952,4,1,0,95,0,1
269632,-95.2380952380952,4,1,0,80,0,0

[HitObjects]
256,192,3979,5,8,0:0:0:0:
256,192,4185,1,0,0:0:0:0:
256,192,4392,1,0,0:0:0:0:
256,192,4599,1,8,0:0:0:0:
256,192,4806,1,0,0:0:0:0:
256,192,5013,1,0,0:0:0:0:
256,192,5220,1,8,0:0:0:0:
256,192,5427,1,0,0:0:0:0:
256,192,5634,1,0,0:0:0:0:
256,192,5841,1,8,0:0:0:0:
256,192,6047,1,0,0:0:0:0:
256,192,6254,1,0,0:0:0:0:
256,192,6461,1,8,0:0:0:0:
256,192,6668,1,0,0:0:0:0:
256,192,6875,1,0,0:0:0:0:
256,192,7082,1,0,0:0:0:0:
256,192,7289,1,8,0:0:0:0:
256,192,7496,1,0,0:0:0:0:
256,192,7703,1,0,0:0:0:0:
256,192,7910,1,8,0:0:0:0:
256,192,8116,1,0,0:0:0:0:
256,192,8323,1,0,0:0:0:0:
256,192,8530,1,8,0:0:0:0:
256,192,8737,1,0,0:0:0:0:
256,192,8944,1,0,0:0:0:0:
256,192,9151,1,8,0:0:0:0:
256,192,9358,1,0,0:0:0:0:
256,192,9565,1,0,0:0:0:0:
256,192,9772,1,8,0:0:0:0:
256,192,9979,1,0,0:0:0:0:
256,192,10185,1,0,0:0:0:0:
256,192,10392,1,0,0:0:0:0:
256,192,10599,1,8,0:0:0:0:
256,192,10806,1,8,0:0:0:0:
256,192,11013,1,0,0:0:0:0:
256,192,11220,1,8,0:0:0:0:
256,192,11427,1,0,0:0:0:0:
256,192,11634,1,0,0:0:0:0:
256,192,11841,1,8,0:0:0:0:
256,192,12047,1,8,0:0:0:0:
256,192,12254,1,0,0:0:0:0:
256,192,12461,1,8,0:0:0:0:
256,192,12668,1,0,0:0:0:0:
256,192,12875,1,0,0:0:0:0:
256,192,13082,1,8,0:0:0:0:
256,192,13289,1,8,0:0:0:0:
256,192,13496,1,0,0:0:0:0:
256,192,13703,1,0,0:0:0:0:
256,192,13910,1,8,0:0:0:0:
256,192,14116,1,8,0:0:0:0:
256,192,14323,1,0,0:0:0:0:
256,192,14530,1,8,0:0:0:0:
256,192,14737,1,0,0:0:0:0:
256,192,14944,1,0,0:0:0:0:
256,192,15151,1,8,0:0:0:0:
256,192,15358,1,8,0:0:0:0:
256,192,15565,1,0,0:0:0:0:
256,192,15772,1,8,0:0:0:0:
256,192,15979,1,0,0:0:0:0:
256,192,16185,1,0,0:0:0:0:
256,192,16392,1,8,0:0:0:0:
256,192,16599,1,8,0:0:0:0:
256,192,16806,1,0,0:0:0:0:
256,192,17013,1,0,0:0:0:0:
256,192,17220,1,8,0:0:0:0:
256,192,17427,1,0,0:0:0:0:
256,192,17634,1,8,0:0:0:0:
256,192,17841,1,8,0:0:0:0:
256,192,18047,1,0,0:0:0:0:
256,192,18461,1,0,0:0:0:0:
256,192,18668,1,0,0:0:0:0:
256,192,18875,1,8,0:0:0:0:
256,192,19082,1,8,0:0:0:0:
256,192,19289,1,8,0:0:0:0:
256,192,19496,1,0,0:0:0:0:
256,192,19910,1,0,0:0:0:0:
256,192,20116,1,8,0:0:0:0:
256,192,20323,1,8,0:0:0:0:
256,192,20530,1,0,0:0:0:0:
256,192,20737,1,8,0:0:0:0:
256,192,20944,1,0,0:0:0:0:
256,192,21151,1,0,0:0:0:0:
256,192,21358,1,8,0:0:0:0:
256,192,21772,1,8,0:0:0:0:
256,192,21979,1,0,0:0:0:0:
256,192,22392,1,0,0:0:0:0:
256,192,22599,1,8,0:0:0:0:
256,192,22806,1,8,0:0:0:0:
256,192,23013,1,0,0:0:0:0:
256,192,23220,1,0,0:0:0:0:
256,192,23427,1,8,0:0:0:0:
256,192,23841,1,0,0:0:0:0:
256,192,24047,1,8,0:0:0:0:
256,192,24254,1,8,0:0:0:0:
256,192,24461,1,0,0:0:0:0:
256,192,24668,1,8,0:0:0:0:
256,192,25082,1,8,0:0:0:0:
256,192,25289,1,0,0:0:0:0:
256,192,25496,1,8,0:0:0:0:
256,192,25703,1,8,0:0:0:0:
256,192,25910,1,0,0:0:0:0:
256,192,26116,1,8,0:0:0:0:
256,192,26530,1,8,0:0:0:0:
256,192,26737,1,8,0:0:0:0:
256,192,26944,1,8,0:0:0:0:
256,192,27151,1,0,0:0:0:0:
256,192,27565,1,0,0:0:0:0:
256,192,27772,1,8,0:0:0:0:
256,192,27979,1,0,0:0:0:0:
256,192,28185,1,0,0:0:0:0:
256,192,28392,1,8,0:0:0:0:
256,192,28599,12,0,29634,0:0:0:0:
256,192,29841,5,8,0:0:0:0:
256,192,30047,1,0,0:0:0:0:
256,192,30254,1,8,0:0:0:0:
256,192,30461,1,4,0:0:0:0:
256,192,30668,1,0,0:0:0:0:
256,192,30772,1,0,0:0:0:0:
256,192,30875,1,8,0:0:0:0:
256,192,31082,1,0,0:0:0:0:
256,192,31289,1,8,0:0:0:0:
256,192,31496,1,8,0:0:0:0:
256,192,31599,1,8,0:0:0:0:
256,192,31703,1,0,0:0:0:0:
256,192,31910,1,8,0:0:0:0:
256,192,32116,1,0,0:0:0:0:
256,192,32323,1,0,0:0:0:0:
256,192,32427,1,0,0:0:0:0:
256,192,32530,1,8,0:0:0:0:
256,192,32737,1,0,0:0:0:0:
256,192,32944,1,8,0:0:0:0:
256,192,33047,1,8,0:0:0:0:
256,192,33151,1,0,0:0:0:0:
256,192,33254,1,0,0:0:0:0:
256,192,33358,1,8,0:0:0:0:
256,192,33565,1,8,0:0:0:0:
256,192,33772,1,0,0:0:0:0:
256,192,33979,1,0,0:0:0:0:
256,192,34082,1,0,0:0:0:0:
256,192,34185,1,8,0:0:0:0:
256,192,34289,1,0,0:0:0:0:
256,192,34392,1,0,0:0:0:0:
256,192,34599,1,8,0:0:0:0:
256,192,34806,1,0,0:0:0:0:
256,192,34910,1,8,0:0:0:0:
256,192,35013,1,0,0:0:0:0:
256,192,35220,1,8,0:0:0:0:
256,192,35427,1,0,0:0:0:0:
256,192,35634,1,0,0:0:0:0:
256,192,35737,1,0,0:0:0:0:
256,192,35841,1,8,0:0:0:0:
256,192,36047,1,0,0:0:0:0:
256,192,36254,1,8,0:0:0:0:
256,192,36461,1,8,0:0:0:0:
256,192,36565,1,0,0:0:0:0:
256,192,36668,1,8,0:0:0:0:
256,192,36875,1,0,0:0:0:0:
256,192,37082,1,8,0:0:0:0:
256,192,37289,1,0,0:0:0:0:
256,192,37392,1,0,0:0:0:0:
256,192,37496,1,8,0:0:0:0:
256,192,37599,1,8,0:0:0:0:
256,192,37703,1,0,0:0:0:0:
256,192,37910,1,8,0:0:0:0:
256,192,38116,1,8,0:0:0:0:
256,192,38220,1,8,0:0:0:0:
256,192,38323,1,0,0:0:0:0:
256,192,38427,1,0,0:0:0:0:
256,192,38530,1,8,0:0:0:0:
256,192,38737,1,0,0:0:0:0:
256,192,38944,1,0,0:0:0:0:
256,192,39047,1,0,0:0:0:0:
256,192,39151,1,8,0:0:0:0:
256,192,39358,1,0,0:0:0:0:
256,192,39565,1,8,0:0:0:0:
256,192,39668,1,0,0:0:0:0:
256,192,39772,1,0,0:0:0:0:
256,192,39875,1,0,0:0:0:0:
256,192,39979,1,8,0:0:0:0:
256,192,40185,1,0,0:0:0:0:
256,192,40392,1,8,0:0:0:0:
256,192,40599,1,0,0:0:0:0:
256,192,40703,1,0,0:0:0:0:
256,192,40806,1,8,0:0:0:0:
256,192,40910,1,0,0:0:0:0:
256,192,41013,1,8,0:0:0:0:
256,192,41220,1,8,0:0:0:0:
256,192,41427,1,0,0:0:0:0:
256,192,41530,1,8,0:0:0:0:
256,192,41634,1,0,0:0:0:0:
256,192,41841,1,0,0:0:0:0:
256,192,42047,1,8,0:0:0:0:
256,192,42254,1,0,0:0:0:0:
256,192,42358,1,0,0:0:0:0:
256,192,42461,1,8,0:0:0:0:
256,192,42668,1,8,0:0:0:0:
256,192,42772,1,8,0:0:0:0:
256,192,42875,1,0,0:0:0:0:
256,192,42979,1,8,0:0:0:0:
256,192,43082,1,0,0:0:0:0:
256,192,43185,1,0,0:0:0:0:
256,192,43289,1,8,0:0:0:0:
256,192,43496,1,8,0:0:0:0:
256,192,43599,1,8,0:0:0:0:
256,192,43703,1,4,0:0:0:0:
256,192,43910,1,0,0:0:0:0:
256,192,44116,1,8,0:0:0:0:
256,192,44323,1,0,0:0:0:0:
256,192,44427,1,0,0:0:0:0:
256,192,44530,1,8,0:0:0:0:
256,192,44737,1,0,0:0:0:0:
256,192,44944,1,8,0:0:0:0:
256,192,45047,1,8,0:0:0:0:
256,192,45151,1,0,0:0:0:0:
256,192,45358,1,8,0:0:0:0:
256,192,45565,1,0,0:0:0:0:
256,192,45668,1,8,0:0:0:0:
256,192,45772,1,0,0:0:0:0:
256,192,45875,1,0,0:0:0:0:
256,192,45979,1,8,0:0:0:0:
256,192,46185,1,0,0:0:0:0:
256,192,46392,1,8,0:0:0:0:
256,192,46496,1,0,0:0:0:0:
256,192,46599,1,8,0:0:0:0:
256,192,46806,1,8,0:0:0:0:
256,192,46910,1,0,0:0:0:0:
256,192,47013,1,8,0:0:0:0:
256,192,47116,1,8,0:0:0:0:
256,192,47220,1,0,0:0:0:0:
256,192,47323,1,0,0:0:0:0:
256,192,47427,1,8,0:0:0:0:
256,192,47634,1,8,0:0:0:0:
256,192,47737,1,0,0:0:0:0:
256,192,47841,1,0,0:0:0:0:
256,192,47944,1,0,0:0:0:0:
256,192,48047,1,8,0:0:0:0:
256,192,48254,1,8,0:0:0:0:
256,192,48461,12,8,49082,0:0:0:0:
256,192,49289,5,8,0:0:0:0:
256,192,49496,1,0,0:0:0:0:
256,192,49599,1,8,0:0:0:0:
256,192,49703,1,8,0:0:0:0:
256,192,49806,1,0,0:0:0:0:
256,192,49910,1,0,0:0:0:0:
256,192,50013,1,0,0:0:0:0:
256,192,50116,1,8,0:0:0:0:
256,192,50220,1,8,0:0:0:0:
256,192,50323,1,4,0:0:0:0:
256,192,50530,1,0,0:0:0:0:
256,192,50634,1,0,0:0:0:0:
256,192,50737,1,8,0:0:0:0:
256,192,50944,1,0,0:0:0:0:
256,192,51151,1,8,0:0:0:0:
256,192,51254,1,8,0:0:0:0:
256,192,51358,1,0,0:0:0:0:
256,192,51461,1,0,0:0:0:0:
256,192,51565,1,8,0:0:0:0:
256,192,51668,1,0,0:0:0:0:
256,192,51772,1,8,0:0:0:0:
256,192,51979,1,0,0:0:0:0:
256,192,52185,1,8,0:0:0:0:
256,192,52289,1,0,0:0:0:0:
256,192,52392,1,8,0:0:0:0:
256,192,52599,1,8,0:0:0:0:
256,192,52703,1,0,0:0:0:0:
256,192,52806,1,8,0:0:0:0:
256,192,52910,1,8,0:0:0:0:
256,192,53013,1,0,0:0:0:0:
256,192,53116,1,0,0:0:0:0:
256,192,53220,1,8,0:0:0:0:
256,192,53427,1,8,0:0:0:0:
256,192,53530,1,8,0:0:0:0:
256,192,53634,1,4,0:0:0:0:
256,192,54047,1,8,0:0:0:0:
256,192,54254,1,0,0:0:0:0:
256,192,54358,1,0,0:0:0:0:
256,192,54461,1,0,0:0:0:0:
256,192,54668,1,0,0:0:0:0:
256,192,54875,1,8,0:0:0:0:
256,192,55082,1,0,0:0:0:0:
256,192,55185,1,0,0:0:0:0:
256,192,55289,1,12,0:0:0:0:
256,192,55496,1,0,0:0:0:0:
256,192,55599,1,8,0:0:0:0:
256,192,55703,1,0,0:0:0:0:
256,192,55806,1,0,0:0:0:0:
256,192,55910,1,8,0:0:0:0:
256,192,56116,1,8,0:0:0:0:
256,192,56220,1,0,0:0:0:0:
256,192,56323,1,0,0:0:0:0:
256,192,56530,1,8,0:0:0:0:
256,192,56634,1,8,0:0:0:0:
256,192,56737,1,0,0:0:0:0:
256,192,56841,1,8,0:0:0:0:
256,192,56944,1,4,0:0:0:0:
256,192,57358,1,8,0:0:0:0:
256,192,57565,1,0,0:0:0:0:
256,192,57668,1,0,0:0:0:0:
256,192,57772,1,12,0:0:0:0:
256,192,58185,1,8,0:0:0:0:
256,192,58392,1,0,0:0:0:0:
256,192,58599,1,0,0:0:0:0:
256,192,58703,1,0,0:0:0:0:
256,192,58806,1,8,0:0:0:0:
256,192,59013,1,8,0:0:0:0:
256,192,59116,1,0,0:0:0:0:
256,192,59220,1,8,0:0:0:0:
256,192,59427,1,8,0:0:0:0:
256,192,59530,1,8,0:0:0:0:
256,192,59634,1,0,0:0:0:0:
256,192,59737,1,8,0:0:0:0:
256,192,59841,1,0,0:0:0:0:
256,192,59944,1,0,0:0:0:0:
256,192,60047,1,8,0:0:0:0:
256,192,60254,1,4,0:0:0:0:
256,192,60460,1,0,0:0:0:0:
256,192,60564,1,0,0:0:0:0:
256,192,60667,1,8,0:0:0:0:
256,192,60874,1,8,0:0:0:0:
256,192,60978,1,8,0:0:0:0:
256,192,61081,1,0,0:0:0:0:
256,192,61288,1,0,0:0:0:0:
256,192,61391,1,8,0:0:0:0:
256,192,61495,1,0,0:0:0:0:
256,192,61598,1,0,0:0:0:0:
256,192,61702,1,8,0:0:0:0:
256,192,61909,1,8,0:0:0:0:
256,192,62115,1,0,0:0:0:0:
256,192,62219,1,8,0:0:0:0:
256,192,62322,1,8,0:0:0:0:
256,192,62529,1,8,0:0:0:0:
256,192,62633,1,0,0:0:0:0:
256,192,62736,1,8,0:0:0:0:
256,192,62840,1,8,0:0:0:0:
256,192,62943,1,0,0:0:0:0:
256,192,63046,1,0,0:0:0:0:
256,192,63150,1,8,0:0:0:0:
256,192,63357,1,0,0:0:0:0:
256,192,63564,1,8,0:0:0:0:
256,192,63771,1,0,0:0:0:0:
256,192,63874,1,0,0:0:0:0:
256,192,63978,1,8,0:0:0:0:
256,192,64081,1,0,0:0:0:0:
256,192,64184,1,8,0:0:0:0:
256,192,64288,1,8,0:0:0:0:
256,192,64391,1,0,0:0:0:0:
256,192,64598,1,8,0:0:0:0:
256,192,64805,1,0,0:0:0:0:
256,192,64909,1,8,0:0:0:0:
256,192,65012,1,8,0:0:0:0:
256,192,65219,1,0,0:0:0:0:
256,192,65426,1,8,0:0:0:0:
256,192,65529,1,0,0:0:0:0:
256,192,65633,1,0,0:0:0:0:
256,192,65736,1,0,0:0:0:0:
256,192,65840,1,8,0:0:0:0:
256,192,65943,1,8,0:0:0:0:
256,192,66046,1,0,0:0:0:0:
256,192,66150,1,8,0:0:0:0:
256,192,66253,1,0,0:0:0:0:
256,192,66357,1,0,0:0:0:0:
256,192,66460,1,8,0:0:0:0:
256,192,66667,1,0,0:0:0:0:
256,192,66874,1,8,0:0:0:0:
256,192,66978,1,0,0:0:0:0:
256,192,67081,1,0,0:0:0:0:
256,192,67184,1,8,0:0:0:0:
256,192,67391,1,8,0:0:0:0:
256,192,67495,1,0,0:0:0:0:
256,192,67702,1,8,0:0:0:0:
256,192,67805,1,0,0:0:0:0:
256,192,67909,1,0,0:0:0:0:
256,192,68012,1,8,0:0:0:0:
256,192,68219,1,8,0:0:0:0:
256,192,68322,1,0,0:0:0:0:
256,192,68529,1,0,0:0:0:0:
256,192,68633,1,0,0:0:0:0:
256,192,68736,1,8,0:0:0:0:
256,192,68840,1,0,0:0:0:0:
256,192,69046,1,0,0:0:0:0:
256,192,69150,1,8,0:0:0:0:
256,192,69357,1,0,0:0:0:0:
256,192,69460,1,0,0:0:0:0:
256,192,69564,1,8,0:0:0:0:
256,192,69667,1,0,0:0:0:0:
256,192,69874,1,0,0:0:0:0:
256,192,69978,1,8,0:0:0:0:
256,192,70184,1,8,0:0:0:0:
256,192,70391,1,0,0:0:0:0:
256,192,70495,1,8,0:0:0:0:
256,192,70598,1,0,0:0:0:0:
256,192,70702,1,0,0:0:0:0:
256,192,70805,1,8,0:0:0:0:
256,192,71012,1,8,0:0:0:0:
256,192,71219,1,8,0:0:0:0:
256,192,71322,1,8,0:0:0:0:
256,192,71426,1,0,0:0:0:0:
256,192,71633,1,0,0:0:0:0:
256,192,71840,1,8,0:0:0:0:
256,192,71943,1,0,0:0:0:0:
256,192,72046,1,8,0:0:0:0:
256,192,72150,1,8,0:0:0:0:
256,192,72253,1,0,0:0:0:0:
256,192,72357,1,0,0:0:0:0:
256,192,72460,1,8,0:0:0:0:
256,192,72564,1,0,0:0:0:0:
256,192,72667,1,8,0:0:0:0:
256,192,72874,1,0,0:0:0:0:
256,192,72978,1,0,0:0:0:0:
256,192,73081,1,8,0:0:0:0:
256,192,73288,1,8,0:0:0:0:
256,192,73495,1,4,0:0:0:0:
256,192,73702,1,0,0:0:0:0:
256,192,73805,1,0,0:0:0:0:
256,192,73909,1,8,0:0:0:0:
256,192,74115,1,8,0:0:0:0:
256,192,74219,1,8,0:0:0:0:
256,192,74322,1,0,0:0:0:0:
256,192,74529,1,0,0:0:0:0:
256,192,74633,1,8,0:0:0:0:
256,192,74736,1,8,0:0:0:0:
256,192,74840,1,0,0:0:0:0:
256,192,74943,1,8,0:0:0:0:
256,192,75150,1,0,0:0:0:0:
256,192,75357,1,8,0:0:0:0:
256,192,75460,1,0,0:0:0:0:
256,192,75564,1,8,0:0:0:0:
256,192,75667,1,8,0:0:0:0:
256,192,75771,1,0,0:0:0:0:
256,192,75978,1,8,0:0:0:0:
256,192,76081,1,8,0:0:0:0:
256,192,76184,1,0,0:0:0:0:
256,192,76288,1,0,0:0:0:0:
256,192,76391,1,8,0:0:0:0:
256,192,76598,1,0,0:0:0:0:
256,192,76805,1,8,0:0:0:0:
256,192,76909,1,0,0:0:0:0:
256,192,77012,1,0,0:0:0:0:
256,192,77219,1,8,0:0:0:0:
256,192,77426,1,0,0:0:0:0:
256,192,77529,1,0,0:0:0:0:
256,192,77633,1,8,0:0:0:0:
256,192,77840,1,0,0:0:0:0:
256,192,78046,1,8,0:0:0:0:
256,192,78667,1,0,0:0:0:0:
256,192,78874,1,8,0:0:0:0:
256,192,79081,1,8,0:0:0:0:
256,192,79184,1,8,0:0:0:0:
256,192,79288,1,0,0:0:0:0:
256,192,79391,1,8,0:0:0:0:
256,192,79495,1,0,0:0:0:0:
256,192,79598,1,0,0:0:0:0:
256,192,79702,1,8,0:0:0:0:
256,192,79805,1,8,0:0:0:0:
256,192,79909,1,0,0:0:0:0:
256,192,80012,1,8,0:0:0:0:
256,192,80115,1,4,0:0:0:0:
256,192,80322,1,0,0:0:0:0:
256,192,80426,1,0,0:0:0:0:
256,192,80529,1,8,0:0:0:0:
256,192,80633,1,0,0:0:0:0:
256,192,80736,1,8,0:0:0:0:
256,192,80943,1,0,0:0:0:0:
256,192,81150,1,8,0:0:0:0:
256,192,81254,1,8,0:0:0:0:
256,192,81357,1,0,0:0:0:0:
256,192,81460,1,0,0:0:0:0:
256,192,81564,1,8,0:0:0:0:
256,192,81771,1,0,0:0:0:0:
256,192,81978,1,0,0:0:0:0:
256,192,82081,1,8,0:0:0:0:
256,192,82184,1,0,0:0:0:0:
256,192,82288,1,0,0:0:0:0:
256,192,82391,1,8,0:0:0:0:
256,192,82495,1,0,0:0:0:0:
256,192,82598,1,8,0:0:0:0:
256,192,82805,1,8,0:0:0:0:
256,192,82909,1,8,0:0:0:0:
256,192,83012,1,0,0:0:0:0:
256,192,83115,1,8,0:0:0:0:
256,192,83219,1,0,0:0:0:0:
256,192,83322,1,0,0:0:0:0:
256,192,83426,1,8,0:0:0:0:
256,192,83633,1,0,0:0:0:0:
256,192,83736,1,0,0:0:0:0:
256,192,83840,1,0,0:0:0:0:
256,192,84046,1,0,0:0:0:0:
256,192,84150,1,8,0:0:0:0:
256,192,84253,1,8,0:0:0:0:
256,192,84460,1,0,0:0:0:0:
256,192,84564,1,8,0:0:0:0:
256,192,84667,1,0,0:0:0:0:
256,192,84874,1,8,0:0:0:0:
256,192,84978,1,8,0:0:0:0:
256,192,85081,1,0,0:0:0:0:
256,192,85288,1,0,0:0:0:0:
256,192,85391,1,0,0:0:0:0:
256,192,85495,1,8,0:0:0:0:
256,192,85598,1,8,0:0:0:0:
256,192,85702,1,0,0:0:0:0:
256,192,85805,1,8,0:0:0:0:
256,192,85909,1,0,0:0:0:0:
256,192,86012,1,0,0:0:0:0:
256,192,86115,1,8,0:0:0:0:
256,192,86219,1,0,0:0:0:0:
256,192,86322,1,8,0:0:0:0:
256,192,86426,1,8,0:0:0:0:
256,192,86529,1,0,0:0:0:0:
256,192,86633,1,0,0:0:0:0:
256,192,86736,1,8,0:0:0:0:
256,192,86943,1,0,0:0:0:0:
256,192,87046,1,8,0:0:0:0:
256,192,87253,1,8,0:0:0:0:
256,192,87357,1,0,0:0:0:0:
256,192,87460,1,0,0:0:0:0:
256,192,87564,1,8,0:0:0:0:
256,192,87771,1,8,0:0:0:0:
256,192,87874,1,0,0:0:0:0:
256,192,88081,1,0,0:0:0:0:
256,192,88184,1,8,0:0:0:0:
256,192,88288,1,8,0:0:0:0:
256,192,88391,1,0,0:0:0:0:
256,192,88702,1,8,0:0:0:0:
256,192,89012,1,0,0:0:0:0:
256,192,89219,1,8,0:0:0:0:
256,192,89426,1,8,0:0:0:0:
256,192,89529,1,0,0:0:0:0:
256,192,89633,1,8,0:0:0:0:
256,192,89840,1,8,0:0:0:0:
256,192,90046,1,4,0:0:0:0:
256,192,90667,1,4,0:0:0:0:
256,192,91288,1,4,0:0:0:0:
256,192,91495,1,8,0:0:0:0:
256,192,91702,12,8,93150,0:0:0:0:
256,192,93357,5,4,0:0:0:0:
256,192,93563,1,0,0:0:0:0:
256,192,93666,1,0,0:0:0:0:
256,192,93770,1,8,0:0:0:0:
256,192,93977,1,8,0:0:0:0:
256,192,94184,1,0,0:0:0:0:
256,192,94390,1,0,0:0:0:0:
256,192,94597,1,8,0:0:0:0:
256,192,94805,1,0,0:0:0:0:
256,192,94909,1,0,0:0:0:0:
256,192,95012,1,8,0:0:0:0:
256,192,95219,1,8,0:0:0:0:
256,192,95322,1,8,0:0:0:0:
256,192,95426,1,0,0:0:0:0:
256,192,95633,1,0,0:0:0:0:
256,192,95840,1,8,0:0:0:0:
256,192,95943,1,0,0:0:0:0:
256,192,96046,1,0,0:0:0:0:
256,192,96253,1,8,0:0:0:0:
256,192,96460,1,8,0:0:0:0:
256,192,96667,1,0,0:0:0:0:
256,192,96874,1,0,0:0:0:0:
256,192,96978,1,0,0:0:0:0:
256,192,97081,1,8,0:0:0:0:
256,192,97288,1,0,0:0:0:0:
256,192,97495,1,8,0:0:0:0:
256,192,97702,1,0,0:0:0:0:
256,192,97805,1,8,0:0:0:0:
256,192,97909,1,0,0:0:0:0:
256,192,98115,1,8,0:0:0:0:
256,192,98322,1,0,0:0:0:0:
256,192,98529,1,8,0:0:0:0:
256,192,98633,1,0,0:0:0:0:
256,192,98736,1,0,0:0:0:0:
256,192,98943,1,8,0:0:0:0:
256,192,99150,1,0,0:0:0:0:
256,192,99253,1,0,0:0:0:0:
256,192,99357,1,8,0:0:0:0:
256,192,99460,1,0,0:0:0:0:
256,192,99564,1,8,0:0:0:0:
256,192,99771,1,0,0:0:0:0:
256,192,99978,1,8,0:0:0:0:
256,192,100184,1,0,0:0:0:0:
256,192,100288,1,0,0:0:0:0:
256,192,100391,1,8,0:0:0:0:
256,192,100598,1,8,0:0:0:0:
256,192,100805,1,0,0:0:0:0:
256,192,101012,1,0,0:0:0:0:
256,192,101219,1,8,0:0:0:0:
256,192,101426,1,0,0:0:0:0:
256,192,101529,1,0,0:0:0:0:
256,192,101633,1,8,0:0:0:0:
256,192,101840,1,8,0:0:0:0:
256,192,101943,1,8,0:0:0:0:
256,192,102046,1,0,0:0:0:0:
256,192,102253,1,0,0:0:0:0:
256,192,102460,1,8,0:0:0:0:
256,192,102564,1,0,0:0:0:0:
256,192,102667,1,0,0:0:0:0:
256,192,102874,1,8,0:0:0:0:
256,192,103081,1,0,0:0:0:0:
256,192,103184,1,0,0:0:0:0:
256,192,103288,1,8,0:0:0:0:
256,192,103495,1,0,0:0:0:0:
256,192,103598,1,0,0:0:0:0:
256,192,103702,1,0,0:0:0:0:
256,192,103909,1,8,0:0:0:0:
256,192,104115,1,0,0:0:0:0:
256,192,104219,1,0,0:0:0:0:
256,192,104322,1,8,0:0:0:0:
256,192,104529,1,8,0:0:0:0:
256,192,104736,12,0,106185,0:0:0:0:
256,192,106391,5,8,0:0:0:0:
256,192,106495,1,8,0:0:0:0:
256,192,106598,1,4,0:0:0:0:
256,192,106805,1,0,0:0:0:0:
256,192,107012,1,8,0:0:0:0:
256,192,107219,1,8,0:0:0:0:
256,192,107425,1,0,0:0:0:0:
256,192,107839,1,0,0:0:0:0:
256,192,108046,1,0,0:0:0:0:
256,192,108253,1,8,0:0:0:0:
256,192,108460,1,8,0:0:0:0:
256,192,108667,1,8,0:0:0:0:
256,192,108874,1,0,0:0:0:0:
256,192,109288,1,0,0:0:0:0:
256,192,109494,1,8,0:0:0:0:
256,192,109701,1,8,0:0:0:0:
256,192,109805,1,8,0:0:0:0:
256,192,109908,1,0,0:0:0:0:
256,192,110115,1,8,0:0:0:0:
256,192,110322,1,0,0:0:0:0:
256,192,110529,1,0,0:0:0:0:
256,192,110736,1,8,0:0:0:0:
256,192,111150,1,8,0:0:0:0:
256,192,111357,1,0,0:0:0:0:
256,192,111770,1,0,0:0:0:0:
256,192,111977,1,8,0:0:0:0:
256,192,112184,1,8,0:0:0:0:
256,192,112391,1,0,0:0:0:0:
256,192,112598,1,0,0:0:0:0:
256,192,112702,1,0,0:0:0:0:
256,192,112805,1,8,0:0:0:0:
256,192,113012,1,8,0:0:0:0:
256,192,113219,1,0,0:0:0:0:
256,192,113425,1,8,0:0:0:0:
256,192,113632,1,8,0:0:0:0:
256,192,113839,1,0,0:0:0:0:
256,192,114046,1,8,0:0:0:0:
256,192,114460,1,8,0:0:0:0:
256,192,114667,1,0,0:0:0:0:
256,192,114874,1,8,0:0:0:0:
256,192,115081,1,8,0:0:0:0:
256,192,115288,1,0,0:0:0:0:
256,192,115494,1,8,0:0:0:0:
256,192,115908,1,8,0:0:0:0:
256,192,116115,1,8,0:0:0:0:
256,192,116322,1,8,0:0:0:0:
256,192,116426,1,8,0:0:0:0:
256,192,116529,1,0,0:0:0:0:
256,192,116943,1,0,0:0:0:0:
256,192,117150,1,8,0:0:0:0:
256,192,117357,1,0,0:0:0:0:
256,192,117563,1,0,0:0:0:0:
256,192,117667,1,0,0:0:0:0:
256,192,117770,1,8,0:0:0:0:
256,192,117978,12,0,119012,0:0:0:0:
256,192,119219,5,8,0:0:0:0:
256,192,119425,1,0,0:0:0:0:
256,192,119632,1,8,0:0:0:0:
256,192,119840,1,4,0:0:0:0:
256,192,120046,1,0,0:0:0:0:
256,192,120150,1,0,0:0:0:0:
256,192,120253,1,8,0:0:0:0:
256,192,120460,1,0,0:0:0:0:
256,192,120667,1,8,0:0:0:0:
256,192,120874,1,8,0:0:0:0:
256,192,120977,1,8,0:0:0:0:
256,192,121081,1,0,0:0:0:0:
256,192,121184,1,0,0:0:0:0:
256,192,121288,1,8,0:0:0:0:
256,192,121494,1,0,0:0:0:0:
256,192,121701,1,0,0:0:0:0:
256,192,121805,1,0,0:0:0:0:
256,192,121908,1,8,0:0:0:0:
256,192,122115,1,0,0:0:0:0:
256,192,122322,1,8,0:0:0:0:
256,192,122426,1,0,0:0:0:0:
256,192,122529,1,8,0:0:0:0:
256,192,122633,1,8,0:0:0:0:
256,192,122736,1,0,0:0:0:0:
256,192,122943,1,8,0:0:0:0:
256,192,123150,1,0,0:0:0:0:
256,192,123357,1,0,0:0:0:0:
256,192,123460,1,0,0:0:0:0:
256,192,123563,1,8,0:0:0:0:
256,192,123667,1,0,0:0:0:0:
256,192,123770,1,0,0:0:0:0:
256,192,123977,1,8,0:0:0:0:
256,192,124184,1,0,0:0:0:0:
256,192,124288,1,8,0:0:0:0:
256,192,124391,1,0,0:0:0:0:
256,192,124598,1,8,0:0:0:0:
256,192,124805,1,0,0:0:0:0:
256,192,125012,1,0,0:0:0:0:
256,192,125115,1,0,0:0:0:0:
256,192,125219,1,8,0:0:0:0:
256,192,125425,1,0,0:0:0:0:
256,192,125632,1,8,0:0:0:0:
256,192,125840,1,8,0:0:0:0:
256,192,125943,1,0,0:0:0:0:
256,192,126046,1,8,0:0:0:0:
256,192,126253,1,0,0:0:0:0:
256,192,126460,1,8,0:0:0:0:
256,192,126667,1,0,0:0:0:0:
256,192,126770,1,0,0:0:0:0:
256,192,126874,1,8,0:0:0:0:
256,192,126977,1,8,0:0:0:0:
256,192,127081,1,0,0:0:0:0:
256,192,127288,1,8,0:0:0:0:
256,192,127494,1,8,0:0:0:0:
256,192,127598,1,8,0:0:0:0:
256,192,127701,1,0,0:0:0:0:
256,192,127805,1,0,0:0:0:0:
256,192,127908,1,8,0:0:0:0:
256,192,128115,1,0,0:0:0:0:
256,192,128322,1,0,0:0:0:0:
256,192,128425,1,0,0:0:0:0:
256,192,128529,1,8,0:0:0:0:
256,192,128736,1,0,0:0:0:0:
256,192,128943,1,8,0:0:0:0:
256,192,129046,1,0,0:0:0:0:
256,192,129150,1,0,0:0:0:0:
256,192,129253,1,0,0:0:0:0:
256,192,129357,1,8,0:0:0:0:
256,192,129563,1,0,0:0:0:0:
256,192,129667,1,8,0:0:0:0:
256,192,129771,1,0,0:0:0:0:
256,192,129977,1,0,0:0:0:0:
256,192,130081,1,0,0:0:0:0:
256,192,130184,1,8,0:0:0:0:
256,192,130288,1,0,0:0:0:0:
256,192,130391,1,8,0:0:0:0:
256,192,130598,1,8,0:0:0:0:
256,192,130805,1,0,0:0:0:0:
256,192,130908,1,8,0:0:0:0:
256,192,131012,1,0,0:0:0:0:
256,192,131115,1,0,0:0:0:0:
256,192,131219,1,8,0:0:0:0:
256,192,131425,1,8,0:0:0:0:
256,192,131632,1,0,0:0:0:0:
256,192,131736,1,0,0:0:0:0:
256,192,131839,1,8,0:0:0:0:
256,192,132046,1,8,0:0:0:0:
256,192,132150,1,8,0:0:0:0:
256,192,132253,1,0,0:0:0:0:
256,192,132357,1,8,0:0:0:0:
256,192,132460,1,0,0:0:0:0:
256,192,132563,1,0,0:0:0:0:
256,192,132667,1,8,0:0:0:0:
256,192,132874,1,8,0:0:0:0:
256,192,132977,1,8,0:0:0:0:
256,192,133081,1,4,0:0:0:0:
256,192,133288,1,0,0:0:0:0:
256,192,133494,1,8,0:0:0:0:
256,192,133701,1,0,0:0:0:0:
256,192,133805,1,0,0:0:0:0:
256,192,133908,1,8,0:0:0:0:
256,192,134115,1,0,0:0:0:0:
256,192,134322,1,8,0:0:0:0:
256,192,134425,1,8,0:0:0:0:
256,192,134529,1,0,0:0:0:0:
256,192,134736,1,8,0:0:0:0:
256,192,134943,1,0,0:0:0:0:
256,192,135046,1,8,0:0:0:0:
256,192,135150,1,0,0:0:0:0:
256,192,135253,1,0,0:0:0:0:
256,192,135357,1,8,0:0:0:0:
256,192,135563,1,0,0:0:0:0:
256,192,135770,1,8,0:0:0:0:
256,192,135874,1,0,0:0:0:0:
256,192,135977,1,0,0:0:0:0:
256,192,136184,1,8,0:0:0:0:
256,192,136288,1,0,0:0:0:0:
256,192,136391,1,8,0:0:0:0:
256,192,136495,1,8,0:0:0:0:
256,192,136598,1,0,0:0:0:0:
256,192,136701,1,0,0:0:0:0:
256,192,136805,1,8,0:0:0:0:
256,192,137012,1,8,0:0:0:0:
256,192,137115,1,0,0:0:0:0:
256,192,137219,1,0,0:0:0:0:
256,192,137322,1,0,0:0:0:0:
256,192,137425,1,8,0:0:0:0:
256,192,137632,1,8,0:0:0:0:
256,192,137840,12,8,138460,0:0:0:0:
256,192,138667,5,8,0:0:0:0:
256,192,138874,1,0,0:0:0:0:
256,192,138977,1,8,0:0:0:0:
256,192,139081,1,8,0:0:0:0:
256,192,139184,1,0,0:0:0:0:
256,192,139288,1,8,0:0:0:0:
256,192,139391,1,0,0:0:0:0:
256,192,139494,1,8,0:0:0:0:
256,192,139598,1,8,0:0:0:0:
256,192,139702,1,4,0:0:0:0:
256,192,139908,1,0,0:0:0:0:
256,192,140012,1,0,0:0:0:0:
256,192,140115,1,8,0:0:0:0:
256,192,140322,1,0,0:0:0:0:
256,192,140529,1,8,0:0:0:0:
256,192,140632,1,8,0:0:0:0:
256,192,140736,1,0,0:0:0:0:
256,192,140839,1,0,0:0:0:0:
256,192,140943,1,8,0:0:0:0:
256,192,141046,1,0,0:0:0:0:
256,192,141150,1,8,0:0:0:0:
256,192,141357,1,0,0:0:0:0:
256,192,141563,1,8,0:0:0:0:
256,192,141667,1,0,0:0:0:0:
256,192,141770,1,8,0:0:0:0:
256,192,141977,1,8,0:0:0:0:
256,192,142081,1,0,0:0:0:0:
256,192,142184,1,8,0:0:0:0:
256,192,142288,1,8,0:0:0:0:
256,192,142391,1,0,0:0:0:0:
256,192,142494,1,0,0:0:0:0:
256,192,142598,1,8,0:0:0:0:
256,192,142805,1,8,0:0:0:0:
256,192,142908,1,8,0:0:0:0:
256,192,143012,1,4,0:0:0:0:
256,192,143425,1,8,0:0:0:0:
256,192,143632,1,0,0:0:0:0:
256,192,143736,1,0,0:0:0:0:
256,192,143839,1,0,0:0:0:0:
256,192,144046,1,0,0:0:0:0:
256,192,144253,1,8,0:0:0:0:
256,192,144460,1,0,0:0:0:0:
256,192,144563,1,0,0:0:0:0:
256,192,144667,1,12,0:0:0:0:
256,192,144874,1,0,0:0:0:0:
256,192,144977,1,8,0:0:0:0:
256,192,145081,1,0,0:0:0:0:
256,192,145184,1,0,0:0:0:0:
256,192,145288,1,8,0:0:0:0:
256,192,145494,1,8,0:0:0:0:
256,192,145598,1,0,0:0:0:0:
256,192,145701,1,0,0:0:0:0:
256,192,145908,1,8,0:0:0:0:
256,192,146012,1,8,0:0:0:0:
256,192,146115,1,0,0:0:0:0:
256,192,146219,1,8,0:0:0:0:
256,192,146322,1,4,0:0:0:0:
256,192,146736,1,8,0:0:0:0:
256,192,146943,1,0,0:0:0:0:
256,192,147046,1,0,0:0:0:0:
256,192,147150,1,12,0:0:0:0:
256,192,147563,1,8,0:0:0:0:
256,192,147770,1,0,0:0:0:0:
256,192,147977,1,0,0:0:0:0:
256,192,148081,1,0,0:0:0:0:
256,192,148184,1,8,0:0:0:0:
256,192,148391,1,8,0:0:0:0:
256,192,148495,1,0,0:0:0:0:
256,192,148598,1,8,0:0:0:0:
256,192,148805,1,8,0:0:0:0:
256,192,148909,1,8,0:0:0:0:
256,192,149012,1,8,0:0:0:0:
256,192,149115,1,8,0:0:0:0:
256,192,149219,1,0,0:0:0:0:
256,192,149322,1,0,0:0:0:0:
256,192,149426,1,0,0:0:0:0:
256,192,149529,1,0,0:0:0:0:
256,192,149632,1,12,0:0:0:0:
256,192,149840,1,0,0:0:0:0:
256,192,149942,1,0,0:0:0:0:
256,192,150047,1,8,0:0:0:0:
256,192,150254,1,8,0:0:0:0:
256,192,150356,1,8,0:0:0:0:
256,192,150460,1,0,0:0:0:0:
256,192,150667,1,0,0:0:0:0:
256,192,150770,1,8,0:0:0:0:
256,192,150874,1,0,0:0:0:0:
256,192,150977,1,0,0:0:0:0:
256,192,151081,1,8,0:0:0:0:
256,192,151288,1,8,0:0:0:0:
256,192,151495,1,0,0:0:0:0:
256,192,151599,1,8,0:0:0:0:
256,192,151702,1,8,0:0:0:0:
256,192,151909,1,8,0:0:0:0:
256,192,152013,1,0,0:0:0:0:
256,192,152116,1,8,0:0:0:0:
256,192,152220,1,8,0:0:0:0:
256,192,152323,1,0,0:0:0:0:
256,192,152426,1,0,0:0:0:0:
256,192,152530,1,8,0:0:0:0:
256,192,152737,1,0,0:0:0:0:
256,192,152944,1,8,0:0:0:0:
256,192,153151,1,0,0:0:0:0:
256,192,153254,1,0,0:0:0:0:
256,192,153358,1,8,0:0:0:0:
256,192,153461,1,0,0:0:0:0:
256,192,153564,1,8,0:0:0:0:
256,192,153667,1,8,0:0:0:0:
256,192,153771,1,0,0:0:0:0:
256,192,153978,1,8,0:0:0:0:
256,192,154185,1,0,0:0:0:0:
256,192,154289,1,8,0:0:0:0:
256,192,154392,1,8,0:0:0:0:
256,192,154599,1,0,0:0:0:0:
256,192,154806,1,8,0:0:0:0:
256,192,154909,1,0,0:0:0:0:
256,192,155013,1,0,0:0:0:0:
256,192,155116,1,0,0:0:0:0:
256,192,155220,1,8,0:0:0:0:
256,192,155323,1,8,0:0:0:0:
256,192,155426,1,0,0:0:0:0:
256,192,155530,1,8,0:0:0:0:
256,192,155633,1,0,0:0:0:0:
256,192,155737,1,0,0:0:0:0:
256,192,155840,1,8,0:0:0:0:
256,192,156047,1,0,0:0:0:0:
256,192,156254,1,8,0:0:0:0:
256,192,156358,1,0,0:0:0:0:
256,192,156461,1,0,0:0:0:0:
256,192,156564,1,8,0:0:0:0:
256,192,156771,1,8,0:0:0:0:
256,192,156875,1,0,0:0:0:0:
256,192,157082,1,8,0:0:0:0:
256,192,157185,1,0,0:0:0:0:
256,192,157289,1,0,0:0:0:0:
256,192,157392,1,8,0:0:0:0:
256,192,157599,1,8,0:0:0:0:
256,192,157701,1,0,0:0:0:0:
256,192,157909,1,0,0:0:0:0:
256,192,158013,1,0,0:0:0:0:
256,192,158116,1,8,0:0:0:0:
256,192,158220,1,0,0:0:0:0:
256,192,158426,1,0,0:0:0:0:
256,192,158530,1,8,0:0:0:0:
256,192,158737,1,0,0:0:0:0:
256,192,158840,1,0,0:0:0:0:
256,192,158944,1,8,0:0:0:0:
256,192,159047,1,0,0:0:0:0:
256,192,159254,1,0,0:0:0:0:
256,192,159358,1,8,0:0:0:0:
256,192,159564,1,8,0:0:0:0:
256,192,159771,1,0,0:0:0:0:
256,192,159875,1,8,0:0:0:0:
256,192,159978,1,0,0:0:0:0:
256,192,160082,1,0,0:0:0:0:
256,192,160185,1,8,0:0:0:0:
256,192,160392,1,8,0:0:0:0:
256,192,160599,1,8,0:0:0:0:
256,192,160702,1,8,0:0:0:0:
256,192,160806,1,0,0:0:0:0:
256,192,161013,1,0,0:0:0:0:
256,192,161219,1,8,0:0:0:0:
256,192,161322,1,8,0:0:0:0:
256,192,161426,1,0,0:0:0:0:
256,192,161529,1,8,0:0:0:0:
256,192,161633,1,0,0:0:0:0:
256,192,161737,1,0,0:0:0:0:
256,192,161840,1,8,0:0:0:0:
256,192,161944,1,0,0:0:0:0:
256,192,162047,1,8,0:0:0:0:
256,192,162254,1,0,0:0:0:0:
256,192,162358,1,0,0:0:0:0:
256,192,162461,1,8,0:0:0:0:
256,192,162668,1,8,0:0:0:0:
256,192,162874,1,4,0:0:0:0:
256,192,163082,1,0,0:0:0:0:
256,192,163185,1,0,0:0:0:0:
256,192,163289,1,8,0:0:0:0:
256,192,163495,1,8,0:0:0:0:
256,192,163599,1,8,0:0:0:0:
256,192,163702,1,0,0:0:0:0:
256,192,163909,1,0,0:0:0:0:
256,192,164013,1,8,0:0:0:0:
256,192,164116,1,8,0:0:0:0:
256,192,164220,1,0,0:0:0:0:
256,192,164323,1,8,0:0:0:0:
256,192,164530,1,0,0:0:0:0:
256,192,164737,1,8,0:0:0:0:
256,192,164840,1,0,0:0:0:0:
256,192,164944,1,8,0:0:0:0:
256,192,165047,1,8,0:0:0:0:
256,192,165151,1,0,0:0:0:0:
256,192,165358,1,8,0:0:0:0:
256,192,165461,1,8,0:0:0:0:
256,192,165564,1,0,0:0:0:0:
256,192,165668,1,0,0:0:0:0:
256,192,165771,1,8,0:0:0:0:
256,192,165978,1,0,0:0:0:0:
256,192,166185,1,8,0:0:0:0:
256,192,166287,1,0,0:0:0:0:
256,192,166390,1,0,0:0:0:0:
256,192,166597,1,8,0:0:0:0:
256,192,166804,1,0,0:0:0:0:
256,192,166909,1,0,0:0:0:0:
256,192,167013,1,8,0:0:0:0:
256,192,167220,1,0,0:0:0:0:
256,192,167426,1,8,0:0:0:0:
256,192,168047,1,0,0:0:0:0:
256,192,168254,1,8,0:0:0:0:
256,192,168461,1,8,0:0:0:0:
256,192,168564,1,8,0:0:0:0:
256,192,168666,1,0,0:0:0:0:
256,192,168771,1,0,0:0:0:0:
256,192,168875,1,0,0:0:0:0:
256,192,168978,1,8,0:0:0:0:
256,192,169081,1,0,0:0:0:0:
256,192,169184,1,0,0:0:0:0:
256,192,169288,1,8,0:0:0:0:
256,192,169391,1,8,0:0:0:0:
256,192,169495,1,4,0:0:0:0:
256,192,169702,1,0,0:0:0:0:
256,192,169806,1,0,0:0:0:0:
256,192,169909,1,8,0:0:0:0:
256,192,170013,1,0,0:0:0:0:
256,192,170116,1,8,0:0:0:0:
256,192,170321,1,0,0:0:0:0:
256,192,170528,1,8,0:0:0:0:
256,192,170633,1,0,0:0:0:0:
256,192,170736,1,0,0:0:0:0:
256,192,170840,1,0,0:0:0:0:
256,192,170943,1,8,0:0:0:0:
256,192,171150,1,0,0:0:0:0:
256,192,171357,1,0,0:0:0:0:
256,192,171460,1,8,0:0:0:0:
256,192,171563,1,0,0:0:0:0:
256,192,171667,1,0,0:0:0:0:
256,192,171770,1,8,0:0:0:0:
256,192,171874,1,0,0:0:0:0:
256,192,171977,1,8,0:0:0:0:
256,192,172184,1,8,0:0:0:0:
256,192,172288,1,8,0:0:0:0:
256,192,172391,1,0,0:0:0:0:
256,192,172495,1,8,0:0:0:0:
256,192,172598,1,0,0:0:0:0:
256,192,172701,1,0,0:0:0:0:
256,192,172805,1,8,0:0:0:0:
256,192,173012,1,0,0:0:0:0:
256,192,173115,1,0,0:0:0:0:
256,192,173219,1,0,0:0:0:0:
256,192,173425,1,0,0:0:0:0:
256,192,173529,1,8,0:0:0:0:
256,192,173632,1,8,0:0:0:0:
256,192,173839,1,0,0:0:0:0:
256,192,173943,1,8,0:0:0:0:
256,192,174046,1,0,0:0:0:0:
256,192,174253,1,8,0:0:0:0:
256,192,174357,1,8,0:0:0:0:
256,192,174460,1,0,0:0:0:0:
256,192,174667,1,0,0:0:0:0:
256,192,174770,1,0,0:0:0:0:
256,192,174874,1,8,0:0:0:0:
256,192,174977,1,8,0:0:0:0:
256,192,175081,1,0,0:0:0:0:
256,192,175184,1,8,0:0:0:0:
256,192,175288,1,0,0:0:0:0:
256,192,175391,1,0,0:0:0:0:
256,192,175494,1,8,0:0:0:0:
256,192,175597,1,8,0:0:0:0:
256,192,175701,1,0,0:0:0:0:
256,192,175804,1,8,0:0:0:0:
256,192,175908,1,8,0:0:0:0:
256,192,176011,1,8,0:0:0:0:
256,192,176116,1,0,0:0:0:0:
256,192,176322,1,0,0:0:0:0:
256,192,176425,1,8,0:0:0:0:
256,192,176632,1,8,0:0:0:0:
256,192,176736,1,0,0:0:0:0:
256,192,176839,1,0,0:0:0:0:
256,192,176943,1,8,0:0:0:0:
256,192,177150,1,8,0:0:0:0:
256,192,177253,1,0,0:0:0:0:
256,192,177460,1,0,0:0:0:0:
256,192,177563,1,8,0:0:0:0:
256,192,177667,1,8,0:0:0:0:
256,192,177770,1,0,0:0:0:0:
256,192,178081,1,8,0:0:0:0:
256,192,178391,1,8,0:0:0:0:
256,192,178598,1,0,0:0:0:0:
256,192,178805,1,8,0:0:0:0:
256,192,178908,1,0,0:0:0:0:
256,192,179012,1,8,0:0:0:0:
256,192,179219,1,8,0:0:0:0:
256,192,179425,1,0,0:0:0:0:
256,192,179633,12,0,186047,0:0:0:0:
256,192,192667,5,0,0:0:0:0:
256,192,193495,1,0,0:0:0:0:
256,192,194322,1,0,0:0:0:0:
256,192,195150,1,8,0:0:0:0:
256,192,195978,1,0,0:0:0:0:
256,192,196805,1,0,0:0:0:0:
256,192,197633,1,8,0:0:0:0:
256,192,198254,1,8,0:0:0:0:
256,192,198460,1,0,0:0:0:0:
256,192,199288,1,4,0:0:0:0:
256,192,199909,1,0,0:0:0:0:
256,192,200012,1,0,0:0:0:0:
256,192,200115,1,8,0:0:0:0:
256,192,200322,1,0,0:0:0:0:
256,192,200736,1,0,0:0:0:0:
256,192,201150,1,0,0:0:0:0:
256,192,201357,1,8,0:0:0:0:
256,192,201564,1,8,0:0:0:0:
256,192,201771,1,0,0:0:0:0:
256,192,201978,1,0,0:0:0:0:
256,192,202184,1,8,0:0:0:0:
256,192,202391,1,0,0:0:0:0:
256,192,202598,1,8,0:0:0:0:
256,192,202805,1,0,0:0:0:0:
256,192,202909,1,0,0:0:0:0:
256,192,203012,1,8,0:0:0:0:
256,192,203219,1,8,0:0:0:0:
256,192,203426,1,0,0:0:0:0:
256,192,203529,1,8,0:0:0:0:
256,192,203633,1,0,0:0:0:0:
256,192,203701,1,0,0:0:0:0:
256,192,203770,1,0,0:0:0:0:
256,192,203840,1,8,0:0:0:0:
256,192,204047,12,0,205495,0:0:0:0:
256,192,205702,5,8,0:0:0:0:
256,192,205909,5,0,0:0:0:0:
256,192,206529,1,8,0:0:0:0:
256,192,206942,1,0,0:0:0:0:
256,192,207149,1,0,0:0:0:0:
256,192,207564,1,8,0:0:0:0:
256,192,207667,1,8,0:0:0:0:
256,192,207770,1,0,0:0:0:0:
256,192,207873,1,8,0:0:0:0:
256,192,207977,1,0,0:0:0:0:
256,192,208080,1,0,0:0:0:0:
256,192,208184,1,8,0:0:0:0:
256,192,208287,1,8,0:0:0:0:
256,192,208391,1,4,0:0:0:0:
256,192,209011,1,0,0:0:0:0:
256,192,209115,1,0,0:0:0:0:
256,192,209218,1,8,0:0:0:0:
256,192,209425,1,0,0:0:0:0:
256,192,209839,1,8,0:0:0:0:
256,192,210253,1,0,0:0:0:0:
256,192,210356,1,8,0:0:0:0:
256,192,210459,1,8,0:0:0:0:
256,192,210666,1,0,0:0:0:0:
256,192,210873,1,8,0:0:0:0:
256,192,210977,1,8,0:0:0:0:
256,192,211080,1,0,0:0:0:0:
256,192,211184,1,0,0:0:0:0:
256,192,211287,1,8,0:0:0:0:
256,192,211494,1,0,0:0:0:0:
256,192,211701,1,8,0:0:0:0:
256,192,212322,1,0,0:0:0:0:
256,192,212425,1,0,0:0:0:0:
256,192,212528,1,8,0:0:0:0:
256,192,212735,1,0,0:0:0:0:
256,192,213149,1,0,0:0:0:0:
256,192,213356,1,8,0:0:0:0:
256,192,213563,1,8,0:0:0:0:
256,192,213666,1,0,0:0:0:0:
256,192,213770,1,8,0:0:0:0:
256,192,213977,1,0,0:0:0:0:
256,192,214184,1,8,0:0:0:0:
256,192,214391,1,0,0:0:0:0:
256,192,214494,1,0,0:0:0:0:
256,192,214597,1,8,0:0:0:0:
256,192,214804,1,0,0:0:0:0:
256,192,215011,1,8,0:0:0:0:
256,192,215115,1,0,0:0:0:0:
256,192,215218,1,0,0:0:0:0:
256,192,215321,1,8,0:0:0:0:
256,192,215528,1,8,0:0:0:0:
256,192,215632,1,0,0:0:0:0:
256,192,215839,1,8,0:0:0:0:
256,192,215942,1,0,0:0:0:0:
256,192,216046,1,0,0:0:0:0:
256,192,216149,1,8,0:0:0:0:
256,192,216356,1,8,0:0:0:0:
256,192,216459,1,0,0:0:0:0:
256,192,216666,1,0,0:0:0:0:
256,192,216770,1,0,0:0:0:0:
256,192,216873,1,8,0:0:0:0:
256,192,216977,1,0,0:0:0:0:
256,192,217183,1,0,0:0:0:0:
256,192,217287,1,8,0:0:0:0:
256,192,217494,1,0,0:0:0:0:
256,192,217597,1,0,0:0:0:0:
256,192,217701,1,8,0:0:0:0:
256,192,217804,1,0,0:0:0:0:
256,192,218011,1,0,0:0:0:0:
256,192,218115,1,8,0:0:0:0:
256,192,218321,1,8,0:0:0:0:
256,192,218528,1,0,0:0:0:0:
256,192,218632,1,8,0:0:0:0:
256,192,218735,1,0,0:0:0:0:
256,192,218839,1,0,0:0:0:0:
256,192,218942,1,8,0:0:0:0:
256,192,219149,1,8,0:0:0:0:
256,192,219356,1,8,0:0:0:0:
256,192,219459,1,8,0:0:0:0:
256,192,219563,1,0,0:0:0:0:
256,192,219770,1,0,0:0:0:0:
256,192,219977,1,8,0:0:0:0:
256,192,220079,1,8,0:0:0:0:
256,192,220183,1,0,0:0:0:0:
256,192,220286,1,0,0:0:0:0:
256,192,220390,1,8,0:0:0:0:
256,192,220494,1,0,0:0:0:0:
256,192,220597,1,8,0:0:0:0:
256,192,220700,1,8,0:0:0:0:
256,192,220803,1,0,0:0:0:0:
256,192,221011,1,0,0:0:0:0:
256,192,221115,1,0,0:0:0:0:
256,192,221218,1,8,0:0:0:0:
256,192,221425,1,8,0:0:0:0:
256,192,221632,1,4,0:0:0:0:
256,192,221839,1,0,0:0:0:0:
256,192,221942,1,0,0:0:0:0:
256,192,222046,1,8,0:0:0:0:
256,192,222252,1,8,0:0:0:0:
256,192,222356,1,8,0:0:0:0:
256,192,222459,1,0,0:0:0:0:
256,192,222666,1,0,0:0:0:0:
256,192,222770,1,8,0:0:0:0:
256,192,222873,1,8,0:0:0:0:
256,192,222977,1,0,0:0:0:0:
256,192,223080,1,8,0:0:0:0:
256,192,223287,1,0,0:0:0:0:
256,192,223494,1,8,0:0:0:0:
256,192,223597,1,0,0:0:0:0:
256,192,223701,1,8,0:0:0:0:
256,192,223804,1,8,0:0:0:0:
256,192,223908,1,0,0:0:0:0:
256,192,224115,1,8,0:0:0:0:
256,192,224218,1,8,0:0:0:0:
256,192,224321,1,0,0:0:0:0:
256,192,224425,1,0,0:0:0:0:
256,192,224528,1,8,0:0:0:0:
256,192,224735,1,0,0:0:0:0:
256,192,224942,1,8,0:0:0:0:
256,192,225046,1,0,0:0:0:0:
256,192,225149,1,0,0:0:0:0:
256,192,225356,1,8,0:0:0:0:
256,192,225563,1,0,0:0:0:0:
256,192,225666,1,0,0:0:0:0:
256,192,225770,1,8,0:0:0:0:
256,192,225977,1,0,0:0:0:0:
256,192,226183,1,8,0:0:0:0:
256,192,226804,1,0,0:0:0:0:
256,192,227011,1,8,0:0:0:0:
256,192,227218,1,8,0:0:0:0:
256,192,227321,1,8,0:0:0:0:
256,192,227425,1,0,0:0:0:0:
256,192,227528,1,0,0:0:0:0:
256,192,227632,1,0,0:0:0:0:
256,192,227735,1,8,0:0:0:0:
256,192,227838,1,0,0:0:0:0:
256,192,227941,1,0,0:0:0:0:
256,192,228045,1,8,0:0:0:0:
256,192,228149,1,8,0:0:0:0:
256,192,228253,1,4,0:0:0:0:
256,192,228459,1,0,0:0:0:0:
256,192,228563,1,0,0:0:0:0:
256,192,228666,1,8,0:0:0:0:
256,192,228770,1,0,0:0:0:0:
256,192,228873,1,8,0:0:0:0:
256,192,229080,1,0,0:0:0:0:
256,192,229287,1,8,0:0:0:0:
256,192,229390,1,0,0:0:0:0:
256,192,229494,1,0,0:0:0:0:
256,192,229597,1,0,0:0:0:0:
256,192,229701,1,8,0:0:0:0:
256,192,229908,1,0,0:0:0:0:
256,192,230115,1,0,0:0:0:0:
256,192,230218,1,8,0:0:0:0:
256,192,230321,1,0,0:0:0:0:
256,192,230425,1,0,0:0:0:0:
256,192,230528,1,8,0:0:0:0:
256,192,230632,1,0,0:0:0:0:
256,192,230735,1,8,0:0:0:0:
256,192,230942,1,8,0:0:0:0:
256,192,231046,1,8,0:0:0:0:
256,192,231149,1,0,0:0:0:0:
256,192,231252,1,8,0:0:0:0:
256,192,231356,1,0,0:0:0:0:
256,192,231459,1,0,0:0:0:0:
256,192,231563,1,8,0:0:0:0:
256,192,231770,1,0,0:0:0:0:
256,192,231873,1,0,0:0:0:0:
256,192,231977,1,0,0:0:0:0:
256,192,232183,1,0,0:0:0:0:
256,192,232287,1,8,0:0:0:0:
256,192,232390,1,8,0:0:0:0:
256,192,232597,1,0,0:0:0:0:
256,192,232701,1,8,0:0:0:0:
256,192,232804,1,0,0:0:0:0:
256,192,233011,1,8,0:0:0:0:
256,192,233115,1,8,0:0:0:0:
256,192,233218,1,0,0:0:0:0:
256,192,233425,1,0,0:0:0:0:
256,192,233528,1,0,0:0:0:0:
256,192,233632,1,8,0:0:0:0:
256,192,233735,1,8,0:0:0:0:
256,192,233839,1,0,0:0:0:0:
256,192,233942,1,8,0:0:0:0:
256,192,234046,1,0,0:0:0:0:
256,192,234149,1,0,0:0:0:0:
256,192,234252,1,8,0:0:0:0:
256,192,234356,1,0,0:0:0:0:
256,192,234459,1,8,0:0:0:0:
256,192,234563,1,8,0:0:0:0:
256,192,234666,1,0,0:0:0:0:
256,192,234770,1,0,0:0:0:0:
256,192,234873,1,8,0:0:0:0:
256,192,235080,1,0,0:0:0:0:
256,192,235183,1,8,0:0:0:0:
256,192,235390,1,8,0:0:0:0:
256,192,235494,1,0,0:0:0:0:
256,192,235597,1,0,0:0:0:0:
256,192,235701,1,8,0:0:0:0:
256,192,235908,1,8,0:0:0:0:
256,192,236011,1,0,0:0:0:0:
256,192,236218,1,0,0:0:0:0:
256,192,236321,1,8,0:0:0:0:
256,192,236425,1,8,0:0:0:0:
256,192,236528,1,0,0:0:0:0:
256,192,236839,1,8,0:0:0:0:
256,192,237149,1,8,0:0:0:0:
256,192,237356,1,0,0:0:0:0:
256,192,237563,1,8,0:0:0:0:
256,192,237666,1,0,0:0:0:0:
256,192,237770,1,8,0:0:0:0:
256,192,237977,1,8,0:0:0:0:
256,192,238184,1,4,0:0:0:0:
256,192,238804,1,4,0:0:0:0:
256,192,239425,1,4,0:0:0:0:
256,192,239632,1,8,0:0:0:0:
256,192,239839,1,0,0:0:0:0:
256,192,239943,1,0,0:0:0:0:
256,192,240047,1,0,0:0:0:0:
256,192,240150,1,8,0:0:0:0:
256,192,240254,1,0,0:0:0:0:
256,192,240357,1,0,0:0:0:0:
256,192,240460,1,8,0:0:0:0:
256,192,240564,1,8,0:0:0:0:
256,192,240667,1,0,0:0:0:0:
256,192,240771,1,8,0:0:0:0:
256,192,240874,1,0,0:0:0:0:
256,192,240978,1,0,0:0:0:0:
256,192,241081,1,8,0:0:0:0:
256,192,241185,1,8,0:0:0:0:
256,192,241288,1,8,0:0:0:0:
256,192,241392,1,0,0:0:0:0:
256,192,241494,1,8,0:0:0:0:
256,192,241597,1,0,0:0:0:0:
256,192,241701,1,0,0:0:0:0:
256,192,241804,1,0,0:0:0:0:
256,192,241908,1,8,0:0:0:0:
256,192,242011,1,0,0:0:0:0:
256,192,242115,1,8,0:0:0:0:
256,192,242218,1,8,0:0:0:0:
256,192,242322,1,0,0:0:0:0:
256,192,242425,1,8,0:0:0:0:
256,192,242529,1,8,0:0:0:0:
256,192,242632,1,8,0:0:0:0:
256,192,242735,1,0,0:0:0:0:
256,192,242839,1,0,0:0:0:0:
256,192,242942,1,8,0:0:0:0:
256,192,243046,1,0,0:0:0:0:
256,192,243149,1,8,0:0:0:0:
256,192,243253,1,8,0:0:0:0:
256,192,243356,1,8,0:0:0:0:
256,192,243459,1,0,0:0:0:0:
256,192,243563,1,8,0:0:0:0:
256,192,243666,1,8,0:0:0:0:
256,192,243770,1,0,0:0:0:0:
256,192,243873,1,0,0:0:0:0:
256,192,243977,1,8,0:0:0:0:
256,192,244080,1,0,0:0:0:0:
256,192,244184,1,8,0:0:0:0:
256,192,244287,1,8,0:0:0:0:
256,192,244391,1,0,0:0:0:0:
256,192,244494,1,0,0:0:0:0:
256,192,244597,1,8,0:0:0:0:
256,192,244701,1,0,0:0:0:0:
256,192,244804,1,8,0:0:0:0:
256,192,244908,1,0,0:0:0:0:
256,192,245011,1,0,0:0:0:0:
256,192,245115,1,0,0:0:0:0:
256,192,245218,1,8,0:0:0:0:
256,192,245322,1,0,0:0:0:0:
256,192,245425,1,8,0:0:0:0:
256,192,245528,1,8,0:0:0:0:
256,192,245632,1,0,0:0:0:0:
256,192,245735,1,8,0:0:0:0:
256,192,245839,1,8,0:0:0:0:
256,192,245942,1,8,0:0:0:0:
256,192,246046,1,0,0:0:0:0:
256,192,246149,1,0,0:0:0:0:
256,192,246253,1,8,0:0:0:0:
256,192,246356,1,8,0:0:0:0:
256,192,246459,1,0,0:0:0:0:
256,192,246563,1,0,0:0:0:0:
256,192,246666,1,8,0:0:0:0:
256,192,246770,1,0,0:0:0:0:
256,192,246873,1,8,0:0:0:0:
256,192,246977,1,0,0:0:0:0:
256,192,247080,1,8,0:0:0:0:
256,192,247184,1,8,0:0:0:0:
256,192,247287,1,0,0:0:0:0:
256,192,247391,1,0,0:0:0:0:
256,192,247494,1,8,0:0:0:0:
256,192,247597,1,0,0:0:0:0:
256,192,247701,1,8,0:0:0:0:
256,192,247804,1,8,0:0:0:0:
256,192,247908,1,8,0:0:0:0:
256,192,248115,1,8,0:0:0:0:
256,192,248218,1,0,0:0:0:0:
256,192,248322,1,0,0:0:0:0:
256,192,248425,1,0,0:0:0:0:
256,192,248528,1,8,0:0:0:0:
256,192,248632,1,0,0:0:0:0:
256,192,248735,1,8,0:0:0:0:
256,192,248839,1,8,0:0:0:0:
256,192,248942,1,0,0:0:0:0:
256,192,249046,1,8,0:0:0:0:
256,192,249149,1,8,0:0:0:0:
256,192,249253,1,8,0:0:0:0:
256,192,249356,1,0,0:0:0:0:
256,192,249459,1,0,0:0:0:0:
256,192,249563,1,8,0:0:0:0:
256,192,249666,1,0,0:0:0:0:
256,192,249770,1,8,0:0:0:0:
256,192,249873,1,8,0:0:0:0:
256,192,249977,1,0,0:0:0:0:
256,192,250080,1,0,0:0:0:0:
256,192,250184,1,8,0:0:0:0:
256,192,250287,1,8,0:0:0:0:
256,192,250391,1,8,0:0:0:0:
256,192,250494,1,0,0:0:0:0:
256,192,250597,1,8,0:0:0:0:
256,192,250701,1,8,0:0:0:0:
256,192,250804,1,0,0:0:0:0:
256,192,250908,1,8,0:0:0:0:
256,192,251011,1,0,0:0:0:0:
256,192,251115,1,0,0:0:0:0:
256,192,251218,1,8,0:0:0:0:
256,192,251322,1,0,0:0:0:0:
256,192,251425,1,8,0:0:0:0:
256,192,251528,1,8,0:0:0:0:
256,192,251632,1,0,0:0:0:0:
256,192,251735,1,0,0:0:0:0:
256,192,251839,1,8,0:0:0:0:
256,192,251942,1,0,0:0:0:0:
256,192,252046,1,0,0:0:0:0:
256,192,252149,1,0,0:0:0:0:
256,192,252253,1,8,0:0:0:0:
256,192,252356,1,0,0:0:0:0:
256,192,252459,1,8,0:0:0:0:
256,192,252563,1,8,0:0:0:0:
256,192,252666,1,0,0:0:0:0:
256,192,252770,1,0,0:0:0:0:
256,192,252873,1,8,0:0:0:0:
256,192,252977,1,0,0:0:0:0:
256,192,253080,1,8,0:0:0:0:
256,192,253184,1,0,0:0:0:0:
256,192,253287,1,0,0:0:0:0:
256,192,253391,1,0,0:0:0:0:
256,192,253494,1,8,0:0:0:0:
256,192,253597,1,8,0:0:0:0:
256,192,253701,1,0,0:0:0:0:
256,192,253804,1,8,0:0:0:0:
256,192,253908,1,0,0:0:0:0:
256,192,254011,1,0,0:0:0:0:
256,192,254115,1,8,0:0:0:0:
256,192,254218,1,0,0:0:0:0:
256,192,254322,1,8,0:0:0:0:
256,192,254425,1,8,0:0:0:0:
256,192,254528,1,0,0:0:0:0:
256,192,254735,1,8,0:0:0:0:
256,192,254839,1,0,0:0:0:0:
256,192,254942,1,0,0:0:0:0:
256,192,255046,1,0,0:0:0:0:
256,192,255149,1,8,0:0:0:0:
256,192,255253,1,0,0:0:0:0:
256,192,255356,1,8,0:0:0:0:
256,192,255459,1,8,0:0:0:0:
256,192,255563,1,0,0:0:0:0:
256,192,255666,1,8,0:0:0:0:
256,192,255770,1,8,0:0:0:0:
256,192,255873,1,8,0:0:0:0:
256,192,255977,1,0,0:0:0:0:
256,192,256080,1,0,0:0:0:0:
256,192,256184,1,8,0:0:0:0:
256,192,256287,1,0,0:0:0:0:
256,192,256391,1,8,0:0:0:0:
256,192,256494,1,8,0:0:0:0:
256,192,256597,1,8,0:0:0:0:
256,192,256701,1,0,0:0:0:0:
256,192,256804,1,8,0:0:0:0:
256,192,256908,1,8,0:0:0:0:
256,192,257011,1,0,0:0:0:0:
256,192,257115,1,0,0:0:0:0:
256,192,257218,1,8,0:0:0:0:
256,192,257322,1,0,0:0:0:0:
256,192,257425,1,8,0:0:0:0:
256,192,257528,1,8,0:0:0:0:
256,192,257632,1,0,0:0:0:0:
256,192,257735,1,0,0:0:0:0:
256,192,257839,1,8,0:0:0:0:
256,192,257942,1,0,0:0:0:0:
256,192,258046,1,8,0:0:0:0:
256,192,258149,1,0,0:0:0:0:
256,192,258253,1,0,0:0:0:0:
256,192,258356,1,0,0:0:0:0:
256,192,258459,1,8,0:0:0:0:
256,192,258563,1,0,0:0:0:0:
256,192,258666,1,8,0:0:0:0:
256,192,258770,1,8,0:0:0:0:
256,192,258873,1,0,0:0:0:0:
256,192,258977,1,8,0:0:0:0:
256,192,259080,1,8,0:0:0:0:
256,192,259184,1,8,0:0:0:0:
256,192,259287,1,0,0:0:0:0:
256,192,259391,1,0,0:0:0:0:
256,192,259494,1,8,0:0:0:0:
256,192,259597,1,8,0:0:0:0:
256,192,259701,1,0,0:0:0:0:
256,192,259804,1,0,0:0:0:0:
256,192,259908,1,8,0:0:0:0:
256,192,260011,1,0,0:0:0:0:
256,192,260115,1,8,0:0:0:0:
256,192,260218,1,8,0:0:0:0:
256,192,260322,1,0,0:0:0:0:
256,192,260425,1,8,0:0:0:0:
256,192,260528,1,0,0:0:0:0:
256,192,260632,1,8,0:0:0:0:
256,192,260735,1,8,0:0:0:0:
256,192,260839,1,0,0:0:0:0:
256,192,260942,1,8,0:0:0:0:
256,192,261046,1,8,0:0:0:0:
256,192,261149,1,0,0:0:0:0:
256,192,261356,1,8,0:0:0:0:
256,192,261459,1,0,0:0:0:0:
256,192,261563,1,8,0:0:0:0:
256,192,261666,1,8,0:0:0:0:
256,192,261770,1,0,0:0:0:0:
256,192,261873,1,0,0:0:0:0:
256,192,261977,1,8,0:0:0:0:
256,192,262080,1,0,0:0:0:0:
256,192,262184,1,8,0:0:0:0:
256,192,262287,1,8,0:0:0:0:
256,192,262391,1,0,0:0:0:0:
256,192,262494,1,0,0:0:0:0:
256,192,262597,1,8,0:0:0:0:
256,192,262701,1,8,0:0:0:0:
256,192,262804,1,8,0:0:0:0:
256,192,262908,1,0,0:0:0:0:
256,192,263011,1,8,0:0:0:0:
256,192,263115,1,8,0:0:0:0:
256,192,263218,1,0,0:0:0:0:
256,192,263322,1,8,0:0:0:0:
256,192,263425,1,0,0:0:0:0:
256,192,263528,1,0,0:0:0:0:
256,192,263632,1,8,0:0:0:0:
256,192,263735,1,0,0:0:0:0:
256,192,263839,1,8,0:0:0:0:
256,192,263942,1,8,0:0:0:0:
256,192,264046,1,0,0:0:0:0:
256,192,264149,1,8,0:0:0:0:
256,192,264253,1,0,0:0:0:0:
256,192,264356,1,0,0:0:0:0:
256,192,264459,1,8,0:0:0:0:
256,192,264563,1,0,0:0:0:0:
256,192,264666,1,8,0:0:0:0:
256,192,264770,1,0,0:0:0:0:
256,192,264873,1,0,0:0:0:0:
256,192,264977,1,0,0:0:0:0:
256,192,265080,1,8,0:0:0:0:
256,192,265184,1,0,0:0:0:0:
256,192,265287,1,8,0:0:0:0:
256,192,265391,1,8,0:0:0:0:
256,192,265494,1,8,0:0:0:0:
256,192,265597,1,8,0:0:0:0:
256,192,265701,1,0,0:0:0:0:
256,192,265804,1,0,0:0:0:0:
256,192,265908,1,8,0:0:0:0:
256,192,266011,1,0,0:0:0:0:
256,192,266115,1,0,0:0:0:0:
256,192,266218,1,0,0:0:0:0:
256,192,266322,1,8,0:0:0:0:
256,192,266425,1,0,0:0:0:0:
256,192,266528,1,8,0:0:0:0:
256,192,266632,1,8,0:0:0:0:
256,192,266735,1,0,0:0:0:0:
256,192,266839,1,8,0:0:0:0:
256,192,266942,1,0,0:0:0:0:
256,192,267046,1,0,0:0:0:0:
256,192,267149,1,8,0:0:0:0:
256,192,267253,1,0,0:0:0:0:
256,192,267356,1,8,0:0:0:0:
256,192,267459,1,8,0:0:0:0:
256,192,267563,1,0,0:0:0:0:
256,192,267666,1,0,0:0:0:0:
256,192,267770,1,8,0:0:0:0:
256,192,267977,12,0,269632,0:0:0:0:
